#TITLE:COLORS;
#SUBTITLE:(Tai's Blue Illusion Radio Edit);
#ARTIST:宇多田ヒカル;
#TITLETRANSLIT:;
#SUBTITLETRANSLIT:;
#ARTISTTRANSLIT:Utada Hikaru;
#GENRE:TRANCE;
#CREDIT:;
#MENUCOLOR:;
#NEWMETERSYSTEM:NO;
#BANNER:COLORS (Tai's Blue Illusion Radio Edit).png;
#BACKGROUND:COLORS (Tai's Blue Illusion Radio Edit)-bg.png;
#LYRICSPATH:COLORS (Tai's Blue Illusion Radio Edit).lrc;
#CDTITLE:CDtitle.png;
#MUSIC:COLORS (Tai's Blue Illusion Radio Edit).ogg;
#OFFSET:-3.413;
#SAMPLESTART:89.620;
#SAMPLELENGTH:13.800;
#SELECTABLE:YES;
#LISTSORT:;
#BPMS:0.000=140.000,132.000=35.000,134.000=70.000,166.000=140.000;
#STOPS:;
#BGCHANGES:15.813=COLORS (Tai's Blue Illusion Radio Edit).avi=1.000=1=0=1,
233.167=COLORS (Tai's Blue Illusion Radio Edit)-bg.png=1.000=1=0=1,
235.021=COLORS (Tai's Blue Illusion Radio Edit)-bg.png=1.000=0=0=1,
99999=-nosongbg-=1.000=0=0=0 // don't automatically add -songbackground-
;
#ATTACKS:;

//---------------dance-single - DDRDAIKENKAI----------------
#NOTES:
     dance-single:
     DDRDAIKENKAI:
     Hard:
     8:
     0.509,0.762,0.105,0.389,0.348:
0000
0000
0000
0000
,
0000
0000
0000
0000
,
0000
0000
0000
0000
,
0000
0000
0000
0000
,
0010
1000
0100
0010
0001
0100
0010
1000
,
0010
0100
0001
0010
0100
1000
0010
0100
,
0001
1000
0000
0001
1000
0000
0100
0000
1000
0001
0000
1000
0001
0000
0100
0000
,
0020
0000
0000
0000
,
0000
0000
0000
0000
,
0130
0001
0000
0000
0001
1000
0000
0000
1000
0000
0100
0000
0010
0000
0100
0000
,
1000
0010
0000
0000
0010
0100
0000
0000
0100
0000
0001
0000
0010
0000
0000
0000
,
0001
1000
0000
0000
1000
0100
0000
0000
1000
0000
0001
0000
0100
0000
0010
0000
,
1000
0100
0000
0000
0100
1000
0000
0000
0001
0000
0010
0000
0100
0000
0000
0000
,
1000
0100
1000
0100
0001
0100
1000
0010
,
0001
0010
0001
0010
1000
0100
1000
0100
,
0001
0000
0100
1000
0001
0000
0100
0010
,
1000
0100
0010
0000
0001
0100
1000
0000
,
0001
0000
0101
0000
0010
1000
0100
0000
,
1000
0000
0011
0000
0001
0100
0020
0000
,
1030
0000
0110
0000
0001
0010
0100
0000
,
1000
0000
0101
0000
0010
1000
0100
1000
,
1000
0010
0001
0010
1000
0100
0001
0100
,
1000
0010
0100
0010
1000
0001
0100
0001
,
2000
0000
3010
0000
0120
0000
0130
0010
,
1000
0000
0000
1100
0000
0000
1000
0000
0001
0000
0000
0011
0000
0000
0001
0000
,
0200
0000
0301
0000
0010
0100
1000
0100
,
0020
0000
0031
0000
1000
0001
0100
0000
,
0010
1000
0100
1000
0002
0000
0103
0001
,
0010
0000
0001
0000
1000
0000
0000
0000
0010
0000
0000
0100
0000
0000
0001
0000
,
2000
0000
3100
0000
1000
0001
0100
0010
,
0200
0000
0301
0000
0010
0001
0100
0010
,
1000
0100
0010
0100
1000
0000
0001
0100
,
0002
2000
0000
3003
,
0220
0000
0000
0000
0330
0200
0302
2003
3100
0000
0010
0002
0000
1003
0100
1000
,
0010
0100
0010
0100
0001
0010
0001
0010
0200
0000
1300
0001
0200
0000
0000
0000
,
0302
0000
0000
0000
0000
0000
0000
0000
1003
0001
1000
0002
0000
0013
0001
0010
,
0100
0000
1000
0000
0100
0000
2000
0000
0000
0000
3001
0000
0100
0000
0010
0000
0200
0000
0000
0010
0000
0000
0310
0000
2000
0000
0000
0001
0000
0000
3001
0000
,
0200
0000
0302
0000
0023
0000
0230
0000
2300
0000
3001
0100
0000
0010
1000
0100
,
0010
0001
0010
0100
1000
0010
0100
0001
0200
0000
0001
0302
0000
0000
1000
0000
,
2003
0000
0000
0000
0000
0000
0000
0000
3100
0010
0100
0020
0000
0031
1000
0100
,
2000
0000
0000
0000
0000
0000
0000
0000
3000
0000
0001
0000
0100
0000
0010
0000
0200
0000
0000
0010
0000
0000
0310
0000
2000
0000
0000
3001
0000
0000
0010
0000
,
0002
0000
0010
0000
0100
0000
2003
0000
3001
0000
0000
0001
0000
0000
0001
0000
,
1000
0000
0000
1000
0000
0000
1000
0000
0010
0000
0000
1000
0000
0000
0001
0000
,
1000
0000
0000
0100
0000
0000
0010
0000
0001
0000
0000
0001
0000
0000
0010
0000
,
0100
0000
0000
0100
0000
0000
1000
0000
0001
0000
0000
1000
0000
0000
0010
0000
,
0100
0000
0000
0001
0000
0000
0010
0000
0200
0000
0000
1000
0000
0000
1300
0000
,
0001
0000
0000
0100
0000
0000
0100
0000
0020
0000
0000
1000
0000
0000
1030
0000
,
0010
0000
0100
0000
0010
0000
0100
0000
0002
0000
0000
0103
0000
0000
1000
0000
,
0002
0000
0000
0013
0000
0000
1000
0000
1010
0000
0000
1000
0010
0000
1000
0000
,
0100
0000
0010
0000
0001
0000
0010
0000
0100
0000
1000
0001
0000
0000
0100
0000
,
0010
0000
1000
0010
0000
0000
0100
0000
0001
0000
1000
0100
0000
0000
0010
0000
,
0100
0000
1000
0001
0000
0000
0100
0000
2000
0000
0000
3100
0000
0000
0001
0000
,
0020
0000
0000
0130
0000
0000
1000
0000
0002
0000
0000
0103
0000
0000
0010
0000
,
2000
0000
0000
3010
0000
0000
0100
0000
0001
0000
0010
0100
0000
0000
0010
0000
,
0001
0000
1000
0100
0000
0000
0010
0000
0001
0000
0100
1000
0000
0000
0100
0000
,
0001
0000
0010
0000
0100
0000
1000
0000
1010
0000
0000
1010
0000
0000
0001
0000
,
0101
0000
0000
0101
0000
0000
0100
0000
0001
0010
0001
0000
0100
0010
0100
0000
,
0010
1000
0010
0000
1000
0001
2000
0000
0002
0000
0000
0000
0000
0000
0000
0000
,
0000
0000
0000
0000
0000
0000
0000
0000
0000
0000
0000
0000
0000
0000
0000
0000
0000
0000
0000
0000
0000
0000
0000
0000
0000
0000
0000
0000
0000
0000
0000
0000
0000
0000
0000
0000
0000
0000
0000
0000
0000
0000
0000
0000
0000
0000
0000
0000
0000
0000
0000
0000
0000
0000
0000
0000
0000
0000
0000
0000
0000
0000
0000
0000
0000
0000
0000
0000
0000
0000
0000
0000
0000
0000
0000
0000
0000
0000
0000
0000
0000
0000
0000
0000
0000
0000
0000
0000
0000
0000
0000
0000
0000
0000
0000
0000
0000
0000
0000
0000
0000
0000
0000
0000
0000
0000
0000
0000
0000
0000
0000
0000
0000
0000
0000
0000
0000
0000
0000
0000
0000
0000
0000
0000
0000
0000
0000
0000
0000
0000
0000
0000
0000
0000
0000
0000
0000
0000
0000
0000
0000
0000
0000
0000
0003
3000
0000
0000
0000
0000
0000
0000
0000
0000
0000
0000
0000
0000
0000
0000
0000
0000
0000
0000
0000
0000
0000
0000
0000
0000
0000
0000
0000
0000
0000
0000
0000
0000
0000
0000
0000
0000
0000
0000
0000
0000
0000
0000
0000
0000
0000
0000
;

//---------------dance-single - DDRDAIKENKAI----------------
#NOTES:
     dance-single:
     DDRDAIKENKAI:
     Medium:
     5:
     0.318,0.333,0.000,0.097,0.000: // measure 1
0000
0000
0000
0000
,  // measure 2
0000
0000
0000
0000
,  // measure 3
0000
0000
0000
0000
,  // measure 4
0000
0000
0000
0000
,  // measure 5
0001
0000
1000
0000
0100
1000
0100
0000
,  // measure 6
1000
0000
0001
0000
0100
0001
0100
0000
,  // measure 7
0010
1000
0100
0002
,  // measure 8
0200
0000
0000
0000
,  // measure 9
0000
0000
0303
0000
,  // measure 10
1000
0000
0001
0000
0100
0000
0010
1000
,  // measure 11
0000
0100
1000
0000
0010
0000
0100
0000
,  // measure 12
0001
0000
0010
0000
0001
0000
0100
0001
,  // measure 13
0000
0010
0001
0000
1000
0001
1000
0000
,  // measure 14
0001
0000
1000
0000
0001
0100
0001
0000
,  // measure 15
1000
0000
0001
0000
1000
0010
1000
0000
,  // measure 16
0001
1000
0100
0010
,  // measure 17
0001
0000
1000
0000
0010
0100
0010
0000
,  // measure 18
1000
0001
0000
0100
0000
0001
1000
0001
,  // measure 19
0000
1000
0000
0100
0000
1000
0010
1000
,  // measure 20
0000
0001
0000
0100
0000
0010
0100
0010
,  // measure 21
0000
1000
0000
0100
0000
0010
0001
0010
,  // measure 22
0001
0100
0000
0010
0000
1000
0100
1000
,  // measure 23
0000
0010
0000
0100
0000
0001
0010
0001
,  // measure 24
0200
0000
0310
0000
2000
0000
3010
0100
,  // measure 25
0001
0000
1000
0000
0010
0100
0010
0100
,  // measure 26
0020
0000
1030
0000
0100
1000
0100
0000
,  // measure 27
0020
0000
0031
0000
0100
0001
0100
0000
,  // measure 28
0001
0010
0001
0000
1000
0000
0100
0000
,  // measure 29
1000
0010
1000
0000
0001
0000
1000
0001
,  // measure 30
0020
0000
0031
0000
1000
0100
1000
0000
,  // measure 31
0002
0000
1003
0000
0001
0100
0001
0000
,  // measure 32
0100
0010
0100
0000
0010
0000
1000
0000
,  // measure 33
0100
0001
0010
0001
,  // measure 34
0200
0000
0000
0000
1300
0000
0001
0100
,  // measure 35
0010
0000
1000
0100
0020
0000
0001
0000
,  // measure 36
0100
0000
0031
0000
1000
0000
0010
0100
,  // measure 37
0001
0000
0010
0100
1000
0000
0100
1000
,  // measure 38
0001
1000
0001
1000
0001
0000
0100
0010
,  // measure 39
1000
0000
0010
1000
0100
0000
1000
0000
,  // measure 40
0010
0000
0100
0000
0001
0000
0100
0001
,  // measure 41
0010
0000
0001
0100
0010
0000
1000
0001
,  // measure 42
1000
0001
1000
0001
0100
0000
0010
0000
,  // measure 43
1000
0100
1000
0000
0001
0010
0001
0000
,  // measure 44
0100
0010
0100
0000
0001
0000
0010
0000
,  // measure 45
0100
1000
0010
0100
,  // measure 46
0001
0000
1000
0100
1000
0000
0001
0000
,  // measure 47
0100
0010
0100
0000
0001
0000
0010
0000
,  // measure 48
0100
1000
0100
0000
0010
0000
0001
0000
,  // measure 49
1000
0010
0100
0001
,  // measure 50
1000
0001
1000
0000
0001
0000
0100
0000
,  // measure 51
0010
1000
0010
0000
0100
0000
0001
0000
,  // measure 52
0010
0100
0010
0000
0001
0000
1000
0000
,  // measure 53
0010
1000
0010
0000
1000
0000
0001
0000
,  // measure 54
0100
0010
0100
0000
0001
0000
1000
0000
,  // measure 55
0100
1000
0100
0000
1000
0000
0001
0000
,  // measure 56
0100
0001
0100
0000
0010
0000
1000
0000
,  // measure 57
0001
0000
0010
0000
0100
1000
0100
0000
,  // measure 58
1000
0001
2000
0000
0002
0000
0000
0000
,  // measure 59
0000
0000
0000
3003
;

//---------------dance-single - DDRDAIKENKAI----------------
#NOTES:
     dance-single:
     DDRDAIKENKAI:
     Easy:
     4:
     0.249,0.262,0.041,0.203,0.000: // measure 1
0000
0000
0000
0000
,  // measure 2
0000
0000
0000
0000
,  // measure 3
0000
0000
0000
0000
,  // measure 4
0000
0000
0000
0000
,  // measure 5
1000
0001
0000
0001
,  // measure 6
0100
0010
0000
0010
,  // measure 7
1000
0000
0001
0000
,  // measure 8
2002
0000
0000
0000
,  // measure 9
0000
0000
0000
3003
,  // measure 10
1000
1000
0001
0001
,  // measure 11
1000
0001
1000
0001
,  // measure 12
0100
0100
0010
0010
,  // measure 13
0100
0010
0100
0010
,  // measure 14
1000
0001
0001
1000
,  // measure 15
1000
0001
1000
0001
,  // measure 16
0100
0010
0100
0100
,  // measure 17
0010
0100
0010
0010
,  // measure 18
1000
0100
1000
0001
,  // measure 19
1000
0100
1000
0001
,  // measure 20
0100
0010
0100
0001
,  // measure 21
0100
0010
0100
0001
,  // measure 22
0010
0100
0010
0001
,  // measure 23
0010
0100
0010
0001
,  // measure 24
1000
0001
1000
0001
,  // measure 25
0200
0000
0310
1000
,  // measure 26
0002
1003
0000
1000
,  // measure 27
0200
0310
0000
0010
,  // measure 28
0002
1003
2000
3001
,  // measure 29
0001
1000
0001
1000
,  // measure 30
0200
1300
0000
1000
,  // measure 31
0002
0103
0000
0100
,  // measure 32
0020
0000
2030
0000
,  // measure 33
0200
0000
0000
3300
,  // measure 34
2002
0000
0000
3003
0200
0000
0300
0000
,  // measure 35
0001
1000
0200
0000
,  // measure 36
1300
0000
0020
0030
,  // measure 37
2000
3000
0001
1000
,  // measure 38
0100
0100
0020
0030
,  // measure 39
0002
0003
0200
0300
,  // measure 40
0010
1000
0002
0003
,  // measure 41
2000
3000
0010
0100
,  // measure 42
0001
0001
0001
0001
1000
0000
0001
0000
,  // measure 43
0100
0010
1000
0100
,  // measure 44
1000
0010
0100
0001
,  // measure 45
0100
0001
0010
0001
,  // measure 46
0010
0001
1000
1000
,  // measure 47
0001
0100
0010
0010
,  // measure 48
1000
0100
1000
1000
,  // measure 49
0001
0001
0100
0100
,  // measure 50
0100
0100
0010
1000
,  // measure 51
0100
1000
0010
0001
,  // measure 52
0010
1000
0001
0001
,  // measure 53
1000
1000
0010
0010
,  // measure 54
0100
0100
0001
0010
,  // measure 55
0001
0010
0100
1000
,  // measure 56
0100
1000
1001
0010
,  // measure 57
1001
0100
1002
1000
,  // measure 58
1000
1000
2000
0000
,  // measure 59
0000
0000
0000
3003
;
