#TITLE:Automatic;
#SUBTITLE:Part II;
#ARTIST:Utada;
#TITLETRANSLIT:;
#SUBTITLETRANSLIT:;
#ARTISTTRANSLIT:Utada Hikaru;
#GENRE:R&B;
#CREDIT:;
#MENUCOLOR:;
#NEWMETERSYSTEM:NO;
#BANNER:Automatic Part II.png;
#BACKGROUND:Automatic-bg Part II.png;
#LYRICSPATH:;
#CDTITLE:;
#MUSIC:Automatic Part II.ogg;
#OFFSET:0.000;
#SAMPLESTART:48.980;
#SAMPLELENGTH:19.840;
#SELECTABLE:YES;
#LISTSORT:;
#BPMS:0.000=98.000;
#STOPS:;
#BGCHANGES:;
#ATTACKS:;

//---------------dance-single - DDRDAIKENKAI----------------
#NOTES:
     dance-single:
     DDRDAIKENKAI:
     Hard:
     7:
     0.444,0.409,0.133,0.160,0.227: // measure 1
0000
0000
0000
0000
,  // measure 2
0000
0000
0000
0000
,  // measure 3
0000
0000
0000
0000
,  // measure 4
0000
0000
0000
0000
0000
0000
0000
1000
,  // measure 5
0001
0010
1000
0010
0001
0100
1000
0100
,  // measure 6
0010
1000
0100
1000
0010
1000
0002
0000
,  // measure 7
1003
0100
0010
0001
0100
0010
1000
0001
,  // measure 8
0010
0100
1000
0010
0100
0001
2000
0000
,  // measure 9
3001
0010
0001
0010
0100
1000
0001
1000
,  // measure 10
0100
0010
0100
0010
0001
0100
2000
3000
,  // measure 11
0100
0001
0010
0100
1000
0010
0100
0001
,  // measure 12
1000
0000
0100
0000
0010
0000
0001
0000
0100
0000
0010
0000
1000
0001
0000
0000
,  // measure 13
1001
0000
0100
0000
0010
1000
0000
0200
0000
0000
0310
0000
0001
0000
0000
0000
,  // measure 14
1000
0000
0010
0000
1000
0000
1000
0100
0000
1000
0000
0000
0001
0100
0000
0000
,  // measure 15
0110
0000
0010
0000
1000
0000
0000
0001
0000
0000
0001
0000
0100
0000
0010
0000
,  // measure 16
0000
0000
1000
0000
1001
0000
0001
1000
0000
0100
0000
0000
1000
0000
0001
0000
,  // measure 17
1001
0000
1000
0000
0001
0000
1000
0100
0000
1000
0001
0000
1000
0000
0000
0000
,  // measure 18
0001
0000
0010
0000
0001
0000
1000
0010
0000
1000
0010
0000
0100
0001
0000
0000
,  // measure 19
1001
1000
0002
0010
0010
0010
0003
1000
,  // measure 20
0000
0000
0100
0000
1100
0000
0100
0010
0000
0001
0000
0000
2000
0000
0000
0000
,  // measure 21
3001
0000
0100
0000
0010
0000
0100
0001
0000
0100
0001
0000
1000
0000
0000
0000
,  // measure 22
0100
0000
0010
0000
0100
0000
1000
0100
0000
1000
0100
0000
0001
0000
0000
0000
,  // measure 23
0100
0000
1000
0000
0010
0000
0100
0001
0000
0100
0001
0000
1000
0000
0000
0000
,  // measure 24
0010
0000
0100
0000
0001
0000
1000
0010
0000
1000
0010
0000
1000
0001
0000
1000
,  // measure 25
0000
0100
0000
0000
0010
0100
0000
2000
0000
0000
3001
0000
0101
0000
0000
0000
,  // measure 26
0001
0000
1000
0000
0100
0000
1000
0001
0000
1000
0001
0000
0100
0000
0000
0000
,  // measure 27
0010
0000
1000
0000
0100
0000
1000
0001
0000
1000
0001
0000
0010
0000
0000
0000
,  // measure 28
0001
0000
0100
0000
0010
0000
1000
0100
0000
0010
0001
0000
2001
0000
0000
0000
,  // measure 29
3001
0010
1000
0001
0100
1000
0001
0010
,  // measure 30
0001
1000
0100
0010
0200
1000
2300
3000
,  // measure 31
0001
0010
0001
0100
1000
0100
0001
0010
,  // measure 32
0001
0100
1000
0100
0002
1000
2003
3000
,  // measure 33
0010
1000
0100
0010
0001
0100
0010
1000
,  // measure 34
0001
0010
0100
1000
0002
0100
0203
0300
,  // measure 35
0010
1000
0100
1000
0010
0100
0001
0100
,  // measure 36
0020
1000
1030
0100
0002
0103
2000
0000
,  // measure 37
3001
0000
0010
0000
1000
0000
0010
0001
0000
0001
0100
0000
0110
0000
0010
0000
,  // measure 38
1000
0000
0100
0000
0001
0000
0100
1000
0000
1000
0010
0000
0110
0000
0100
0000
,  // measure 39
0010
0000
1000
0000
0001
0000
0100
0010
0000
0100
0010
0000
1010
0000
1000
0000
,  // measure 40
0001
0000
1000
0000
0010
0000
0100
0001
0000
0100
0001
0000
2000
0000
0001
0000
,  // measure 41
3001
0000
0010
0000
0100
0000
1000
0010
0000
0100
0001
0000
1001
0000
1000
0000
,  // measure 42
0001
0000
0100
0000
0010
0000
1000
0100
0000
0010
0001
0000
1001
0000
1000
0000
,  // measure 43
0010
0000
0100
0000
0001
0000
0010
0100
0000
1000
0001
0000
0101
0000
0100
0000
,  // measure 44
0010
0000
1000
0000
0100
0000
1000
0001
0000
0001
0100
0000
0110
0000
1000
0000
;

//---------------dance-single - DDRDAIKENKAI----------------
#NOTES:
     dance-single:
     DDRDAIKENKAI:
     Medium:
     5:
     0.334,0.311,0.142,0.080,0.000: // measure 1
0000
0000
0000
0000
,  // measure 2
0000
0000
0000
0000
,  // measure 3
0000
0000
0000
0000
,  // measure 4
0000
0000
0000
0000
0000
0000
0000
0001
,  // measure 5
1000
0100
1000
0000
0001
0100
0001
0000
,  // measure 6
0010
0100
0010
0100
0010
0100
0020
0030
,  // measure 7
0001
1000
0001
0000
0100
0010
0100
0000
,  // measure 8
0001
1000
0001
1000
0001
1000
0002
0003
,  // measure 9
1000
0100
0010
0000
0100
1000
0001
0000
,  // measure 10
1000
0010
1000
0010
1000
0010
2000
3000
,  // measure 11
0001
0100
0010
0000
0100
0001
0010
0000
,  // measure 12
0100
1000
0100
1000
0100
1000
0200
0300
,  // measure 13
1000
0001
0100
0000
0010
1000
0100
0000
,  // measure 14
1000
0000
0001
0010
0001
0010
0100
0000
,  // measure 15
1000
0001
0100
0000
0010
1000
0100
0000
,  // measure 16
1000
1001
0001
1001
,  // measure 17
1000
0001
0100
0000
0010
0100
0010
0000
,  // measure 18
0100
0001
0010
0000
0100
0010
0001
0000
,  // measure 19
1000
0100
0010
0200
0300
0000
0000
1000
,  // measure 20
0000
0002
0203
0310
,  // measure 21
0110
0000
1000
1000
0001
0100
0010
0000
,  // measure 22
1000
0000
0001
0001
0010
0100
1000
0000
,  // measure 23
0010
0000
0100
0100
0001
1000
0100
0000
,  // measure 24
0010
0000
0001
0001
1000
1000
0010
0100
,  // measure 25
0010
0000
0010
1000
0001
0000
1001
0000
,  // measure 26
1000
1100
0101
1001
,  // measure 27
1000
0001
0100
0000
0001
0010
0100
0000
,  // measure 28
0020
0000
0032
0000
0103
0010
0100
0000
,  // measure 29
0010
1000
0010
0010
1000
0100
1000
0000
,  // measure 30
0001
0100
0001
0001
0010
0001
0010
0000
,  // measure 31
0001
0100
0010
0010
1000
0100
1000
0000
,  // measure 32
0100
0010
0001
0001
1000
0100
0010
0000
,  // measure 33
0100
1000
0100
0100
1000
0100
1000
0000
,  // measure 34
0010
0100
0010
0010
0100
0010
0100
0000
,  // measure 35
0001
0010
0001
0001
0010
0001
0010
0000
,  // measure 36
0001
1000
0001
0001
1000
0001
1000
0000
,  // measure 37
0010
1000
0100
0000
1000
0010
0100
0000
,  // measure 38
0001
0010
0100
0000
0010
0001
1000
0000
,  // measure 39
0001
0100
0010
0000
1000
0001
0100
0000
,  // measure 40
0010
1000
0100
0000
1000
1000
1000
0000
,  // measure 41
0010
0110
0101
1001
,  // measure 42
1010
1001
0011
0110
,  // measure 43
1000
0100
0010
0000
0001
1000
0010
0000
,  // measure 44
1000
1010
0101
1000
;

//---------------dance-single - DDRDAIKENKAI----------------
#NOTES:
     dance-single:
     DDRDAIKENKAI:
     Easy:
     3:
     0.220,0.233,0.018,0.018,0.000: // measure 1
0000
0000
0000
0000
,  // measure 2
0000
0000
0000
0000
,  // measure 3
0000
0000
0000
0000
,  // measure 4
0000
0000
0000
0000
,  // measure 5
1000
0001
0100
0010
,  // measure 6
1000
0100
0010
0010
,  // measure 7
0001
1000
0010
0100
,  // measure 8
0001
0010
0100
0100
,  // measure 9
1000
0001
1000
0001
,  // measure 10
0100
0010
1000
1000
,  // measure 11
0001
1000
0001
1000
,  // measure 12
0010
0100
0001
0001
,  // measure 13
0010
0100
1000
1000
,  // measure 14
0100
0010
0001
0001
,  // measure 15
0100
0010
1000
1000
,  // measure 16
0010
0100
0001
0001
,  // measure 17
1000
0001
0100
0100
,  // measure 18
0001
1000
0010
0010
,  // measure 19
0100
0000
0100
0000
0000
0000
0000
0010
,  // measure 20
0000
1000
0001
1001
,  // measure 21
1000
0100
0010
0001
,  // measure 22
0001
0010
0100
1000
,  // measure 23
1000
0010
0100
0001
,  // measure 24
0001
0100
0010
1000
,  // measure 25
0001
0001
1000
1000
,  // measure 26
0010
0010
0100
0100
,  // measure 27
0010
0010
0100
0100
,  // measure 28
0001
0001
1000
1000
,  // measure 29
0001
0001
0001
0000
1000
1000
1000
0000
,  // measure 30
0010
0010
0100
0100
,  // measure 31
0001
0001
0001
0000
0010
0010
0010
0000
,  // measure 32
0100
0100
1000
1000
,  // measure 33
0001
0001
0001
0000
1000
1000
1000
0000
,  // measure 34
0100
0100
0010
0010
,  // measure 35
0001
0001
0001
0000
1000
1000
1000
0000
,  // measure 36
0020
0100
0200
0330
,  // measure 37
0010
1000
0100
0010
,  // measure 38
0100
1000
0001
0001
,  // measure 39
0100
0001
0010
0100
,  // measure 40
0010
0001
1000
1000
,  // measure 41
0001
0001
0001
0000
0100
0000
0010
0000
,  // measure 42
1000
1000
1000
0000
0100
0000
0010
0000
,  // measure 43
0001
0001
0001
0000
0100
0000
0010
0000
,  // measure 44
1000
1000
1000
0000
0001
0000
1001
0000
;
