#TITLE:Another Chance;
#SUBTITLE:;
#ARTIST:宇多田ヒカル;
#TITLETRANSLIT:;
#SUBTITLETRANSLIT:;
#ARTISTTRANSLIT:Utada Hikaru;
#GENRE:R&B;
#CREDIT:;
#MENUCOLOR:;
#NEWMETERSYSTEM:NO;
#BANNER:Another Chance.png;
#BACKGROUND:Another Chance-bg.png;
#LYRICSPATH:;
#CDTITLE:CDTitle.png;
#MUSIC:Another Chance.ogg;
#OFFSET:-2.307;
#SAMPLESTART:76.135;
#SAMPLELENGTH:18.457;
#SELECTABLE:YES;
#LISTSORT:;
#BPMS:0.000=104.025;
#STOPS:;
#BGCHANGES:;
#ATTACKS:;

//---------------dance-single - DDRDAIKENKAI----------------
#NOTES:
     dance-single:
     DDRDAIKENKAI:
     Easy:
     3:
     0.220,0.248,0.029,0.000,0.000: // measure 1
0000
0000
0000
0000
,  // measure 2
0000
0000
0000
0000
,  // measure 3
0000
0000
0000
0000
,  // measure 4
0000
0000
0000
0000
,  // measure 5
0001
1000
0100
0000
,  // measure 6
1000
0010
0100
0001
,  // measure 7
0010
0001
0100
0000
,  // measure 8
0010
0010
1000
1000
,  // measure 9
0001
0000
0000
1000
0000
0000
0100
0000
,  // measure 10
1000
0000
0000
0010
0000
0000
0100
0000
,  // measure 11
0001
0000
0000
0010
0000
0000
0001
0000
,  // measure 12
0100
0000
0000
0010
0000
0000
1000
0000
,  // measure 13
0100
0000
0000
1000
0000
0000
0001
0000
,  // measure 14
0100
0000
0000
0010
0000
0000
0100
0000
,  // measure 15
0001
1000
0100
0010
,  // measure 16
0001
0100
1000
0010
,  // measure 17
0001
0000
0000
0010
0000
0000
1000
0000
,  // measure 18
0100
0000
0000
0001
0000
0000
1000
0000
,  // measure 19
0100
0000
0000
0010
0000
0000
0001
0000
,  // measure 20
1000
0000
0000
0010
0000
0000
0100
0000
,  // measure 21
0001
0000
0000
1000
0000
0000
0001
0000
,  // measure 22
0010
0000
0000
0100
0000
0000
1000
0000
,  // measure 23
0010
0010
0100
0100
,  // measure 24
0001
0010
1000
0100
,  // measure 25
1000
0010
0001
0000
,  // measure 26
1000
0100
0010
0000
,  // measure 27
0001
0100
0010
1000
,  // measure 28
0001
0001
1000
0000
,  // measure 29
0001
0010
0001
0010
,  // measure 30
0100
1000
1000
0000
,  // measure 31
0010
0100
0010
1000
,  // measure 32
0001
1000
1001
0000
,  // measure 33
0000
0001
1000
0100
,  // measure 34
0010
0010
0100
1000
,  // measure 35
0010
0100
0000
0001
,  // measure 36
0010
0100
0000
1000
,  // measure 37
0000
0001
0001
0100
,  // measure 38
0010
1000
0100
1000
,  // measure 39
0010
0100
0100
0000
,  // measure 40
0001
0010
0100
1000
,  // measure 41
1001
0001
0100
0010
,  // measure 42
1000
1000
0010
0100
,  // measure 43
0001
0001
0000
1000
,  // measure 44
1000
1000
0000
0100
,  // measure 45
0100
0000
1000
0010
,  // measure 46
0001
0010
1000
0100
,  // measure 47
0010
0000
0001
0000
,  // measure 48
0100
0010
0100
0000
,  // measure 49
0010
1000
0100
0000
,  // measure 50
0010
0001
1000
0001
,  // measure 51
0010
0001
0100
0000
,  // measure 52
0010
0000
1000
0000
,  // measure 53
0110
0000
0000
0000
;

//---------------dance-single - DDRDAIKENKAI----------------
#NOTES:
     dance-single:
     DDRDAIKENKAI:
     Medium:
     5:
     0.354,0.347,0.095,0.000,0.010: // measure 1
0000
0000
0000
0000
,  // measure 2
0000
0000
0000
0000
,  // measure 3
0000
0000
0000
0000
,  // measure 4
0000
0000
0000
0000
,  // measure 5
0001
1000
0001
1000
0010
0000
0010
0000
,  // measure 6
0100
0001
1000
0100
,  // measure 7
0010
0001
0010
0001
1000
0000
0001
0000
,  // measure 8
0100
0001
0100
0000
0010
1000
0010
0000
,  // measure 9
1000
0000
0001
0000
1001
0000
1000
0001
,  // measure 10
0100
0000
0010
0000
0110
0000
1000
0100
,  // measure 11
1000
0000
0010
0000
0110
0000
0100
0001
,  // measure 12
0100
0000
0001
0000
0011
0000
0010
0001
,  // measure 13
0010
0000
0100
0000
0110
0000
1000
0010
,  // measure 14
1000
0001
1001
0100
,  // measure 15
0010
0010
0100
0100
,  // measure 16
0001
0000
0010
0000
1000
0100
0001
0000
,  // measure 17
1000
0000
0001
0000
0100
0000
0010
1000
,  // measure 18
0010
0000
0100
0000
0001
0000
0010
0100
,  // measure 19
0010
0000
0001
0000
1000
0000
0100
1000
,  // measure 20
0100
0000
1000
0000
0010
0000
0100
0001
,  // measure 21
0100
0000
0001
0000
1000
0000
0100
0010
,  // measure 22
0100
0000
1000
0000
0010
0100
0010
0000
,  // measure 23
0100
0001
0100
0000
0010
1000
0010
0000
,  // measure 24
1000
0000
0100
0000
0001
0010
1000
0000
,  // measure 25
0001
0010
0001
0000
0100
0000
0010
1000
,  // measure 26
0010
0100
0001
0000
,  // measure 27
1000
0100
1000
0000
0001
0000
0010
0000
,  // measure 28
0100
0000
1000
0010
1000
0000
0000
0000
,  // measure 29
0001
0100
0001
0000
1000
0100
1000
0000
,  // measure 30
0010
0000
0000
1000
0000
0000
0001
0000
0000
0000
0000
0000
1000
0000
0100
0000
,  // measure 31
1000
0000
0001
0000
0010
0100
0010
0000
,  // measure 32
0001
0000
0000
1000
0000
0000
0100
0000
0000
0000
0000
0000
0000
0000
0000
0000
,  // measure 33
1001
0000
1000
0000
0010
0100
0010
0000
,  // measure 34
1000
0000
0001
0100
0001
0000
1000
0000
,  // measure 35
0010
0100
0010
0000
1000
0000
1000
0000
,  // measure 36
0001
0010
0001
0000
0010
0000
0010
0000
,  // measure 37
0100
0000
1000
1000
0010
0000
0100
0001
,  // measure 38
0010
0000
0001
0000
0100
0010
1000
0000
,  // measure 39
0100
0010
0100
0000
1000
0000
0001
0100
,  // measure 40
0010
0010
1000
1000
0100
0100
0001
0001
,  // measure 41
0000
0000
1000
0001
1000
0000
0001
0100
,  // measure 42
0001
0000
0100
0010
0100
0000
0010
0000
,  // measure 43
1000
0100
0010
0000
0001
0000
0001
0010
,  // measure 44
0100
0000
1000
0000
0010
0000
0010
0100
,  // measure 45
0010
0000
1000
0000
0001
0100
0010
0000
,  // measure 46
1000
0000
0100
0000
0001
0100
1000
0000
,  // measure 47
0001
0010
0100
0000
1000
0001
0100
0000
,  // measure 48
0010
1000
0010
1000
0001
0100
0001
0000
,  // measure 49
0100
1000
0100
1000
0010
0000
0100
0000
,  // measure 50
0010
0100
0001
0000
1000
0001
0100
0000
,  // measure 51
0010
1000
0010
1000
0100
0000
0010
0000
,  // measure 52
0101
0010
1001
0010
,  // measure 53
1100
0000
0000
0000
;

//---------------dance-single - DDRDAIKENKAI----------------
#NOTES:
     dance-single:
     DDRDAIKENKAI:
     Hard:
     8:
     0.521,0.570,0.152,0.000,0.267: // measure 1
0000
0000
0000
0000
,  // measure 2
0000
0000
0000
0000
,  // measure 3
0000
0000
0000
0000
,  // measure 4
0000
0000
0000
0000
,  // measure 5
0001
0000
0100
0000
0001
0100
0000
0001
0000
0000
1000
0000
0100
0000
0000
0000
,  // measure 6
0010
0000
0001
0000
0000
0100
0000
0000
0010
0000
1000
0000
1000
0000
0000
0000
,  // measure 7
0001
0000
0010
0000
0001
0010
0000
0001
0000
0000
1000
0000
0100
0000
0000
0000
,  // measure 8
1000
0000
1000
0000
0000
0010
0000
0000
0100
0000
0001
1000
0001
1000
0001
0000
,  // measure 9
1000
0000
0000
0000
0001
0000
0100
0000
0000
0000
0010
0000
1000
0000
0100
1000
,  // measure 10
0100
0000
0010
0100
0000
1000
0001
0100
,  // measure 11
0010
0000
0000
0000
0100
0000
0001
0000
0000
0000
0010
0000
0010
0000
0001
0010
,  // measure 12
0001
0000
0100
0010
0000
0000
1000
0010
,  // measure 13
0100
0000
0001
1000
0000
0100
1000
0100
,  // measure 14
0010
0000
0001
1000
0100
0010
0001
0000
,  // measure 15
1000
0000
0100
0000
1000
0001
0000
0000
1000
0000
0001
0000
0100
0000
0000
0000
,  // measure 16
0010
0010
1000
1000
0100
0000
0001
0100
,  // measure 17
1000
0000
0001
0000
1000
0100
0000
0000
1000
0000
0001
0000
0100
0000
0010
0100
,  // measure 18
0010
0000
0100
0000
0010
1000
0000
0000
0010
0000
0100
0000
0001
0000
0010
0000
,  // measure 19
0100
0000
1000
0000
0100
1000
0000
0000
0001
0000
0100
0000
0010
0000
0100
0001
,  // measure 20
0100
0000
0001
0000
0100
0001
0000
0000
0010
0000
0001
0000
0100
0000
0010
0000
,  // measure 21
1000
0000
0010
0000
1000
0010
0000
0000
1000
0000
0100
0000
0010
0000
0100
0000
,  // measure 22
1000
0000
0001
0000
1000
0001
0000
0000
1000
0000
0001
0000
0100
0000
0010
0000
,  // measure 23
1000
0000
0010
0000
1000
0010
0000
0000
0100
0000
0010
0000
1000
0000
0001
0000
,  // measure 24
1000
1000
0010
0010
0100
0001
1000
0100
,  // measure 25
0010
0001
0010
0001
0000
1000
0100
1000
,  // measure 26
0100
0000
0000
1000
0000
0000
0001
0000
0000
0000
0100
0000
0010
0000
0000
0000
,  // measure 27
1000
0100
1000
0010
0100
0001
0010
0001
,  // measure 28
0000
0000
0010
0000
0100
0000
1000
0100
0000
1000
0001
0000
1001
0000
0000
0000
,  // measure 29
0001
0100
0010
1000
0000
0001
0010
1000
,  // measure 30
0010
0000
0000
0001
0000
0000
1000
0000
0000
0000
0000
0000
0100
0000
1000
0000
,  // measure 31
0100
0010
0100
0010
0001
0100
0001
0010
,  // measure 32
0100
0000
0000
1000
0000
0000
0001
0000
0100
0010
0100
0010
0100
0010
1000
0000
,  // measure 33
1010
0000
1000
0100
1000
0010
0100
0001
,  // measure 34
0010
1000
0010
0001
0000
1000
1000
0001
,  // measure 35
0100
0000
0010
0000
0100
0010
0000
0000
0110
0000
0000
0010
1000
0000
0001
0000
,  // measure 36
0100
0000
0010
0000
0100
0010
0000
0000
0110
0000
0000
0100
0001
0000
0010
0000
,  // measure 37
0011
0000
1000
1000
0100
1000
0001
0100
,  // measure 38
1000
0000
0100
0000
0001
0000
0010
0100
0000
0010
0100
0000
1000
0000
0100
0000
,  // measure 39
0010
0000
0001
0000
0010
0001
0000
0000
0011
0000
0001
0000
0100
0000
0010
0000
,  // measure 40
1000
0100
1000
0000
0100
0010
0100
0000
0010
0001
0010
0000
0001
0100
0001
0000
,  // measure 41
0101
0000
0000
0000
1000
0000
0100
0000
1000
0000
0001
0000
0010
0000
0001
0100
,  // measure 42
0000
0010
0100
0010
1000
0100
0001
0100
,  // measure 43
1000
0000
0001
0000
0100
0001
0000
0000
1001
0000
0000
0001
1000
0000
0100
0000
,  // measure 44
1000
0000
0010
0000
0100
0010
0000
0000
0110
0000
0000
0010
1000
0000
0100
0000
,  // measure 45
1000
0010
0001
0010
1000
0100
0001
0100
,  // measure 46
1000
0000
0010
0000
0100
0000
0001
0010
0000
0100
1000
0000
0001
0000
0100
0000
,  // measure 47
0110
0100
0010
0000
1001
1000
0001
0100
,  // measure 48
0001
0010
0001
0000
0010
0100
0010
0000
0100
1000
0100
0000
1000
0001
1000
0000
,  // measure 49
0001
0000
0100
0000
0010
1000
0000
0000
1001
0000
0000
0001
1000
0000
0100
0000
,  // measure 50
0010
0000
0100
0000
1000
0010
0000
0000
0110
0000
0000
0010
0100
0000
0001
0000
,  // measure 51
0010
0000
0001
0000
0100
0010
0000
0000
0110
0000
0000
0010
1000
0000
0001
0000
,  // measure 52
1001
0001
1000
0000
0110
0100
0010
0000
,  // measure 53
0100
0000
0000
0000
;
