#TITLE:Addicted To You;
#SUBTITLE:[UP-IN-HEAVEN MIX];
#ARTIST:宇多田ヒカル;
#TITLETRANSLIT:;
#SUBTITLETRANSLIT:;
#ARTISTTRANSLIT:Utada Hikaru;
#GENRE:R&B;
#CREDIT:;
#MENUCOLOR:;
#NEWMETERSYSTEM:NO;
#BANNER:Addicted To You [UP-IN-HEAVEN MIX].png;
#BACKGROUND:Addicted To You [UP-IN-HEAVEN MIX]-bg.png;
#LYRICSPATH:Addicted To You [UP-IN-HEAVEN MIX].lrc;
#CDTITLE:CDTitle.png;
#MUSIC:Addicted To You [UP-IN-HEAVEN MIX].ogg;
#OFFSET:0.000;
#SAMPLESTART:62.200;
#SAMPLELENGTH:20.080;
#SELECTABLE:YES;
#LISTSORT:;
#BPMS:0.000=98.500;
#STOPS:;
#BGCHANGES:-0.040=Addicted To You [UP-IN-HEAVEN MIX].avi=1.000=1=0=0,
168.000=Addicted To You [UP-IN-HEAVEN MIX]-bg.png=1.000=0=0=1,
99999=-nosongbg-=1.000=0=0=0 // don't automatically add -songbackground-
;
#ATTACKS:;

//---------------dance-single - DDRDAIKENKAI----------------
#NOTES:
     dance-single:
     DDRDAIKENKAI:
     Challenge:
     9:
     0.625,0.587,0.187,0.355,0.723:
0000
0000
0000
0000
,
0000
0000
0000
0000
,
0000
0000
0000
0000
,
0000
0000
0000
0000
0000
0000
0000
0000
0100
1000
0100
1000
0100
1000
0100
1000
,
0002
0000
0000
0000
0013
0100
0000
1000
0000
0001
0000
0100
0120
0000
0130
0000
,
0001
0000
1000
0100
0000
2000
0000
3002
0000
0000
1003
0000
1100
0000
0000
1000
,
0001
0100
0000
0010
0100
0000
0001
0000
1000
0000
0001
1000
0001
0100
0010
0000
,
0100
0000
0010
1000
0000
1000
0020
0000
2030
0000
3020
0000
0230
0000
0000
0000
,
0301
0000
0100
0001
0000
0100
0010
0000
0010
0000
1000
0000
1001
0000
0001
0000
,
1000
0000
0100
1000
0000
0100
0010
0000
0010
0000
0001
0000
1001
0000
0001
1000
,
0100
0000
1000
0010
0000
1000
0000
0100
0010
0000
0001
0100
0000
0001
0000
0010
,
0100
0000
0100
0000
0010
0000
0010
0000
0001
0000
1001
0000
1000
0100
1000
0100
,
2000
0000
0000
3001
0200
0000
0310
0000
2000
0000
3100
0000
1100
0000
0200
0000
,
0010
0300
0010
0001
0010
0000
0010
0100
0020
0000
0230
0000
2300
0000
3002
0000
,
0103
0000
0010
0100
0000
0010
0100
0000
0100
0000
0001
0000
1001
0000
2000
0000
,
0001
0000
3001
0100
0010
0000
0010
1000
0100
0000
0100
0010
0002
0000
1003
0100
,
0000
1000
0000
0020
0000
0000
0130
0001
0020
0000
0031
0000
0101
0000
0002
0000
,
1003
0000
0100
1000
0020
0000
2030
0000
3100
0010
0001
0000
0010
0100
2000
0000
,
3001
0000
0100
0010
0000
0100
0010
0000
0010
0000
1000
0000
1001
0000
1000
0001
,
0100
0000
0001
0010
0000
0001
0010
0000
0100
0000
1000
0000
1010
0000
1000
0000
,
0200
0000
0000
2300
0000
0000
3002
0000
0203
0000
0310
0000
0110
0000
0010
0000
,
1000
0000
0001
0010
0001
0000
1000
0000
0001
0100
0001
0000
1000
0010
1000
0000
,
0001
0000
0100
0010
0000
0100
0010
0000
1000
0001
0100
0001
0010
0100
1000
0001
,
0100
0000
0001
0100
0000
0001
0100
0000
0010
1000
0100
1000
0010
0100
0001
0010
,
0100
0000
0010
0100
0000
1000
0000
0001
0100
0000
0010
1000
0000
0100
0000
0010
,
0001
0000
0000
0000
0000
0000
0000
0000
0001
0000
0000
0000
1000
0000
0000
0000
0000
0000
0000
0000
1000
0000
0000
0000
0001
0000
0000
0000
0000
0000
0000
0000
0001
0000
0000
0000
0000
0100
0000
0000
0010
0000
0000
0000
0000
1000
0000
0000
0100
0000
0000
0000
0000
0010
0000
0000
0001
0000
0000
0000
0000
1000
0000
0000
,
0010
0000
0000
0000
0000
1000
0000
0000
0000
0000
0000
0000
1000
0000
0000
0000
0010
0000
0000
0000
0000
0000
0000
0000
1000
0000
0000
0000
0000
0000
0000
0000
1020
0000
0000
0000
0000
0000
0000
0000
0130
0000
0000
0000
0000
0010
0000
0000
0100
0000
0000
0000
0000
0001
0000
0000
0010
0000
0000
0000
0000
0001
0000
0000
,
0100
0000
0000
0000
0000
0001
0000
0000
0000
0000
0000
0000
0001
0000
0000
0000
0100
0000
0000
0000
0000
0000
0000
0000
0001
0000
0000
0000
0000
0000
0000
0000
0201
0000
0000
0000
0000
0000
0000
0000
0310
0000
0000
0000
0100
0000
0000
0000
0010
0000
0000
0000
1000
0000
0000
0000
0001
0000
0000
0000
2000
0000
0000
0000
,
0000
3100
0000
0020
0000
0031
0000
2000
0000
3010
0000
0000
0101
0000
0001
0100
,
0001
0010
0000
0100
0010
0000
0100
0000
1000
0001
0010
0001
1000
0100
1000
0001
,
0010
0100
0000
0010
0100
0000
0110
0000
0012
0000
1003
0001
0100
0010
1000
0100
,
1000
0001
0000
0001
1000
0000
1001
0000
0100
0001
0100
0010
1000
0010
0100
0001
,
1000
0000
1000
0100
0000
1000
0100
0000
1000
0000
0001
0000
1001
0000
0002
0000
,
0023
0000
0230
0000
2300
0000
3010
0000
0100
0001
0100
0000
0010
0100
0010
0000
,
1000
0001
0000
1000
0010
0000
0010
0000
0100
0000
0001
0000
1000
0100
1000
0100
,
0000
0010
0000
0001
0010
0000
0100
0000
1000
0000
0010
0000
0110
0000
1010
0000
,
0000
0000
0100
0000
0100
0000
0010
0100
0010
0000
0010
0100
0001
0000
0001
1000
,
0001
0000
0001
0010
0001
0000
0001
0100
0010
1000
0010
1000
0001
0100
0001
0100
,
0001
1000
0000
0010
0100
0000
0010
0000
1000
0001
0010
0100
1000
0100
0010
0001
,
0000
0100
0000
0010
1000
0000
0001
0000
1000
0100
1000
0010
0100
0001
0010
0001
,
0100
0000
0010
0100
0010
0000
0010
1000
0100
0000
0100
1000
0100
0000
0100
0010
,
0001
0010
0100
1000
0010
1000
0100
0010
0001
0100
0010
1000
0100
1000
0010
1000
;

//---------------dance-single - DDRDAIKENKAI----------------
#NOTES:
     dance-single:
     DDRDAIKENKAI:
     Hard:
     6:
     0.399,0.411,0.065,0.429,0.093: // measure 1
0000
0000
0000
0000
,  // measure 2
0000
0000
0000
0000
,  // measure 3
0000
0000
0000
0000
,  // measure 4
0000
0000
0000
0000
,  // measure 5
2002
0000
0003
3010
,  // measure 6
1000
0100
1000
0010
0200
0000
0301
0000
,  // measure 7
0010
0100
0010
0001
1000
0000
0001
0010
,  // measure 8
0002
0000
2003
0000
3001
0100
0001
0000
,  // measure 9
0100
0000
0010
1000
0010
0000
0100
0000
,  // measure 10
0001
0010
0100
1000
0002
0000
1003
0000
,  // measure 11
0001
0100
0001
0000
1000
0010
1000
0000
,  // measure 12
0001
1000
0001
1000
0002
1000
1003
0000
,  // measure 13
0002
0000
0023
0000
0230
0000
1300
0002
,  // measure 14
0103
0010
0020
0000
1030
0100
1000
0100
,  // measure 15
2000
0000
3001
0010
0002
0000
0103
0000
,  // measure 16
0020
2030
3200
0302
,  // measure 17
0203
0000
1300
0001
1000
0000
0010
0000
,  // measure 18
1000
0001
1000
0001
0010
0100
0010
0100
,  // measure 19
2000
0000
0000
3001
0000
0000
0100
0000
0010
0000
1000
0000
1001
0000
0000
0000
,  // measure 20
0002
0000
0000
1003
0000
0000
0010
0000
0100
0000
0001
0000
1001
0000
1000
0000
,  // measure 21
0002
0000
0000
0023
0000
0000
0230
0000
1300
0000
1000
0000
1010
0000
0000
0000
,  // measure 22
0010
0100
0001
0020
0000
0031
0022
0033
,  // measure 23
0002
0000
0000
2003
0000
0000
3100
0000
0010
0000
0001
0000
0100
0000
0010
0000
,  // measure 24
2000
0000
0000
3020
0000
0000
0130
0000
0001
0000
0010
0000
0100
0000
1000
0000
,  // measure 25
0002
0000
0000
0103
0000
0001
0000
0000
2000
0000
0000
3100
0000
1000
0000
0000
,  // measure 26
0002
0000
0000
0103
0000
0000
0010
0000
1000
0000
0001
0000
1000
0000
0001
0000
,  // measure 27
0100
0001
0100
0001
0010
0000
0010
0100
,  // measure 28
1000
0010
1000
0010
1000
0000
0100
0010
,  // measure 29
0001
1000
0010
0100
0001
1000
0001
1000
,  // measure 30
0020
0000
0230
0000
0301
0010
0100
1000
,  // measure 31
0001
0100
1000
0100
0001
0000
1001
1000
,  // measure 32
0001
0010
1000
0010
0001
0000
1002
1000
,  // measure 33
2003
0000
3020
0000
0230
0000
0301
1000
,  // measure 34
0100
0010
0001
0020
0000
0130
1000
0001
,  // measure 35
0100
0010
0000
0100
0010
0000
0010
0000
0200
0000
0001
0000
0001
0000
0301
1000
,  // measure 36
0000
0001
0000
1000
0010
0000
0010
0000
2000
0000
0000
0000
0100
0000
0100
0000
,  // measure 37
3000
0001
0001
0010
0010
0100
0100
0010
,  // measure 38
0010
1000
1000
0010
0010
0100
1000
1000
,  // measure 39
0010
0100
0000
0010
0100
0000
0100
0000
0002
0000
0000
0000
1000
0000
1003
0100
,  // measure 40
0000
0010
0000
0001
1000
0000
1000
0000
0020
0000
0000
0000
0130
0000
0000
0000
,  // measure 41
0001
0100
0100
0001
0001
1000
1000
0100
,  // measure 42
0100
1000
1000
0010
0010
0001
0002
0000
,  // measure 43
0003
0000
0000
0000
;

//---------------dance-single - DDRDAIKENKAI----------------
#NOTES:
     dance-single:
     DDRDAIKENKAI:
     Medium:
     4:
     0.275,0.292,0.047,0.317,0.000: // measure 1
0000
0000
0000
0000
,  // measure 2
0000
0000
0000
0000
,  // measure 3
0000
0000
0000
0000
,  // measure 4
0000
0000
0000
0000
,  // measure 5
2002
0000
0000
3003
,  // measure 6
0001
0000
1000
0001
1000
0000
0001
0000
,  // measure 7
0100
0000
0001
0010
0001
0000
1000
0000
,  // measure 8
2000
3000
0002
0000
,  // measure 9
0103
0000
0001
0000
1000
0001
1000
0000
,  // measure 10
0010
0000
1000
0100
0010
0000
0001
0000
,  // measure 11
1000
0100
1000
0000
0001
0100
0001
0000
,  // measure 12
0010
0100
0010
0100
0020
0000
0030
0000
,  // measure 13
0002
0023
0230
1300
,  // measure 14
0001
2000
3020
0230
,  // measure 15
0302
0000
0000
1003
,  // measure 16
0002
2003
3200
0320
,  // measure 17
0031
1000
0001
1000
,  // measure 18
0010
0100
0010
0000
0100
0001
0100
0000
,  // measure 19
0002
0000
0013
0000
0100
1000
0100
0000
,  // measure 20
2000
0000
3010
0000
0100
0001
0100
0000
,  // measure 21
0002
2003
0200
3300
,  // measure 22
1000
0000
0001
0000
0100
0000
0010
0010
,  // measure 23
0100
0000
0001
0000
1000
0010
0010
0000
,  // measure 24
0100
0000
0010
0000
0100
0010
0010
0000
,  // measure 25
1000
0000
0001
0000
0100
0001
0001
0000
,  // measure 26
1000
0000
0001
0000
0100
0010
0010
0000
,  // measure 27
1000
0000
0001
1000
0001
0000
1001
0000
,  // measure 28
1000
0000
0100
0010
0100
0000
0110
0000
,  // measure 29
0020
0032
0203
0320
,  // measure 30
2000
0000
3030
0010
,  // measure 31
1000
0000
0100
0010
0100
0000
0110
0000
,  // measure 32
0010
0000
0001
1000
0001
0000
1001
0000
,  // measure 33
0002
0103
2000
3100
,  // measure 34
0002
2003
3020
0230
,  // measure 35
0302
0000
0000
0000
1000
1000
1003
0000
,  // measure 36
0200
0000
0000
0000
0010
0010
0310
0000
,  // measure 37
0000
0001
0000
1000
0000
0001
0000
0100
,  // measure 38
0000
0010
0000
1000
0000
0100
1000
1000
,  // measure 39
0001
1000
0010
1000
0010
0000
0100
0000
,  // measure 40
0001
1000
0100
1000
0100
0000
1000
0000
,  // measure 41
0010
1000
0001
1000
,  // measure 42
0010
0100
0001
0100
;

//---------------dance-single - DDRDAIKENKAI----------------
#NOTES:
     dance-single:
     DDRDAIKENKAI:
     Easy:
     3:
     0.189,0.235,0.037,0.252,0.000: // measure 1
0000
0000
0000
0000
,  // measure 2
0000
0000
0000
0000
,  // measure 3
0000
0000
0000
0000
,  // measure 4
0000
0000
0000
0000
,  // measure 5
2002
0000
0000
3003
,  // measure 6
1000
0001
2000
3000
,  // measure 7
0001
0100
0001
0000
,  // measure 8
0020
0030
0200
0300
,  // measure 9
1000
0001
1000
1000
,  // measure 10
0001
0100
0001
0000
,  // measure 11
0200
0300
0020
0030
,  // measure 12
1000
0001
2002
3003
,  // measure 13
2000
3002
0203
0310
,  // measure 14
0100
0100
0100
0010
,  // measure 15
0200
0000
0000
0300
,  // measure 16
0002
0000
0003
1001
,  // measure 17
1000
1000
0001
0001
,  // measure 18
2000
0000
0000
3000
,  // measure 19
0100
0100
0010
0010
,  // measure 20
0001
0001
1000
1000
,  // measure 21
0002
0003
0200
0300
,  // measure 22
0020
0000
0030
0110
,  // measure 23
0100
0100
0001
1000
,  // measure 24
0001
0001
1000
0100
,  // measure 25
0010
0010
0001
0001
,  // measure 26
1000
0010
0200
0000
,  // measure 27
0301
0001
1000
0000
,  // measure 28
0010
0010
1000
0000
,  // measure 29
0001
1000
0001
0100
,  // measure 30
0020
0030
0200
0000
,  // measure 31
0301
1000
0001
0000
,  // measure 32
1000
0001
1000
0000
,  // measure 33
0200
0000
1300
0000
,  // measure 34
0020
0000
0130
0000
,  // measure 35
0002
0000
0103
0000
,  // measure 36
0020
0000
0130
0000
,  // measure 37
0001
0001
1000
1000
,  // measure 38
0001
1000
0001
1000
,  // measure 39
0020
0000
1030
0000
,  // measure 40
0002
0000
1003
0000
,  // measure 41
0100
0010
0010
0001
,  // measure 42
0001
1000
0100
0010
,  // measure 43
0001
0000
0000
0000
;

//---------------dance-single - DDRDAIKENKAI----------------
#NOTES:
     dance-single:
     DDRDAIKENKAI:
     Beginner:
     1:
     0.117,0.137,0.009,0.093,0.000:
0000
0000
0000
0000
,
0000
0000
0000
0000
,
0000
0000
0000
0000
,
0000
0000
0000
0000
,
1001
0000
0000
0001
,
0001
0000
0001
0000
,
1000
0000
0001
0000
,
0010
0000
0010
0010
,
0010
0000
0001
0000
,
1000
0000
0100
0000
,
1000
0000
0001
0000
,
0100
0100
0100
0000
,
0020
0000
0030
0000
,
2000
0000
3000
0000
,
0002
0000
0003
0000
,
0200
0000
0300
0000
,
0010
0000
0010
0000
,
1000
1000
1000
0000
,
0001
0000
0001
0000
,
1000
0000
1000
0000
,
0100
0100
0100
0000
,
1000
1000
1000
0000
,
0010
0000
1000
0000
,
0001
0000
1000
0000
,
0010
0000
0100
0000
,
0001
0000
0100
0100
,
0100
0000
0010
0000
,
1000
1000
1000
0000
,
0001
0000
1000
0000
,
0100
0100
0100
0000
,
1000
1000
1000
0000
,
0010
0010
0010
0000
,
2000
0000
3000
0000
,
0002
0000
0003
0000
,
0200
0000
0300
0000
,
0020
0000
0030
0000
,
1000
0000
1000
0000
,
0001
0000
0001
0000
,
2000
0000
3000
0000
,
0002
0000
0003
0000
,
0100
0000
0100
0000
,
0010
0000
0010
0000
,
1000
0000
0000
0000
;
