#TITLE:KissからはじまるMiracle;
#SUBTITLE:(2式);
#ARTIST:Steel Angels;
#TITLETRANSLIT:Kiss Kara Hajimaru Miracle;
#SUBTITLETRANSLIT:(Type 2);
#ARTISTTRANSLIT:;
#GENRE:;
#CREDIT:J-Pop;
#BANNER:miracle.png;
#BACKGROUND:miracle-bg.png;
#LYRICSPATH:;
#CDTITLE:dejiko.png;
#MUSIC:miracle.ogg;
#OFFSET:0.838;
#SAMPLESTART:64.880;
#SAMPLELENGTH:12.200;
#SELECTABLE:YES;
#DISPLAYBPM:157.000;
#BPMS:0.000=157.000;
#STOPS:;
#BGCHANGES:2.188=miracle.mpg=1.000=1=0=1===CrossFade==,
99999=-nosongbg-=1.000=0=0=0 // don't automatically add -songbackground-
;
#KEYSOUNDS:;

//---------------dance-single - Saulius R.----------------
#NOTES:
     dance-single:
     Saulius R.:
     Challenge:
     9:
     0.745,0.281,0.775,0.186,0.169: // measure 1
0000
0000
M00M
0000
,  // measure 2
1MM1
1000
0100
0010
0001
1000
0100
0010
,  // measure 3
0001
0100
0010
1000
0001
1000
0001
1000
,  // measure 4
0001
0010
0100
1000
0001
0100
0010
1000
,  // measure 5
0001
0000
0010
0000
0100
0000
1000
0100
1000
0100
1000
0000
1100
0000
1001
0000
,  // measure 6
0101
0001
0100
0010
1000
0001
0100
0010
,  // measure 7
1000
0100
0010
0001
1000
0001
1000
0001
,  // measure 8
1000
0100
0001
0100
1000
0100
0001
0100
,  // measure 9
1000
0000
0100
0000
0010
0000
0001
0010
0001
0010
0001
0000
0011
0000
1001
0000
,  // measure 10
2001
0001
0001
0001
0100
0100
0010
3010
,  // measure 11
2010
0010
0010
0010
0100
0100
0001
3001
,  // measure 12
1001
0000
0110
0000
1100
1100
0000
0011
,  // measure 13
0011
1001
1100
1001
,  // measure 14
1001
0000
1001
0000
1001
0000
0000
0000
1001
0000
1000
0001
0000
1000
0001
0000
,  // measure 15
0000
0000
0101
0000
0101
0000
0000
0000
0101
0000
0100
0001
0000
0100
0001
0000
,  // measure 16
0000
0000
1010
0000
1010
0000
0000
0000
1010
0000
1000
0010
0000
1000
0010
0000
,  // measure 17
0000
0000
1001
0000
1001
0000
0000
0000
1001
0000
1000
0001
0000
1000
0001
0000
,  // measure 18
1001
1000
0100
0010
0001
0100
0010
1000
,  // measure 19
0001
0100
0010
1000
1010
0000
0101
0000
,  // measure 20
1000
0010
0200
0002
0000
0000
0000
0000
,  // measure 21
1000
0010
1000
0010
0303
0000
M0M0
0000
,  // measure 22
1000
0010
0001
0010
1000
0010
0001
0010
,  // measure 23
1000
0100
0010
0001
1000
0001
1001
1001
,  // measure 24
0000
1000
0100
0010
0011
0000
1100
0000
,  // measure 25
0001
0100
0010
2000
0000
0001
3001
0000
,  // measure 26
1000
0100
0001
0100
1000
0100
0001
0100
,  // measure 27
1000
0010
0100
0001
1001
0000
0110
0000
,  // measure 28
0001
0010
0200
2000
0000
0000
0000
0000
,  // measure 29
0010
0001
0010
0001
3300
0000
00MM
0000
,  // measure 30
1000
0010
0100
0001
1000
0100
0010
0001
,  // measure 31
1000
0001
1000
0001
1000
0100
0010
0001
,  // measure 32
0000
1000
0100
0010
0002
0000
0013
0200
,  // measure 33
0000
0000
1300
0000
0001
0000
0000
0000
1001
0000
0000
0000
1000
0100
0010
0001
,  // measure 34
1000
0000
1001
0001
2000
0000
3100
0010
,  // measure 35
0000
0001
0010
0100
1000
0001
1000
0000
,  // measure 36
0001
0001
1000
1000
0010
0010
0100
0000
,  // measure 37
0001
0100
0010
1000
0000
0000
0000
0000
,  // measure 38
0001
0100
0010
1000
0001
1001
1001
0000
,  // measure 39
1000
0010
0100
0001
1000
1001
1001
0000
,  // measure 40
1000
0100
0001
0100
1000
0100
0001
0100
,  // measure 41
1000
0010
0100
0002
0000
1000
1003
0000
,  // measure 42
1001
0000
1000
0000
0001
1000
0001
0000
0000
0000
0010
0000
0100
0010
0100
0000
,  // measure 43
0000
0000
0010
0000
0000
0000
0011
0000
0011
0000
0000
0000
0001
0010
0001
0010
,  // measure 44
0001
1000
0001
0100
0001
1000
0001
0100
,  // measure 45
0001
0100
0010
2000
0000
0001
3001
0000
,  // measure 46
1000
0001
1000
0010
1000
0001
1000
0010
,  // measure 47
1000
0010
0100
0002
0000
1000
1003
0000
,  // measure 48
0001
0010
1000
0010
0001
0010
1000
0010
,  // measure 49
0001
0100
1000
0100
0001
0100
1000
0100
,  // measure 50
0002
0000
2003
0000
0001
3001
0000
1001
,  // measure 51
1000
0100
0010
0001
1000
0000
0001
0010
0100
1000
0001
0000
1000
0001
1000
0001
,  // measure 52
1000
0000
1001
0000
0110
0110
0000
1001
,  // measure 53
1001
1100
1001
0101
,  // measure 54
1001
0000
1001
0000
1001
0000
0000
0000
1001
0000
1000
0001
0000
1000
0001
0000
,  // measure 55
0000
0000
1010
0000
1010
0000
0000
0000
1010
0000
1000
0010
0000
1000
0010
0000
,  // measure 56
0000
0000
0101
0000
0101
0000
0000
0000
0101
0000
0100
0001
0000
0100
0001
0000
,  // measure 57
0000
0000
1001
0000
1001
0000
0000
0000
1001
0000
1000
0001
1000
0000
2002
0000
,  // measure 58
0MM0
3003
0000
0000
0000
0000
0000
0000
;
