#TITLE:Trees in the Depths of the Earth;
#SUBTITLE:Kirby Super Star;
#ARTIST:Jun Ishikawa & Dan Mayakawa;
#TITLETRANSLIT:;
#SUBTITLETRANSLIT:;
#ARTISTTRANSLIT:;
#CREDIT:Pandemonium X;
#BANNER:bn.png;
#BACKGROUND:bg.png;
#LYRICSPATH:;
#CDTITLE:;
#MUSIC:Trees in the Depths of the Earth.mp3;
#OFFSET:-0.240;
#SAMPLESTART:6.620;
#SAMPLELENGTH:12.000;
#SELECTABLE:YES;
#BPMS:0.000=149.460;
#STOPS:;
#BGCHANGES:;

//---------------dance-single - ----------------
#NOTES:
     dance-single:
     :
     Hard:
     9:
     0.558,0.768,0.034,0.118,0.371:
0000
0000
0000
0000
,
0000
0000
0000
0000
,
1100
0000
1000
0001
0100
0000
0010
0000
0100
0001
0100
0001
0100
0000
0001
0100
,
0010
0000
0010
1000
0001
0000
1000
0000
0001
1000
0010
0000
1000
0000
0001
1000
,
0100
1000
0100
0000
0001
0000
0100
0010
,
1000
0000
0001
0000
0000
0000
1000
0000
0001
0000
0000
0000
0100
0000
0000
0010
,
1000
0000
0010
0000
0000
0000
0100
0000
0010
0000
0000
0001
1000
0000
0000
0001
,
0100
0000
0000
1000
0100
0000
0000
0001
0100
0000
0000
0010
0100
0000
0000
0001
,
1000
0001
0100
0000
0000
0000
0010
0000
0100
0000
0000
0000
0010
0000
0000
0000
,
2000
0010
3010
0100
,
0020
0000
0000
0000
0000
0000
0000
0000
0130
0000
0000
0000
0010
0000
0000
0010
,
1000
0000
0000
0001
0100
0000
0000
1000
0100
0000
0000
0001
0100
0000
0000
0001
,
1000
0001
0100
0000
0010
0000
0010
0100
,
0010
0010
0000
0010
1000
0000
0001
0000
,
1000
0000
0100
0000
0000
0000
0001
0000
0100
0000
0000
0010
0100
0000
0000
0001
,
1000
0000
0000
0010
1000
0000
0000
0001
0100
0000
0000
1000
0100
0000
0000
0010
,
0001
0000
0000
0100
0000
0000
0000
0000
0000
0010
0000
0000
1000
0000
0000
0000
0000
0000
0000
0000
0001
0000
0100
0000
,
0010
0000
0000
0010
0100
0000
0010
0000
1000
0000
0001
0000
0100
0000
0001
0000
,
0010
0000
0001
0000
0000
0000
1000
0001
1000
0000
0000
0000
1000
0000
0001
0000
,
0100
0000
0010
1000
0100
0000
1000
0000
0001
1000
0001
1000
0001
1000
0001
1000
,
0001
0000
0100
0000
0000
0000
0010
1000
0002
0000
0000
0000
0000
0000
0000
0000
,
0000
0000
0000
0000
0000
0000
0000
0000
0003
0000
0000
0000
0000
0000
0001
1000
,
0010
1000
0100
0000
0000
0000
0000
0000
0000
0000
0000
0000
0000
0000
0000
0000
,
0001
0000
0001
1000
0001
0000
0100
0000
0001
0100
0001
0000
0100
0010
0100
0000
,
0010
0000
0100
0000
0000
0000
0010
2000
0002
0000
0000
0000
0000
0000
0000
0000
,
0000
0000
0000
0000
0000
0000
0000
0000
0000
3003
0000
0000
1001
0000
0000
0001
,
0010
0100
0001
0000
0000
0000
0000
0000
0000
0000
0000
0000
0000
0000
0000
0000
,
1001
0000
0001
0100
0001
0000
0100
0000
0010
0100
0010
0000
0010
1000
0010
0000
,
0100
0010
1000
0000
0001
0100
0010
1000
,
0010
0010
0000
0010
0010
0000
0010
0000
,
0010
0000
0010
0000
0000
0000
1000
0000
1000
0000
0000
0001
0100
0000
0000
1000
,
0100
0000
0000
0100
0001
0000
0000
1000
0100
0000
0000
0000
0001
0000
0000
0001
,
0100
0001
0100
0000
0000
0000
0010
0000
0100
0000
0000
0000
0010
0000
0000
0000
,
0200
0000
0310
0010
,
2000
0000
0000
0000
0000
0000
0000
0000
3001
0000
0000
0000
0001
0000
0000
0001
,
0100
0000
0000
0001
0100
0000
0000
0010
1000
0000
0000
0010
0100
0000
0000
0000
,
0000
0010
0100
0000
0010
0000
0010
1000
,
0001
0100
0000
0010
1000
0000
0001
0000
,
0001
0000
0100
0000
0000
0000
0010
0000
0100
0000
0000
0010
0100
0000
0000
0001
,
1000
0000
0000
0010
1000
0000
0000
0001
0100
0000
0000
1000
0100
0000
0000
0010
,
0001
0000
0000
0010
0000
0000
0000
0000
0000
0001
0000
0000
0100
0000
0000
0000
0000
0000
0000
0000
1000
0000
0001
0000
,
0100
0000
0000
0010
0100
0000
0001
0000
0001
0100
0001
0100
0001
0100
0001
0100
,
0001
0000
0100
0000
0000
0000
0010
0000
0100
0000
0000
0000
0010
0000
0000
0010
,
1000
0000
0001
0100
0001
0000
0010
0000
0100
0000
0010
0000
1000
0000
0010
0000
,
1000
0000
0100
0000
0000
0000
1000
0001
0200
0000
0000
0000
0000
0000
0000
0000
,
0000
0000
0000
0000
0300
0000
0000
0000
0001
0000
0100
0000
0000
0000
0010
1000
,
0002
0000
0000
0003
,
1000
0000
0000
0001
0000
0000
0100
0000
0010
0000
0010
0200
0000
0000
0000
0000
,
0310
0000
1000
0000
0000
0000
0010
0100
0020
0000
0000
0000
0000
0000
0000
0000
,
0000
0000
0000
0000
0030
0000
0001
1000
0100
0000
1000
0000
0100
0000
0010
0000
,
0200
0000
0320
0000
,
0230
0000
0000
0300
,
0000
0001
1000
0001
0100
0001
0100
0100
,
0000
0010
0100
0001
1000
0010
1000
1000
,
0000
0010
1000
0010
0100
0010
0100
0010
,
1000
0000
0001
0100
0001
0100
0001
0100
,
0001
0000
0001
0100
0000
0010
0100
0010
,
1000
0010
0100
0010
1000
1000
0010
0100
,
0000
0010
0010
0100
0001
0010
0100
0010
,
0001
0000
1000
0001
0000
0100
0010
0000
,
0010
0000
1000
0010
0000
1000
0010
0100
,
0000
0010
1000
0001
0100
0001
0001
0010
,
0010
0001
0010
0001
0001
0010
0001
0100
,
0010
0100
0010
1000
0010
1000
0100
1000
,
0010
1000
0000
0010
1000
0010
0100
0010
,
0100
0100
0001
0100
0001
0100
0001
0010
,
0001
0000
0000
0011
0000
0000
0000
0000
1000
0000
0001
0000
0100
0000
0001
0000
,
0010
0001
0100
0010
0000
0010
1000
0001
,
0100
0000
0010
1000
0001
0000
1000
0000
0001
0100
0010
0100
0010
0000
1000
0001
,
0100
0000
0100
0010
1000
0000
1000
0001
0100
0001
0010
0001
0100
0000
1000
0001
,
0100
0000
0000
0000
;

//---------------dance-single - ----------------
#NOTES:
     dance-single:
     :
     Medium:
     6:
     0.387,0.531,0.202,0.219,0.000:
0000
0000
0000
0000
,
0000
0000
0000
0000
,
0001
0000
1000
0000
0001
0000
0100
0010
,
1000
0000
0010
0000
0010
1000
0001
0000
,
1000
0000
0001
0000
0100
0000
0010
1000
,
0001
0000
1000
0000
0001
0000
0100
0001
,
0100
0000
0010
0000
1000
0000
0001
1000
,
0100
0000
0100
0000
0100
0000
0100
1000
,
0010
0100
0020
0230
,
0020
0000
0330
0020
,
0200
0000
0330
0020
,
1000
1000
1000
1030
,
0001
0000
1000
0000
0100
0000
1000
0010
,
0200
0000
0310
0010
,
0010
1000
0000
0010
0100
0000
0010
0000
,
1000
0001
0100
0001
,
0011
0000
0000
0001
0100
0000
0100
0000
,
0020
0100
0200
0330
,
0010
0100
0000
0100
0010
0000
1000
0000
,
0001
0000
1000
0000
0001
1000
0100
0000
,
2000
0000
0200
0000
,
0000
0000
0000
0000
3300
0000
0000
0001
,
0100
0010
0000
0000
0000
0000
0000
0000
,
0000
0000
0000
0000
,
0010
0200
0000
0000
0020
0000
0000
0000
,
0000
0000
0330
0010
,
0010
1000
0000
0000
0000
0000
0000
0000
,
1001
0000
0000
1100
0000
0000
0101
0000
,
0000
0001
1000
0000
0010
0000
0100
0000
,
0010
0100
0000
0010
0100
0000
0010
0000
,
1000
0001
0000
0000
1000
0000
0001
0000
,
0100
0010
1000
0010
,
0100
0010
0000
0010
0100
0000
0010
0000
,
2000
0000
3010
0100
,
0002
0000
0203
0000
,
0302
0100
0100
0103
,
0000
0001
0100
0000
0010
0000
0100
0000
,
0010
0100
0000
0010
1000
0000
0001
0000
,
1001
1001
0000
0000
0001
0000
0100
0000
,
0010
1000
0010
0100
,
0110
0000
0000
0010
1000
0000
0001
1000
,
0100
2000
0200
3300
,
0010
0100
0000
0001
1000
0000
0100
0000
,
0001
0100
0010
0100
0001
0010
0100
0000
,
0010
0100
0000
0010
2000
0000
0000
0000
,
0000
0000
3000
0000
0001
1000
0000
0200
,
2000
0000
0000
3300
,
0001
0000
1000
0000
,
0001
0100
0000
0010
0200
0000
0000
0000
,
0000
0000
0300
0010
0100
0010
0100
0010
,
2000
0000
3002
0000
,
0200
0000
0000
0303
,
1001
0000
0001
0100
0000
0110
0000
0000
,
0010
0000
0010
1000
0000
1100
0000
0000
,
1000
0000
1000
0100
0000
0011
0000
0000
,
0001
0000
0100
0010
0000
0110
0000
0000
,
0110
0000
0010
1000
0000
1001
0000
0000
,
1100
0000
0100
1000
0000
1100
0000
0000
,
1100
0000
0010
0001
0000
0101
0000
0000
,
0110
0000
0001
1000
0000
1010
0000
0000
,
1000
0000
0001
0100
0000
0100
0010
0100
,
0000
0010
0100
0000
0010
0000
1000
0001
,
0100
0000
1000
0000
0001
1000
0010
1000
,
0001
0000
0100
0000
0001
0100
0001
0000
,
0010
0001
0000
0001
0010
0001
0100
0000
,
0010
1000
0000
0000
0010
0100
0010
0000
,
1001
0000
1000
0100
0000
0011
0000
0000
,
1100
0000
0001
0100
0000
0010
0000
0100
,
0001
1000
0001
1000
0001
0001
1000
0001
,
0100
0010
1000
0100
0010
0001
0001
0100
,
0101
0000
0000
0000
;

//---------------dance-single - ----------------
#NOTES:
     dance-single:
     :
     Easy:
     4:
     0.302,0.384,0.059,0.160,0.000:
0000
0000
0000
0000
,
0000
0000
0000
0000
,
1001
1000
0001
1000
,
0001
0001
0001
0001
,
0100
0010
1000
0010
,
0100
0000
0010
1000
,
1010
0000
0010
1000
,
0001
0100
0001
0010
,
0001
0000
0011
0001
,
0200
0001
0301
0001
,
0200
0001
0301
0001
,
0100
0010
1000
0100
,
0000
1000
0001
0100
,
0001
0000
0001
1000
,
0100
0000
1000
0010
,
0100
0010
1000
0100
,
1000
0000
0001
0000
,
0100
0000
0010
0010
,
0010
1000
0001
1000
,
0100
0010
0001
0100
,
0001
0100
0000
0002
2000
0000
0000
0000
,
0000
0000
0000
0000
3003
0000
0000
0001
,
1000
0001
0000
0000
0000
0000
0000
0000
,
0000
0000
0000
0000
,
0010
1000
0000
0001
2000
0000
0000
0000
,
0000
0000
3000
0001
,
1000
0100
0000
0000
0000
0000
0000
0000
,
1000
0000
0000
1000
0000
0000
1000
0000
,
0001
0100
0010
1000
,
0010
1000
0010
0100
,
0010
1000
0001
0001
,
1000
1000
0001
0100
,
0010
0000
1010
0000
,
0020
1000
1030
0010
,
2000
0000
3001
0001
,
0100
0010
0100
0010
,
1000
0010
0100
0010
,
1001
0000
0100
0010
,
1001
0000
0001
1000
,
0100
1000
0010
0100
,
0001
0000
0001
0000
,
0001
1000
0200
1000
,
1300
0000
1000
0000
,
1000
0100
0010
0001
,
1000
0002
0200
0000
,
0303
0000
0001
2000
,
0200
0000
0000
3300
,
0002
0000
2003
0000
,
3002
0100
0200
0000
,
0303
0000
0001
1000
,
0200
0000
2300
0000
,
0200
0000
0000
3300
,
1000
0000
0001
1000
0000
0001
0000
0000
,
1000
0000
0100
1000
0000
0100
0000
0000
,
0010
0000
0001
0010
0000
0001
0000
0000
,
1000
0000
0100
1000
0000
0100
0000
0000
,
1000
0000
0001
1000
0000
0001
0000
0000
,
1000
0000
0001
0100
0000
0001
0000
0000
,
0010
0000
0010
0100
0000
0010
0000
0000
,
1000
0000
0010
1000
0000
0010
0000
0000
,
1000
0001
0100
0010
,
0000
0010
0100
0010
,
1000
0001
0100
0001
,
0010
1000
0001
0100
,
0010
0000
0010
1000
,
0100
1000
0010
0100
,
0001
1000
0001
0100
,
0001
0010
0001
0010
,
0100
0000
1000
0000
0001
0010
0100
0000
,
0010
0000
0001
0000
0010
0001
1000
0001
,
1001
0000
0000
0000
;

//---------------dance-single - ----------------
#NOTES:
     dance-single:
     :
     Challenge:
     11:
     0.868,0.974,0.236,0.160,0.970:
0000
0000
0000
0000
,
0000
0000
0000
0000
,
1001
0000
0000
0000
0000
0000
0001
0000
1000
0000
0001
0000
1000
0000
0000
0000
0000
0000
1001
0000
0000
0000
0000
0000
0001
0000
0000
1000
0000
0000
0001
0000
0000
1000
0000
0000
0001
0000
0000
0000
0000
0000
1000
0000
0001
0000
1000
0000
,
0001
0000
0000
0000
0000
0000
1000
0000
0001
0000
1000
0000
0001
0000
0000
0000
0000
0000
0001
0000
1000
0000
0001
0000
1000
0000
0000
0001
0000
0000
1000
0000
0000
0001
0000
0000
1000
0000
0000
0000
0000
0000
1001
0000
0000
0000
0000
0000
,
0110
0000
0010
0000
0100
0000
0000
0000
1001
0000
0000
0001
1000
0001
0100
0001
,
0010
0001
0200
0000
0000
0000
0301
1000
0001
0000
0000
0000
1000
0000
0000
0001
,
0010
0001
0100
0000
0000
0000
1000
0001
0100
0000
0000
0010
0200
0000
0000
0310
,
0200
0000
0000
0310
0200
0000
0000
0310
0200
0000
0000
0000
0310
0000
0000
0010
,
1000
0000
0000
0001
0000
0000
1000
0000
0000
0000
0000
0000
0000
0000
0000
0000
0000
0000
0001
0000
0000
0000
0000
0000
1000
0000
0100
0000
1000
0000
0000
0000
0000
0000
0000
0000
1000
0000
0000
0000
0000
0000
0000
0000
0000
0001
0000
0000
,
0100
0000
0001
0000
0100
0000
0001
0000
0100
0000
0001
0000
0100
0000
0000
0000
0000
0000
0000
0000
0000
0001
0000
0000
0010
0000
0000
0000
0000
0000
0000
0000
0000
0000
0000
0000
0001
0000
0000
0000
0000
0000
0000
0000
0000
0001
0000
0000
,
0010
0000
0001
0000
1000
0000
0001
0000
0100
0000
0001
0000
0010
0000
0000
0000
0000
0000
0001
0000
0000
0000
0000
0000
0011
0000
0000
0000
0000
0000
0000
0000
0000
0000
0000
0000
1001
0000
0000
0000
0000
0000
0000
0000
0000
1000
0000
0000
,
0100
0000
0001
0100
0010
0000
0010
0000
0010
1000
0001
0000
1000
0001
0100
0000
,
0010
1000
0010
0000
0100
0000
0010
0100
0010
0000
0100
0000
0010
1000
0001
1000
,
0010
1000
0010
0000
1000
0000
1000
0001
0100
0000
0010
0000
0010
0100
0001
1000
,
0010
0100
0001
0000
1000
0000
0010
0100
0010
0000
0100
0010
0100
0000
0010
0000
,
0010
1000
0010
0000
0001
0100
0010
0100
0010
0000
0100
0000
0001
0100
0010
1000
,
0001
0000
0001
0000
0101
0000
0001
0100
0010
0000
0100
0000
0110
0000
0000
0000
,
0010
1000
0010
0000
0100
0001
0100
0001
0100
0000
0100
0000
0110
0000
0000
0000
,
0010
0100
0010
0000
0100
0000
0010
1000
0010
1000
0001
1000
0001
0000
0000
0000
,
1000
0000
1000
0100
1000
0000
0001
1000
0001
0010
0001
0010
0001
0100
0010
1000
,
0001
0100
0001
0100
0001
0010
0001
0100
,
0001
0010
0001
1000
0100
0010
0001
1000
,
1000
0001
0100
0000
0110
0000
0010
1000
0001
0000
1000
0100
0010
0000
0110
0000
,
0100
1000
0001
0000
1001
0000
0010
0100
0010
0000
0010
0000
1000
0001
0100
0000
,
0010
1000
0010
0001
0010
1000
0010
0001
,
0010
1000
0100
0001
0100
1000
0100
0010
,
0100
0010
0001
0000
1001
0000
1000
0100
0010
0000
0001
1000
0100
0001
0010
0000
,
0001
0100
0010
0000
0110
0000
1000
0001
1000
0000
1000
0000
0100
0010
0001
0000
,
0110
0000
0100
0000
0010
0000
0000
0000
1001
0000
0000
1000
0001
0100
0001
0010
,
0001
0100
0010
0000
0000
0000
1000
0001
0100
0000
0000
0000
0110
0000
0000
0010
,
1000
0001
0010
0000
0000
0000
0001
1000
0001
0000
0000
0001
0100
0000
0000
0010
,
0100
0000
0000
1000
0100
0000
0000
0001
0100
0000
0000
0001
0010
0000
0001
1000
,
0001
0000
0000
0100
0000
0000
0010
0000
0000
0000
0000
0000
0000
0000
0000
0000
0000
0000
1000
0000
0000
0000
0000
0000
1000
0000
0001
0000
0100
0000
0000
0000
0000
0000
0000
0000
0010
0000
0000
0000
0000
0000
0000
0000
0000
0010
0000
0000
,
1000
0000
0100
0000
1000
0000
0100
0000
1000
0000
0100
0000
1000
0000
0000
0100
0000
0000
1000
0000
0000
0100
0000
0000
1000
0000
0000
0000
0000
0000
0000
0000
0000
0000
0000
0000
1000
0000
0000
0000
0000
0000
0000
0000
0000
0001
0000
0000
,
0100
0000
0001
0000
0100
0000
0001
0000
0000
0000
0000
0000
0010
0000
0000
0000
0000
0000
0001
0000
0000
0000
0000
0000
0101
0000
0000
0000
0000
0000
0000
0000
0000
0000
0000
0000
0001
0000
0000
0000
0000
0000
0000
0000
0000
1000
0000
0000
,
0100
0000
0001
0100
0001
0000
0010
1000
0010
0000
1000
0001
0100
0010
1000
0100
,
1000
0000
1000
0001
0100
0000
0010
1000
0001
0000
1000
0100
0010
0001
0010
0100
,
1000
0000
0001
0100
0001
0000
0010
1000
0010
0000
0010
0100
1000
0001
0010
0001
,
0100
0010
0100
0000
0010
0100
0010
0000
0010
1000
0001
0010
0001
0100
0010
1000
,
0100
0000
1000
0100
1000
0000
0001
0010
0001
0010
0100
1000
0001
0100
0010
1000
,
0001
0000
0000
0000
0000
0000
0000
0000
0000
0000
0000
0000
0000
0000
0000
0000
0000
0000
0000
0000
0000
0000
0000
0000
1000
0000
0000
0000
0000
0000
0000
0000
0000
0000
0000
0000
0001
0000
0000
0000
0000
0000
0000
0000
0000
0000
0000
0000
0100
0000
0000
0000
0000
0000
0000
0000
0000
0000
0000
0000
0000
0000
0000
0000
0000
0000
0000
0000
0000
0000
0000
0000
0010
0000
0000
0000
0000
0000
0000
0000
0000
0000
0000
0000
0000
0000
0000
0000
0000
0000
0000
0000
0000
0000
0000
0000
0000
2000
0000
0000
0000
0000
0000
0000
0002
0000
0000
0000
0000
0000
0000
0000
0000
0000
0000
0000
0000
0000
0000
0000
0000
0000
0000
0000
0000
0000
0000
0000
0000
0000
0000
0000
0000
0000
0000
0000
0000
0000
0000
0000
0000
0000
0000
0000
3003
0000
0000
0000
0000
0000
0000
0000
0000
0000
0000
0000
0000
0000
0000
0000
1000
0000
0000
0000
0000
0000
0000
0000
0000
0000
0000
0000
0000
0000
0000
0000
0001
0000
0000
0000
0000
0000
0000
0000
0000
0000
0000
0000
0000
0000
0000
0000
,
0100
0000
0000
0010
0100
0000
0000
1000
0001
0100
0001
0010
0001
0100
0001
0000
,
1000
0000
0002
0000
0000
0000
0010
0000
0013
0000
0000
0000
1000
0000
0000
0001
,
0100
0000
0010
1000
0001
0000
1000
0100
0010
0001
0010
0001
0100
0010
1000
0001
,
1000
0000
0100
0000
0000
0000
1000
0001
0020
0000
0000
0000
0000
0000
0000
0000
,
0030
0000
0000
0000
0000
0000
0000
0000
0001
0000
0100
0000
0000
0000
0010
0100
,
0020
0000
0000
0030
,
1100
0000
0000
0101
0000
0000
0010
0000
0010
0000
0200
0010
0000
0000
0010
0000
,
0310
0000
0100
0000
0000
0000
0010
2000
0002
0000
0000
0000
0000
0000
0000
0000
,
0000
0000
0000
0000
3003
0000
0001
0100
0001
0000
0100
0000
0010
0000
1000
0000
,
0020
0000
2030
0000
,
0200
0000
0000
0000
0000
0000
0000
3300
,
0001
0000
0001
1000
0001
0000
0100
0000
0010
0000
1000
0000
0010
0100
0010
0000
,
0000
0000
1000
0001
0100
0000
0010
0000
1000
0000
0001
0000
0001
0000
0010
0000
,
0000
0000
0001
1000
0100
0000
1000
0000
0001
0000
0100
0000
0001
0000
0010
0001
,
0010
0000
0000
0100
0001
0000
0001
1000
0001
0100
0001
0010
0001
0010
0100
1000
,
0100
0000
1000
0001
0100
0000
0020
0000
0000
0000
1030
0000
1000
0000
0001
0000
,
0100
0000
0010
1000
0001
0000
0001
1000
0100
0000
1000
0000
0001
1000
0100
0000
,
0000
0000
1000
0001
0100
0000
0002
0000
0013
0000
0001
0000
0001
0100
0001
0010
,
0001
0000
0001
1000
0100
0000
1000
0000
0000
0001
0010
0100
1000
0001
0100
0010
,
1000
0000
0000
1000
0001
0000
0101
0000
0000
0000
1000
0001
0100
0000
1001
0000
,
0000
0000
0010
1000
0001
0000
1001
0000
1000
0100
1000
0100
0010
0001
0010
0001
,
0100
0000
0110
0000
0010
1000
0001
0000
1000
0000
0001
0100
0001
0010
0001
0100
,
0010
0000
0000
0000
0000
0000
0100
0000
0000
0000
0000
0000
0010
0000
0000
1000
0000
0000
0100
0000
0000
0000
0000
0000
1000
0000
0000
0000
0000
0000
0001
0000
1000
0000
0001
0000
1000
0000
0000
0000
0000
0000
1000
0000
0000
0001
0000
0000
,
1000
0000
0100
0000
0000
0000
1000
0000
0001
0100
0001
0000
0001
0010
0001
0000
,
0011
0000
0001
0010
0001
0000
0001
0100
0001
0000
0010
0001
1000
0100
0010
0001
,
0200
0000
0000
0310
0000
0000
0010
0000
1000
0000
0001
0000
1000
0001
0100
0000
,
0010
0000
0010
0100
0010
1000
0001
0000
0000
1000
0001
0010
0100
0010
0001
0100
,
0001
0000
0000
0000
0000
0000
0100
0000
1000
0000
0010
0000
0001
0000
0000
0000
0000
0000
0101
0000
0000
0000
0000
0000
1000
0000
0000
0010
0000
0000
0100
0000
0000
0001
0000
0000
1000
0000
0000
0000
0000
0000
0001
0000
1000
0000
0100
0000
,
0010
0000
0000
0000
0000
0000
1000
0000
0100
0000
0010
0000
0001
0000
0000
0000
0000
0000
0100
0000
0010
0000
0100
0000
1000
0000
0000
0010
0000
0000
1000
0000
0000
0100
0000
0000
0010
0000
0000
0000
0000
0000
1000
0000
0000
0001
0000
0000
,
1001
0000
0000
0000
;

//---------------dance-single - ----------------
#NOTES:
     dance-single:
     :
     Beginner:
     1:
     0.090,0.177,0.051,0.000,0.000: // measure 1
0000
0000
0000
0000
,  // measure 2
0000
0000
0000
0000
,  // measure 3
0110
0000
0000
0000
,  // measure 4
0000
0000
0000
0000
,  // measure 5
0001
0000
0000
0000
,  // measure 6
0001
0000
0000
0000
,  // measure 7
1000
0000
0000
0000
,  // measure 8
1000
0000
0000
0000
,  // measure 9
0010
0000
0100
0000
,  // measure 10
0010
0000
0000
0000
,  // measure 11
0010
0000
0000
0000
,  // measure 12
0001
0000
0000
0000
,  // measure 13
1000
0000
0000
0000
,  // measure 14
1000
0000
0000
0000
,  // measure 15
0100
0000
0000
0000
,  // measure 16
0001
0000
0000
0000
,  // measure 17
0010
0000
0100
0000
,  // measure 18
0010
0000
0000
0000
,  // measure 19
1000
0000
0000
0000
,  // measure 20
0001
0000
0000
0000
,  // measure 21
0100
0000
0000
0000
,  // measure 22
0000
0000
0000
0000
,  // measure 23
0110
0000
0000
0000
,  // measure 24
0000
0000
0000
0000
,  // measure 25
0100
0000
0000
0000
,  // measure 26
0000
0000
0000
0000
,  // measure 27
1001
0000
0000
0000
,  // measure 28
0000
0000
0000
0000
,  // measure 29
0001
0000
0000
0000
,  // measure 30
0001
0000
0000
0000
,  // measure 31
1000
0000
0000
0000
,  // measure 32
1000
0000
0000
0000
,  // measure 33
0010
0000
0000
0000
,  // measure 34
0010
0000
0000
0000
,  // measure 35
0100
0000
0000
0000
,  // measure 36
0100
0000
0000
0000
,  // measure 37
1000
0000
0000
0000
,  // measure 38
0001
0000
0000
0000
,  // measure 39
0100
0000
0000
0000
,  // measure 40
0010
0000
0000
0000
,  // measure 41
1000
0000
0000
0000
,  // measure 42
0001
0000
0000
0000
,  // measure 43
0001
0000
0000
0000
,  // measure 44
0100
0000
0000
0000
,  // measure 45
0010
0000
0010
0000
,  // measure 46
0000
0000
1000
0000
,  // measure 47
1000
0000
0000
0000
,  // measure 48
0000
0000
0000
0000
,  // measure 49
0001
0000
0001
0000
,  // measure 50
0000
0000
1000
0000
,  // measure 51
1000
0000
0000
0000
,  // measure 52
0010
0000
0000
0000
,  // measure 53
0110
0000
0000
0000
,  // measure 54
0010
0000
0000
0000
,  // measure 55
1000
0000
0000
0000
,  // measure 56
0001
0000
0000
0000
,  // measure 57
0001
0000
0000
0000
,  // measure 58
1000
0000
0000
0000
,  // measure 59
0100
0000
0000
0000
,  // measure 60
0010
0000
0000
1000
,  // measure 61
1000
0000
0000
0000
,  // measure 62
0001
0000
0000
0000
,  // measure 63
0100
0000
0000
0000
,  // measure 64
0010
0000
0000
0000
,  // measure 65
1000
0000
0000
0000
,  // measure 66
1000
0000
0000
0000
,  // measure 67
0001
0000
0000
0000
,  // measure 68
0100
0000
0000
0000
,  // measure 69
0110
0000
0000
0000
,  // measure 70
0010
0000
0010
0000
,  // measure 71
1001
0000
0000
0000
;
