#TITLE:Boss Battle;
#SUBTITLE:Super Mario World;
#ARTIST:近藤浩治;
#TITLETRANSLIT:;
#SUBTITLETRANSLIT:;
#ARTISTTRANSLIT:Koji Kondo;
#GENRE:;
#CREDIT:Telperion;
#BANNER:;
#BACKGROUND:;
#LYRICSPATH:;
#CDTITLE:;
#MUSIC:Super Mario World - Boss Battle.ogg;
#OFFSET:-6.033;
#SAMPLESTART:2.024;
#SAMPLELENGTH:29.680;
#SELECTABLE:YES;
#BPMS:0.000=248.600;
#STOPS:;
#BGCHANGES:;
#KEYSOUNDS:;

//---------------dance-double - ----------------
#NOTES:
     dance-double:
     :
     Challenge:
     9:
     0.723,0.731,0.049,0.177,0.020:
00000000
00000000
00000000
00000000
,
00000000
00000000
00000000
00000000
,
00000002
00000000
00000000
00000000
,
00000000
00000000
00000000
00000000
,
00000003
00000010
00000001
00000010
00000100
00001000
00000100
00010000
,
00001000
00100000
00010000
10000000
01000000
00100000
00010000
10000000
,
00100000
10000000
00010000
01000000
00000000
00000000
00010000
01000000
,
00100000
00010000
00000000
00000000
00100000
00010000
00001000
00000010
,
00001000
00000000
00010000
00000000
00001000
00000000
00010000
00000010
,
00001000
00000100
00010000
00000010
00000000
00001000
00000100
00000010
,
00000001
00000010
00000100
00001000
00000000
00010000
00100000
01000000
,
10000000
01000000
00100000
00010000
00000000
10000000
00100000
10000000
,
00010000
00100000
00000000
01000000
00000000
00010000
00000000
00001000
,
00000000
00000000
00000000
00000100
00000000
00000001
00000010
00000001
,
00001000
00000010
00000000
00000100
00000000
00001000
00000000
00010000
,
00000000
00000000
00000000
00001000
00000000
00010000
00001000
00000000
,
10000000
00100000
01000000
10000000
00000000
00000000
01000000
00010000
,
00100000
01000000
00010000
00001000
00010000
01000000
10000000
00000000
,
00100000
00000000
00000000
01000000
00000000
00100000
01000000
00000000
,
00010000
00000000
00000000
00000000
00000000
00000000
00100000
00001000
00010000
00000000
00001000
00000000
00010000
00000000
00001000
00000000
,
00010000
00000000
00000000
00000100
00000000
00001000
00000010
00000000
,
00000002
00000000
00000000
00000013
00000000
00000000
00000000
00000000
,
00000000
00020000
00000000
00000000
00032000
00000000
00000000
20003000
,
00000000
00000000
30000000
00000000
,
00010000
00000000
00100000
01000000
00100000
00001000
01000000
00001000
,
00100000
00000000
00000000
00010000
00000000
01000000
00100000
10000000
,
01000000
00100000
00001000
00010000
00100000
10000000
00000000
00010000
,
00100000
01000000
00000000
00020000
00000000
00000000
00000000
00000000
,
00030000
00001000
00100000
00010000
01000000
00001000
00100000
00010000
,
01000000
00100000
10000000
00100000
01000000
00010000
00100000
00010000
,
01000000
00100000
10000000
01000000
00100000
00000000
00010000
00100000
,
00010000
00100000
00000000
00000000
01000000
10000000
01000000
10000000
,
00100000
00000000
01000000
00000000
00100000
00000000
01000000
00100000
,
10000000
01000000
00100000
00001000
00010000
00000100
00000010
00000001
,
00001000
00000100
00010000
00000010
00000000
00001000
00000010
00000100
,
00000001
00000010
00001000
00010000
00000100
00000010
00000001
00000100
,
00000001
00001000
00000000
00000001
00000000
00001000
00000000
00000001
,
00000000
00000000
00000000
00001000
00000000
00000010
00010000
00001000
,
01000000
00010000
00000000
10000000
00000000
00010000
00000000
10000000
,
00000000
00000000
00000000
00010000
00000000
00100000
00001000
00010000
,
00000100
00000010
00000100
00010000
00000000
00000000
00001000
01000000
,
00100000
01000000
00001000
00010000
00001000
00100000
01000000
00100000
,
00010000
00000000
00000000
10000000
00000000
00010000
10000000
00000000
,
00100000
00000000
00000000
00000000
00000000
00000000
01000000
00100000
01000000
00000000
00100000
00000000
10000000
00000000
01000000
00000000
,
00100000
00000000
00000000
00001000
00000000
00100000
00001000
00000000
,
00000000
00000000
00000000
00010000
00000000
00000010
00010000
00000000
,
00000001
00000000
00000000
00000100
00000000
00000001
00000100
00000000
,
00000000
00000000
00000000
00002000
00000000
00000000
00000000
00000000
,
00003100
00000000
00000001
00000010
00000000
00000001
00000100
00000000
,
00000010
00000000
00010000
00000100
00000000
00100000
00001000
00000000
,
20000000
00000000
00000000
00000000
,
00000000
00000000
00000000
00000000
,
30000000
00100000
10000000
00100000
01000000
00010000
01000000
00001000
,
00010000
00000010
00001000
00000001
00000100
00000010
00001000
00000001
,
00000100
00001000
00010000
01000000
00000000
00000000
00100000
00010000
,
01000000
10000000
00000000
00000000
01000000
00001000
00010000
00100000
,
00010000
00000000
00001000
00000000
00010000
00000000
00001000
00100000
,
00010000
01000000
00001000
00100000
00000000
00010000
01000000
00100000
,
00010000
00001000
00000100
00000010
00000000
00001000
00000001
00000010
,
00000100
00001000
00010000
00100000
01000000
10000000
00100000
10000000
,
00100000
01000000
00000000
00001000
00000000
00001000
00000000
00011000
,
00000000
00000000
00000000
00010000
00000000
00000100
00000010
00000001
,
00000010
00000001
00000000
00001000
00000000
00001000
00000000
00001001
,
00000000
00000000
00000000
00000001
00000000
00000010
00000001
00000000
,
00001000
00000010
00000100
00001000
00000000
00000000
00001000
00000100
,
00000001
00000010
00000100
00010000
00001000
00000100
00001000
00000000
,
00010000
00000000
00010000
00000100
00000000
00000010
00000001
00000000
,
00000001
00000000
00000000
00000000
00000000
00000000
00000010
00000100
00000010
00000000
00000001
00000000
00000100
00000000
00000001
00000000
,
00000100
00000000
00000000
00000010
00000000
00001000
00000010
00000000
,
00000200
00000000
00000000
00020300
00000000
00000000
00030000
00000000
,
00000000
00020000
00000000
00030000
00020000
00000000
00030000
00020000
,
00000000
00000000
00030000
00000000
,
00001000
00000000
00000010
00000100
00001000
00010000
00001000
00000100
,
00000010
00000000
00000000
00000010
00000000
00001000
00000001
00000010
,
00001000
00010000
01000000
00100000
10000000
00100000
00000000
00010000
,
00100000
00010000
00000000
00020000
00000000
00000000
00000000
00000000
,
00030000
10000000
00010000
00100000
00001000
00010000
00000100
00001000
,
00000001
00000010
00000001
00001000
00000010
00010000
00001000
01000000
,
00010000
10000000
00100000
10000000
00010000
00000000
01000000
00100000
,
01000000
10000000
00000000
00000000
01000000
00001000
00010000
01000000
,
00100000
00000000
00010000
00000000
00010000
00000000
10000000
01000000
,
00100000
01000000
10000000
01000000
00000000
01000000
00000000
01000000
,
10000000
00100000
00010000
00100000
00000000
00100000
00000000
00100000
,
10000000
01000000
00010000
00001000
00100000
00010000
01000000
00100000
,
00010000
00001000
00000000
00010000
00000000
00001000
00000000
00010000
,
00000000
00000000
00000000
00010000
00000000
00100000
01000000
00010000
,
10000000
01000000
00000000
00010000
00000000
00001000
00000000
00000001
,
00000000
00000000
00000000
00000011
00000000
00000001
00000010
00000001
,
00001000
00000001
00001000
00000100
00000000
00000000
00010000
00000100
,
00010000
00001000
00000100
00001000
00000100
00000010
00000100
00000010
,
00002000
00000000
00000000
00000000
,
00003000
00000000
00000000
00000000
00000000
00000000
00000001
00000010
00000001
00000000
00000010
00000000
00000100
00000000
00001000
00000000
,
00000100
00000000
00000010
00000001
00000000
00000010
00000001
00000000
,
00000100
00000000
00000010
00001000
00000000
00000010
00001000
00000000
,
00000100
00000000
00010000
00001000
00000000
00010000
00001000
00000000
,
00000100
00000000
00000000
00000200
00000000
00000000
00000000
00000000
,
00001300
00000000
00000000
00000100
00000000
00000000
00001100
00000000
,
00000010
00000000
00000000
00010000
00000000
00000000
00000100
00000000
,
00022000
00000000
00000000
00000000
,
00033000
00000000
00000000
00000000
;

//---------------dance-double - ----------------
#NOTES:
     dance-double:
     :
     Hard:
     7:
     0.503,0.536,0.325,0.256,0.000:
00000000
00000000
00000000
00000000
,
00000000
00000000
00000000
00000000
,
00200000
00000000
00000000
00000000
,
00000000
00000000
00000000
00000000
,
00310000
10000000
01000000
00010000
,
00001000
00010000
00100000
10000000
,
01000000
00000000
00000000
01010000
00000000
00000000
00010000
00000000
,
00000000
00011000
00000000
00000000
00001000
00000000
00000100
00000000
,
00000001
00000010
00000001
00000010
,
00000100
00010000
00001000
00100000
,
00010000
00000000
00000000
00110000
00000000
00000000
01000000
00000000
,
00001000
00000000
00000000
00110000
00000000
00000000
01000000
00000000
,
00100000
10000000
00000000
01000000
00000000
00100000
00000000
00001000
,
00000000
00000000
00000000
00010000
00000000
00010000
00000100
00000000
,
00000010
00000001
00000000
00000100
00000000
00000010
00000000
00010000
,
00000000
00000000
00000000
00001000
00000000
00001000
01000000
00000000
,
00100000
00000000
10000000
00100000
00000000
00100000
01000000
00000000
,
01000000
00010000
00000000
00010000
00000000
00100000
00010000
00000000
,
10000000
00000000
00000000
00010000
00000000
00010000
00100000
00000000
,
01000000
00000000
00000000
00022000
00000000
00000000
00030000
00000000
,
00003010
00000000
00000000
00000001
00000000
00000001
00000100
00000000
,
00000020
00000000
00000000
00020030
00000000
00000000
00030000
00000000
,
00000000
00002000
00000000
00000000
00203000
00000000
00000000
00302000
,
00000000
00000000
00003000
00000000
,
00010000
00000100
00000010
00000001
,
00000100
00000000
00000000
00001001
00000000
00000000
00000010
00000000
,
00001000
00000000
00000100
00000000
00000001
00000100
00000000
00001000
,
00000100
00001000
00000000
00001100
00000000
00000000
00000000
00000000
,
00001000
00000001
00000010
00000100
,
00001000
00000010
00000001
00000010
,
00001000
00000000
00000000
00011000
00000000
00000000
00010000
00000000
,
00000000
01010000
00000000
00000000
01000000
00000000
10000000
00000000
,
11000000
01000000
00010000
00100000
,
01000000
00010000
01000000
10000000
,
00010000
00000000
00000000
10010000
00000000
00000000
00100000
00000000
,
00010000
00000000
00000000
00101000
00000000
00000000
00010000
00000000
,
01000000
10000000
00000000
00100000
00000000
00010000
00000000
00001000
,
00000000
00000000
00000000
00001000
00000000
00000100
00001000
00000000
,
00000100
00000001
00000000
00000010
00000000
00001000
00000000
00010000
,
00000000
00000000
00000000
00010000
00000000
01000000
00010000
00000000
,
01000000
00000000
10000000
00100000
00000000
00100000
01000000
00000000
,
01000000
00010000
00000000
00010000
00000000
00100000
00020000
00000000
,
20000000
00000000
00000000
00000000
,
30030000
00000000
00000000
00000000
,
01100000
00000000
00000000
00000000
,
01001000
00000000
00000000
00000000
,
00110000
00000000
00000000
00000000
,
00010100
00000000
00000000
00000000
,
00001010
00000000
00000000
00000000
,
00001001
00000000
00000000
00000000
,
00000020
00000000
00000000
00000000
,
00000000
00000000
00000000
00000000
,
00001030
00000100
00000001
00000100
,
00001000
00000010
00000100
00001000
,
00010000
00000000
00000000
00011000
00000000
00000000
00000100
00000000
,
00000000
00000110
00000000
00000000
00001000
00000000
00010000
00000000
,
01000000
00100000
00010000
01000000
,
10000000
01000000
00100000
10000000
,
01000000
00000000
00000000
01100000
00000000
00000000
10000000
00000000
,
00010000
00000000
00000000
00110000
00000000
00000000
01000000
00000000
,
00020000
00001000
00000000
00001000
00000000
00001000
00000000
00031000
,
00000000
00000000
00000000
00010000
00000000
00000010
00010000
00000000
,
00002000
00000100
00000000
00000100
00000000
00000100
00000000
00003100
,
00000000
00000000
00000000
00001000
00000000
00010000
01000000
00000000
,
10000000
00000000
10000000
00100000
00000000
00100000
01000000
00000000
,
01000000
00010000
00000000
00010000
00000000
00100000
00010000
00000000
,
10000000
00000000
00000000
01000000
00000000
00000000
00010000
00000000
,
00001000
00000000
00000000
12000000
00000000
00000000
00000000
00000000
,
03010000
00000000
00000000
00001000
00000000
00000000
00000100
00000000
,
00000001
00000000
00000000
00000010
00000000
00000000
00001000
00000000
,
00000000
00020000
00000000
00000000
00032000
00000000
00000000
00023000
,
00000000
00000000
00030000
00000000
,
00001000
00100000
01000000
00010000
,
00001000
00000000
00000000
00011000
00000000
00000000
00001000
00000000
,
00000100
00000000
00000010
00000000
00010000
00000100
00000000
00010000
,
00000100
00000000
00000000
00000200
00000000
00000000
00000000
00000000
,
00001300
00000001
00000010
00001000
,
00010000
01000000
10000000
00100000
,
00010000
00001000
00010000
01000000
,
10000000
00100000
01000000
10000000
,
01000000
00010000
00001000
00000010
,
00000001
00000010
00001000
00000100
,
00010000
00001000
00000010
00000001
,
00001000
00000010
00000100
00001000
,
00010000
00001000
00000000
00010000
00000000
00001000
00000000
00010000
,
00000000
00000000
00000000
00002000
00000000
00000000
00010000
00000000
,
00003100
00000010
00000000
00000100
00000000
00000010
00000000
00000100
,
00000000
00000000
00000000
00000020
00000000
00000000
00000001
00000000
,
00001030
00000000
00000000
00000100
00000000
00000000
00000010
00000000
,
00000001
00000000
00000000
00001000
00000000
00000000
00000200
00000000
,
00020000
00000000
00000000
00000000
,
00030300
00000000
00000000
01001000
00000000
00000000
00000000
00000000
,
00011000
00000000
00000000
00011000
00000000
00000000
00000100
00000000
,
00001100
00000000
00000000
00001100
00000000
00000000
00001000
00000000
,
00000110
00000000
00000000
00000110
00000000
00000000
00000000
00000000
,
00001001
00000000
00000000
00002002
00000000
00000000
00003003
00000000
,
00000010
00000000
00000000
00000100
00000000
00000000
00000000
00000000
,
00001000
00000000
00000000
00010000
00000000
00000000
00002000
00000000
,
00000020
00000000
00003000
00000000
,
00000030
00000000
00000000
00000000
;

//---------------dance-double - ----------------
#NOTES:
     dance-double:
     :
     Medium:
     6:
     0.422,0.390,0.177,0.266,0.000:
00000000
00000000
00000000
00000000
,
00000000
00000000
00000000
00000000
,
00020000
00000000
00000000
00000000
,
00000000
00000000
00000000
00000000
,
00031000
00010000
01000000
10000000
,
00100000
10000000
00100000
10000000
,
01000000
00000000
00000000
00010000
00000000
00000000
00001000
00000000
,
00000000
00000100
00000000
00000000
00000001
00000000
00000100
00000000
,
00000010
00001000
00000100
00000010
,
00000001
00001000
00000100
00000010
,
00000001
00000000
00000000
00001000
00000000
00000000
00000100
00000000
,
00000010
00000000
00000000
00000100
00000000
00000000
00001000
00000000
,
00000010
00000000
00000000
00010000
00000000
00001000
00000000
00020000
,
00000000
00000000
00030000
00000000
,
00100000
00000000
00000000
00010000
00000000
00001000
00000000
00002000
,
00000000
00000000
00003000
00000000
,
00010000
00000000
00000000
00000100
00000000
00000000
00010000
00000000
,
00000010
00000000
00000000
00000100
00000000
00000000
00001000
00000000
,
00000100
00000000
00000000
00000001
00000000
00000010
00000001
00000000
,
00000100
00000000
00000000
00000110
00000000
00000000
00000000
00000000
,
00000010
00000000
00000000
00010000
00000000
00001000
00010000
00000000
,
00000200
00000000
00000000
00000320
00000000
00000000
00000030
00000000
,
00000000
00000002
00000000
00000000
00002003
00000000
00000000
00003002
,
00000000
00000000
00000003
00000000
,
00000010
00000100
00010000
00001000
,
00100000
00000000
00000000
00011000
00000000
00000000
00100000
00000000
,
01000000
00001000
00010000
00000010
,
00001000
00000000
00000000
00000002
00000000
00000000
00000000
00000000
,
00000013
00000100
00010000
00001000
,
00000010
00001000
00010000
01000000
,
00100000
00000000
00000000
01000000
00000000
00000000
00010000
00000000
,
00000000
01000000
00000000
00000000
00100000
00000000
00010000
00000000
,
10000000
00010000
10000000
00010000
,
01000000
00000000
00000000
01100000
00000000
00000000
00100000
00000000
,
10000000
00000000
00000000
11000000
00000000
00000000
00100000
00000000
,
00010000
00000000
00000000
01010000
00000000
00000000
00010000
00000000
,
10000000
00000000
00000000
01000000
00000000
00100000
00000000
00020000
,
00000000
00000000
00030000
00000000
,
01000000
00000000
00000000
00100000
00000000
00010000
00000000
00002000
,
00000000
00000000
00003000
00000000
,
00100000
00000000
00000000
00010000
00000000
00000000
01000000
00000000
,
10000000
00000000
00000000
01000000
00000000
00000000
00010000
00000000
,
00100000
00000000
00000000
00010000
00000000
00100000
00001000
00000000
,
00010000
00000000
00000000
00000200
00000000
00000000
00000000
00000000
,
00010300
00000000
00000000
00000010
00000000
00001000
00000010
00000000
,
00010000
00000000
00000000
00000100
00000000
00000010
00000001
00000000
,
00000100
00000000
00000000
00000010
00000000
00000100
00000010
00000000
,
00001000
00000000
00000000
00002000
00000000
00000000
00000000
00000000
,
00003010
00000000
00000000
00000001
00000000
00000010
00000001
00000000
,
00000010
00000000
00000000
00001000
00000000
00000010
00001000
00000000
,
00000200
00000000
00000000
00000000
,
00000000
00000000
00000000
00000000
,
00000310
00000001
00000010
00000001
,
00001000
00000100
00001000
00000100
,
00010000
00000000
00000000
00011000
00000000
00000000
00100000
00000000
,
00000000
01010000
00000000
00000000
00100000
00000000
10000000
00000000
,
01000000
00100000
00010000
01000000
,
00100000
00000000
00000000
10000000
00000000
00000000
01000000
00000000
,
00010000
00000000
00000000
00001000
00000000
00000000
00000100
00000000
,
00000001
00000000
00000000
00000010
00000000
00000000
00000100
00000000
,
00000001
00000000
00000000
00000100
00000000
00001000
00000000
00020000
,
00000000
00000000
00030000
00000000
,
00100000
00000000
00000000
01000000
00000000
00010000
00000000
00002000
,
00000000
00000000
00003000
00000000
,
01000000
00000000
00000000
00100000
00000000
00000000
00010000
00000000
,
00001000
00000000
00000000
00000100
00000000
00000000
00000020
00000000
,
00002000
00000000
00000000
00000000
,
00003030
00000000
00000000
00000000
,
00000001
00000000
00000000
00000010
00000000
00000000
00000100
00000000
,
00002000
00000000
00000000
00003002
00000000
00000000
00000003
00000000
,
00000000
00000110
00000000
00000000
00001001
00000000
00000000
00000220
,
00000000
00000000
00000330
00000000
,
00000100
00001000
00000100
00000001
,
00000010
00000000
00000000
00000001
00000000
00000000
00000010
00000000
,
00001000
00000001
00000100
00000000
,
00001000
00000000
00000000
00000020
00000000
00000000
00000000
00000000
,
00001030
00000001
00000010
00000100
,
00001000
00010000
00100000
01000000
,
10000000
00000000
00000000
00010000
00000000
00000000
01000000
00000000
,
00000000
00100000
00000000
00000000
10000000
00000000
01000000
00000000
,
00100000
00010000
00100000
01000000
,
10000000
00000000
00000000
00100000
00000000
00000000
00100000
00000000
,
01000000
00000000
00000000
00001000
00000000
00000000
00001000
00000000
,
00010000
00000100
00001000
00000100
,
00010000
00000000
00000000
00000010
00000000
00000100
00000000
00000020
,
00000000
00000000
00000000
00000030
00000000
00000000
00010000
00000000
,
00001000
00000000
00000000
00100000
00000000
01000000
00000000
00100000
,
00000000
00000000
00000000
00010000
,
10000000
00000000
00000000
01000000
00000000
00000000
00100000
00000000
,
10000000
00000000
00000000
00100000
00000000
00000000
00020000
00000000
,
00000000
00000000
00000000
00000000
,
00030000
00000000
00000000
00000000
,
11000000
00000000
00000000
00000000
,
00110000
00000000
00000000
00000000
,
01010000
00000000
00000000
00000000
,
00011000
00000000
00000000
01001000
00000000
00000000
00000000
00000000
,
00011000
00000000
00000000
00000000
,
00000101
00000000
00000000
00000000
,
00002020
00000000
00000000
00000000
,
00003030
00000000
00000000
00000000
;

//---------------dance-double - ----------------
#NOTES:
     dance-double:
     :
     Easy:
     4:
     0.311,0.390,0.236,0.108,0.000:
00000000
00000000
00000000
00000000
,
00000000
00000000
00000000
00000000
,
20000000
00000000
00000000
00000000
,
00000000
00000000
00000000
00000000
,
30010000
00000000
00100000
00010000
,
01000000
00000000
00100000
10000000
,
01000000
00000000
01000000
00000000
,
01000000
00000000
01000000
00000000
,
01000000
10000000
01000000
00100000
,
00010000
00000000
01000000
00000000
,
00010000
00100000
00001000
00000000
,
00010000
00000000
00010000
00000000
,
00002000
00000000
00000000
00000000
,
00013000
00000000
00000000
00000000
,
02000000
00000000
00000000
00000000
,
13000000
00000000
00000000
00000000
,
00100000
00000000
10010000
00000000
,
00101000
00000000
10100000
00000000
,
00001000
00000000
00000000
00000000
,
00000000
00000000
00000000
00000000
,
00010000
00000000
00100000
00000000
,
10000000
00000000
01000000
00000000
,
00010000
00000000
00001000
00000000
,
00000100
00000000
00000000
00000000
,
00000001
00000000
00000010
00000000
,
00000100
00000000
00001000
00000000
,
00010000
00000000
00100000
00000000
,
01000000
00000000
10000000
00000000
,
00010000
00100000
00010000
00100000
,
01000000
10000000
01000000
10000000
,
00100000
00000000
01000000
00000000
,
00010000
00000000
00100000
00000000
,
00001000
00010000
00001000
00000000
,
00100000
01000000
00100000
00000000
,
00010000
01000000
00010000
00000000
,
10000000
01000000
10000000
01000000
,
00100000
00000000
00100000
00000000
,
10010000
00000000
00000000
00000000
,
01000000
00000000
01000000
00000000
,
01001000
00000000
00000000
00000000
,
00001000
00010000
00000010
00000000
,
00000100
00000010
00010000
00000100
,
00000020
00000000
00000000
00000000
,
00000030
00000000
00000000
00000000
,
00000011
00000000
00000000
00000000
,
00001010
00000000
00000000
00000000
,
00000101
00000000
00000000
00000000
,
00010100
00000000
00000000
00000000
,
00001010
00000000
00000010
00000000
,
00000011
00000000
00000010
00000000
,
00002010
00000000
00000000
00000000
,
00000000
00000000
00000000
00000000
,
00003001
00000000
00000010
00000001
,
00000100
00000000
00001000
00000100
,
00000001
00000000
00000001
00000000
,
00000001
00000000
00000001
00000010
,
00000001
00001000
00000010
00000100
,
00001000
00000000
00000100
00000000
,
00000010
00001000
00000010
00000000
,
00010000
00000000
00010000
00000000
,
00002000
00000000
00000000
00000000
,
00013000
00000000
00000000
00000000
,
00000002
00000000
00000000
00000000
,
00001003
00000000
00000000
00000000
,
00001100
00000000
00000101
00000000
,
00001010
00000000
00000011
00000000
,
00002000
00000000
00000000
00000000
,
00003000
00000000
00000000
00000000
,
00000100
00000000
00000010
00000000
,
00000001
00000000
00000100
00000000
,
00001000
00000000
00010000
00000000
,
01000000
00000000
00000000
00000000
,
10000000
00000000
00100000
00000000
,
01000000
00000000
00010000
00000000
,
00001000
00000000
00000010
00000000
,
00000100
00000000
00000001
00000000
,
00000100
00000010
00001000
00000100
,
00001000
00000010
00000100
00000001
,
00000010
00000000
00000100
00000000
,
00000100
00000000
00001000
00000000
,
00001000
00000001
00001000
00000000
,
00000010
00000100
00000010
00000000
,
00010000
00001000
00010000
00000000
,
00001000
00001000
00010000
00100000
,
00010000
00000000
00010000
00000000
,
00011000
00000000
00000000
00000000
,
00001000
00000000
00001000
00000000
,
00001100
00000000
00000000
00000000
,
00001000
00010000
01000000
00000000
,
00100000
00010000
01000000
00100000
,
00020000
00000000
00000000
00000000
,
00030000
00000000
00000000
00000000
,
10100000
00000000
00000000
00000000
,
00101000
00000000
00000000
00000000
,
00001010
00000000
00000000
00000000
,
00000011
00000000
00000000
00000000
,
00001100
00000000
00000000
00000000
,
00020010
00000000
00000000
00000000
,
00002000
00000000
00000000
00000000
,
00033000
00000000
00000000
00000000
;

//---------------dance-single - Telperion----------------
#NOTES:
     dance-single:
     Telperion:
     Challenge:
     10:
     0.811,0.779,0.453,0.463,0.015:
0000
0000
0000
0000
,
0000
0000
0000
0000
,
2002
0000
0000
0000
,
0000
0000
0000
0000
0000
0000
0000
0003
,
0000
3001
0010
0100
1000
0010
0001
1000
,
0100
0001
0010
0100
0001
0100
1000
0001
,
0010
1000
0001
0100
0000
0000
0010
0001
,
0100
1000
0000
0000
0001
0010
1000
0100
,
0020
0000
0230
0000
0010
0000
0310
0001
,
0100
0001
0010
0100
0000
1000
0100
1000
,
0010
1000
0100
0001
0000
0100
1000
0010
,
0100
0010
0100
0001
0100
0001
0100
0001
,
0010
1100
0000
0101
0000
1100
0000
0101
,
0000
0000
0000
2002
3000
1003
0100
1000
,
0001
0010
0000
0110
0000
1001
0000
0120
,
0000
0000
0000
0100
0000
0130
0010
0000
,
0010
1000
0100
0010
0000
0010
0001
0100
,
0010
1000
0000
1000
0000
1000
0020
0000
,
0130
0000
0000
0000
,
0000
0000
0000
0000
0000
0000
0001
1000
0001
0000
1000
0000
0001
0000
1000
0000
,
0001
0000
0000
0010
0000
0002
0013
0000
,
1000
0000
0000
0010
0000
2000
3010
0000
,
0100
0001
0000
0010
0001
0000
0100
2000
,
0000
0000
0000
0000
,
3100
0000
0001
0010
0001
0010
0100
1000
,
0200
0000
0000
0001
0000
1300
0100
0010
,
0001
0100
0001
0100
0020
1000
0000
0130
,
0010
1000
0000
2002
0000
0000
0000
3000
,
0000
1003
0010
0100
0001
0010
1000
0010
,
0001
0100
0010
0001
1000
0100
0010
1000
,
0100
0001
0100
1000
0000
0000
0001
0100
,
1000
0100
0000
0000
0001
0010
0100
0010
,
0002
0000
1000
0000
2003
0000
3001
0100
,
0010
1000
0100
1000
0000
1000
0100
0010
,
0001
0100
1000
0100
0000
0100
0001
0010
,
0100
0001
0100
1000
0010
0100
1000
0100
,
0001
0010
0000
0011
0000
1010
0000
0011
,
0000
0000
0000
0021
0000
0031
0010
0100
,
1000
0001
0000
0110
0000
1001
0000
0210
,
0000
0000
0000
0010
0000
0310
0100
0000
,
0100
0010
0100
0001
0000
0001
0010
0100
,
0001
0100
0000
0100
0000
0010
0002
0000
,
2000
0000
0000
0000
,
0000
0000
0000
0000
3003
0000
1000
0010
0100
0000
0010
0000
0100
0000
0010
0000
,
1000
0000
1000
0001
0000
0001
1000
0100
,
0001
0000
0001
1000
0000
1000
0010
0100
,
1000
0000
1000
0010
0000
0010
0001
1000
,
0100
0000
0000
2002
0000
0000
3003
0000
,
0001
0000
0001
0010
0000
0010
0001
0100
,
1000
0000
1000
0100
0000
0100
0001
0020
,
0200
0000
0000
0000
,
0000
0000
0000
0000
0000
0000
0000
0030
,
0000
0310
0001
0010
0001
0100
1000
0001
,
0010
1000
0010
1000
0100
0001
1000
0010
,
0001
0100
1000
0001
0000
0000
0010
1000
,
0100
0001
0000
0000
1000
0100
0010
1000
,
0002
0000
1000
0000
2003
0000
3001
0100
,
0001
0010
0100
0010
0000
0010
0001
0100
,
1000
0100
0010
1000
0000
1000
0100
0010
,
0100
0010
0001
0100
0001
1000
0100
1000
,
0001
0100
0000
0101
0000
1100
0000
0101
,
0000
0000
0000
0210
0000
0310
0100
0001
,
0010
0100
0000
1001
0000
0110
0000
1001
,
0000
0000
0000
1002
0000
1003
0001
0000
,
0100
1000
0001
0010
0000
0010
0001
1000
,
0100
0001
0000
0001
0000
0001
1000
0000
,
2002
0000
0000
0000
,
3003
0000
0000
0000
,
1000
0000
0000
0110
0000
1000
0100
0000
,
1010
0000
0000
0011
0000
0100
0001
0000
,
0020
0100
0000
0032
0100
0003
1000
0022
,
0000
0000
0033
0000
,
0011
0000
0001
0010
1000
0010
0001
0100
,
1000
0000
0000
0120
0000
1030
0100
0001
,
0010
0100
0001
0100
0020
0100
0000
0031
,
1000
0010
0000
0220
0000
0000
0000
0300
,
0000
0130
0010
1000
0001
0100
1000
0001
,
0010
0100
0001
0010
1000
0001
0100
0010
,
0001
0100
0001
1000
0000
0000
0010
1000
,
0100
1000
0000
0000
0001
0010
0001
0100
,
0020
0000
0230
0000
0320
0000
0130
0010
,
1000
0100
0010
0001
0000
0001
0010
0100
,
1000
0010
0100
1000
0000
1000
0100
0001
,
0010
0100
0001
0100
0010
0100
1000
0001
,
0100
1000
0000
1100
0000
0101
0000
0011
,
0000
0000
0000
0021
0000
0031
0010
1000
,
0001
0100
0000
0101
0000
1100
0000
1010
,
0000
0000
0000
1020
0000
1030
0100
0000
,
0100
1000
0100
0010
0000
0010
0001
0100
,
0010
1000
0000
0001
0000
1000
0002
0000
,
1003
0000
0000
0001
0000
1000
0001
0000
,
0100
0000
0000
0000
0000
0000
0010
0100
0010
0000
0100
0000
0010
0000
0100
0000
,
0001
0000
0000
0100
0000
0001
0100
0000
,
0010
0000
0000
1000
0000
1000
0010
0100
,
1000
0000
0000
0001
0000
1000
0001
0000
,
0010
0000
0000
0110
0000
0000
0000
0000
,
1000
0000
0000
1010
0000
0000
0000
0000
,
0001
0000
0000
0011
0000
0000
0000
0000
,
0220
0000
0000
0000
,
0330
0000
0000
0000
;

//---------------dance-single - Telperion----------------
#NOTES:
     dance-single:
     Telperion:
     Hard:
     8:
     0.568,0.633,0.315,0.404,0.000:
0000
0000
0000
0000
,
0000
0000
0000
0000
,
2000
0000
0000
0000
,
0000
0000
0000
0000
,
3001
0000
0000
0021
0000
0000
0031
0000
,
1000
0000
0000
1020
0000
0000
1030
0000
,
0001
0000
0010
0001
0000
0000
1000
0000
,
0010
1000
0000
0000
0001
0000
0010
0001
,
0100
0000
0010
0000
0100
0000
0010
1000
,
0010
0000
1000
0010
0000
1000
0010
1000
,
0001
0000
0010
0001
0000
0010
0001
1000
,
0010
0000
1000
0010
0000
1000
0010
0100
,
1000
0100
0000
0001
0000
0010
0000
1000
,
0000
0000
0000
0020
0000
0001
0000
0130
,
1000
0010
0000
0001
0000
0010
0000
2000
,
0000
3000
0000
1001
0000
0000
0000
0000
,
1000
0000
1000
0001
0000
0001
0010
0000
,
0020
0100
0000
0130
0000
0100
1000
0000
,
1010
0000
0000
0000
,
0000
0000
0000
1000
0001
0010
0001
1000
,
0010
0000
0000
0110
0000
0000
0100
0000
,
1000
0000
0000
1100
0000
0000
0100
1000
,
0100
0001
0000
0000
0101
0000
0000
0220
,
0000
0000
0330
0000
,
1000
0000
0001
1000
0001
1000
0001
0100
,
0010
0000
0000
0110
0000
0010
0100
0010
,
1000
0100
1000
0100
1000
0100
0000
0010
,
0001
0010
0000
0022
0000
0000
0003
0000
,
0130
1000
0010
0001
,
1000
0100
0010
1000
,
0100
0001
0100
0010
,
1000
0001
0100
0010
,
0200
0010
2300
0001
,
3020
0100
2030
0100
,
3002
0010
0203
1000
,
0301
1000
0001
1000
,
0001
1000
0000
1000
0000
0001
0000
1001
,
0000
0000
0000
2002
0000
0000
3003
0000
,
0010
0100
0000
0100
0000
0010
0000
0110
,
0000
0000
0000
0220
0000
0000
0330
0000
,
0100
0000
0100
0010
0000
0010
1000
0000
,
1000
0100
0000
0100
0000
0001
0100
0000
,
2002
0000
0000
0000
,
3003
0000
0000
0001
0001
1000
1000
0001
,
1000
0000
0000
0110
0000
0000
1000
0000
,
0100
0000
0000
0011
0000
0000
0001
0000
,
0100
0000
0000
1100
0000
0000
0101
0000
,
0010
0000
0000
2002
0000
0000
0003
0000
,
3200
0000
0000
0010
0000
0000
2300
0000
,
0010
0000
0000
3100
0000
0000
0010
0000
,
0002
0000
0000
0000
,
0000
0000
0000
0000
,
1003
0000
0000
2100
0000
0000
3001
0000
,
0100
0000
0000
0102
0000
0000
1003
0000
,
0100
0000
0100
0010
0000
0010
0001
0000
,
0001
0100
0000
0100
1000
0000
0100
0000
,
0101
0010
0101
0010
,
1100
0000
0000
0100
0000
0000
2000
0000
,
0001
0000
0000
3100
0000
0000
0002
0000
,
1000
0000
0000
0103
0000
0000
1000
0000
,
0100
1000
0000
0100
0000
1000
0000
0100
,
0000
0000
0000
1000
0000
0100
1000
0000
,
0001
0010
0000
0001
0000
0010
0000
0001
,
0000
0000
0000
0010
0000
0001
0010
0000
,
0100
0000
0100
1000
0000
1000
0010
0000
,
0020
0100
0000
0130
0000
0100
0010
0100
,
0020
0000
0000
0000
,
0030
0000
0000
0000
,
0200
0000
0000
0010
0000
0000
0000
0000
,
0302
0000
0000
0010
0000
0000
0000
0000
,
2003
0010
0000
0000
0100
0000
0000
0020
,
0000
0000
3030
0000
,
0100
0000
0001
0010
0000
0001
0100
0010
,
1000
0000
0100
1000
0000
0100
0010
0001
,
0100
0010
1000
0001
,
0100
0001
0010
0100
,
1000
0100
0100
0010
,
0001
0100
0100
0010
,
1000
0100
0001
0100
,
1000
0010
0001
0010
,
0100
1000
0100
0001
,
0010
0100
0010
0010
,
0001
1000
0100
0010
,
0001
0100
0100
0001
,
1000
0010
0000
1000
0000
0010
0000
1000
,
0000
0000
0000
0010
0000
1000
0010
0000
,
0100
0001
0000
0100
0000
0001
0000
0100
,
0000
0000
0000
0001
0000
0100
0001
0000
,
0010
0000
0010
1000
0000
1000
0010
0000
,
0010
0001
0000
1000
0000
0001
2000
0000
,
0002
0000
0000
0000
,
0000
0000
3003
0000
,
1010
0000
0000
0000
,
0011
0000
0000
0000
,
1100
0000
0000
0000
,
0101
0000
0000
0000
,
1001
0000
0000
0000
,
0110
0000
0000
0000
,
2002
0000
0000
0000
,
3003
0000
0000
0000
;

//---------------dance-single - Telperion----------------
#NOTES:
     dance-single:
     Telperion:
     Medium:
     6:
     0.425,0.438,0.039,0.374,0.000:
0000
0000
0000
0000
,
0000
0000
0000
0000
,
2000
0000
0000
0000
,
0000
0000
0000
3000
,
1000
0001
0100
0010
,
1000
0001
0100
0010
,
1000
0000
0100
0010
0000
0000
0001
0000
,
0010
0100
0000
0000
1000
0000
0100
0000
,
0010
0001
0100
0010
,
1000
0100
0010
0001
,
0100
0000
0010
1000
0000
0000
0010
0000
,
0100
0000
0001
0100
0000
0000
0010
0000
,
1000
0001
0000
0001
0000
1000
0000
1000
,
0000
0001
0000
0001
0000
1000
0001
0000
,
0100
0010
0000
0010
0000
0100
0000
0100
,
0000
0010
0000
0010
0000
0100
0010
0000
,
1000
0000
0000
0100
0000
0000
0010
0000
,
0001
0000
0000
0100
0000
0000
0010
0000
,
2000
0000
0000
0000
,
3000
0000
0000
0000
,
0002
0000
0000
0000
,
0203
0000
0000
0000
,
2300
0000
0000
0000
,
3200
0000
0000
0000
,
0302
0000
0010
0000
,
1000
0000
0010
0000
,
2003
0000
0010
0000
,
3002
0000
0010
0000
,
1003
0100
0010
0001
,
1000
0000
0100
0000
0010
0000
0001
0010
,
0001
0100
0010
1000
,
0001
0000
0100
0000
0010
0000
1000
0010
,
1000
0100
1000
0100
,
0010
0001
0010
0001
,
0100
0001
0100
0010
,
1000
0010
1000
0100
,
0010
0100
0000
0000
0000
0110
0000
0110
,
0000
0000
0000
0000
0000
0000
0100
0010
,
0001
1000
0000
0000
0000
1001
0000
1001
,
0000
0000
0000
0000
0000
0000
1000
0010
,
0100
0000
0000
0001
0000
0000
0010
0000
,
1000
0000
0000
0010
0000
0000
0001
0000
,
0200
0000
0000
0000
,
2300
0000
3000
0000
,
0200
0000
0000
0000
,
0302
0000
0000
0000
,
0023
0000
0000
0000
,
2030
0000
3000
0000
,
0020
0000
0000
0000
,
0032
0000
0000
0000
,
2000
0000
0000
0000
,
0000
0000
3003
0000
,
1000
0001
0001
0010
,
0010
0100
0100
1000
,
0010
1000
1000
0001
,
0001
0100
0010
1000
,
0100
0010
0100
0010
,
0001
0000
0010
0001
0000
0000
0010
0000
,
0100
0000
1000
0100
0000
0000
0010
0000
,
0001
0000
0010
0100
0000
1000
0000
0100
,
0020
0000
0100
0000
,
0001
0000
0000
0032
,
1000
0000
0100
0000
,
0010
0000
0103
0000
,
1000
0100
0010
0001
,
1000
0000
0000
0001
0000
0000
2000
0000
,
0002
0000
0000
0000
,
3003
0000
0000
0000
,
2000
0000
0000
0000
,
3200
0000
0320
0000
,
0230
0000
0000
0000
,
0302
0000
0203
0000
,
2300
0000
3020
0000
,
0230
0000
0302
0000
,
0023
0000
0032
0000
,
1000
0000
0000
1000
0000
0000
1000
0000
,
1003
0010
0100
0010
,
1000
0100
0010
0100
,
1000
0010
0100
0001
,
0010
0001
0100
0010
,
0100
0001
0010
0100
,
0010
0001
0100
0010
,
1000
0100
0010
0001
,
1000
0100
0010
0100
,
1000
0001
0000
2000
0000
0001
0000
3001
,
0000
0000
0000
0000
,
0100
0010
0000
0200
0000
0010
0000
0310
,
0000
0000
0000
0010
,
1000
0010
0100
0001
,
0100
0010
1000
0100
,
0020
0000
0000
0000
,
0030
0000
0000
0000
,
0001
0000
0000
0001
,
1000
0000
0000
1000
,
0100
0000
0000
0100
,
1000
0000
0000
1000
,
0001
0000
0000
0001
,
0100
0000
0000
0100
,
0002
0000
0000
0000
,
0003
0000
0000
0000
;

//---------------dance-single - Telperion----------------
#NOTES:
     dance-single:
     Telperion:
     Easy:
     4:
     0.371,0.390,0.167,0.217,0.000:
0000
0000
0000
0000
,
0000
0000
0000
0000
,
2000
0000
0000
0000
,
0000
0000
0000
0000
,
3001
0010
0001
0000
,
1000
0010
1000
0000
,
0001
0100
0001
1000
,
0100
1000
0001
0100
,
0001
0000
1000
0000
,
0001
0001
1000
0000
,
1000
1000
0010
0100
,
0001
0010
0010
0001
,
0101
0000
0000
0000
,
0101
0000
0000
0000
,
1100
0000
0000
0000
,
1100
0000
0000
0000
,
1000
0001
0000
0001
,
0010
0000
1000
0100
,
0010
0000
0000
0000
,
0000
0000
0000
0000
,
1000
0000
1001
0000
,
0001
0000
1001
0000
,
0100
0000
1001
0000
,
0010
0000
1001
0000
,
1000
0001
0001
1000
,
1000
0000
0000
0000
,
0001
1000
1000
0001
,
0001
1000
1000
0000
,
0001
0100
0001
0000
,
1000
0100
1000
0000
,
0010
0100
0000
0001
,
0010
0000
0100
0010
,
0002
0000
1003
0000
,
2000
0000
3001
0000
,
0100
0000
0010
0100
,
0001
0010
0001
0100
,
0020
0000
1030
0000
,
1010
0000
0000
0000
,
0020
0000
0031
0000
,
0011
0000
0000
0000
,
0010
0100
0000
0001
,
0010
0000
1000
0100
,
0010
0000
0000
0000
,
0000
0000
0000
0000
,
2000
0000
0001
0000
,
3020
0000
1000
0000
,
0230
0000
1000
0000
,
0302
0000
0010
0000
,
2003
0000
0010
0000
,
3002
0000
1000
0000
,
0023
0000
0000
0000
,
0030
0000
0000
0000
,
0100
1000
0100
0000
,
0010
0001
0010
0000
,
0001
0100
0001
0000
,
1000
0010
1000
0000
,
0100
0010
0001
0100
,
0010
0000
0100
0000
,
0010
1000
0100
0010
,
0001
0000
0001
1000
,
0010
0000
0110
0000
,
0100
0000
0101
0000
,
0001
0000
0011
0000
,
0010
0000
0110
0000
,
0100
0000
1100
0000
,
1000
0000
1001
0000
,
2002
0000
0000
0000
,
3003
0000
0000
0000
,
1000
0010
0000
0010
,
0100
0010
0000
0010
,
1000
0010
0000
0010
,
0100
0010
0000
1000
,
0100
0010
0000
0001
,
0100
0010
0000
1000
,
0100
0010
0001
0010
,
0100
0000
0000
0000
,
1000
0001
0010
0001
,
1000
0010
1000
0100
,
1000
0001
0100
0001
,
0010
0001
1000
0010
,
0100
0001
0100
0010
,
1000
0010
0100
0001
,
0010
0001
1000
0100
,
1000
0001
0010
0100
,
1000
0001
0000
0000
0000
0000
0000
0000
,
1000
0001
0000
0000
0000
0000
0000
0000
,
0100
0010
0000
0000
0000
0000
0000
0000
,
0100
0010
0000
0000
0000
0000
0000
0000
,
1000
1000
0001
0001
,
0010
0010
0100
0100
,
0020
0000
0000
0000
,
0030
0000
0000
0000
,
0002
0000
0000
0000
,
2003
0000
0000
0000
,
3020
0000
0000
0000
,
0230
0000
0000
0000
,
0320
0000
0000
0000
,
2030
0000
0000
0000
,
3200
0000
0000
0000
,
0300
0000
0000
0000
;
