#TITLE:Stage Select (Σ);
#SUBTITLE:;
#ARTIST:Setuo Yamamoto;
#TITLETRANSLIT:;
#SUBTITLETRANSLIT:;
#ARTISTTRANSLIT:;
#CREDIT:Gorilla v1.1.4 (Dancing Monkeys v1.06);
#BANNER:Stage Select Sigma.png;
#BACKGROUND:Stage Select Sigma-bg.png;
#LYRICSPATH:;
#CDTITLE:;
#MUSIC:Mega Man X OST_ T23_ Stage Select (Σ).mp3;
#OFFSET:-0.667;
#SAMPLESTART:51.973;
#SAMPLELENGTH:12.000;
#SELECTABLE:YES;
#BPMS:0.000=117.522;
#STOPS:;
#BGCHANGES:;

//---------------dance-single - Basic----------------
#NOTES:
     dance-single:
     Basic:
     Easy:
     5:
     0.278,0.223,0.336,0.000,0.000:
1000
0000
0001
0000
0100
0000
0010
0000
,
1000
0000
0100
0000
0010
0000
0110
0000
,
0001
0000
0100
0000
0010
0000
1010
0000
,
0001
0000
0100
0000
0010
0000
1010
0000
,
1000
0000
0001
0000
0100
0000
0101
0000
,
0001
0000
0010
0000
0001
0000
1100
0000
,
0001
0000
0010
0000
0100
0000
0011
0000
,
0001
0000
0100
0000
0010
0000
1100
0000
,
0001
0000
1000
0000
0100
0000
0001
0000
,
1000
0000
0010
0000
1000
0000
1100
0000
,
0001
0000
0010
0000
0001
0000
1001
0000
,
0001
0000
0100
0000
0001
0000
0101
0000
,
1000
0000
0100
0000
1000
0000
0011
0000
,
1000
0000
0010
0000
1000
0000
1100
0000
,
0001
0000
0100
0000
0010
0000
0101
0000
,
0001
0000
1000
0000
0010
0000
0011
0000
,
1000
0000
0010
0000
0100
0000
0101
0000
,
1000
0000
0100
0000
1000
0000
1100
0000
,
0001
0000
1000
0000
0001
0000
1001
0000
,
1000
0000
0100
0000
0010
0000
0110
0000
,
1000
0000
0001
0000
0010
0000
1100
0000
,
0001
0000
0010
0000
1000
0000
1100
0000
,
0001
0000
0100
0000
0001
0000
0011
0000
,
0001
0000
0100
0000
0010
0000
1100
0000
,
1000
0000
0001
0000
0100
0000
0010
0000
,
1000
0000
0010
0000
1000
0000
0101
0000
,
1000
0000
0001
0000
0100
0000
1001
0000
,
0001
0000
1000
0000
0100
0000
1010
0000
,
0001
0000
0100
0000
0001
0000
1100
0000
,
1000
0000
0100
0000
0010
0000
0101
0000
,
0001
0000
1000
0000
0100
0000
1001
0000
,
1000
0000
0010
0000
0100
0000
1001
0000
,
1000
0000
0010
0000
0100
0000
0010
0000
,
0001
0000
0010
0000
0001
0000
0010
0000
,
0001
0000
0000
0000
0000
0000
0100
0000
,
1000
0000
0000
0000
0000
0000
0000
0000
,
0000
0000
0000
0000
0000
0000
0000
0000
,
0000
0000
0000
0000
0000
0000
0000
0000
,
0000
0000
0000
0000
0000
0000
0000
0000
,
0000
0000
0000
0000
0000
0000
0000
0000
,;

//---------------dance-single - Standard----------------
#NOTES:
     dance-single:
     Standard:
     Medium:
     5:
     0.292,0.244,0.348,0.000,0.000:
0000
0000
0001
0000
1000
0001
0010
0001
,
1000
0000
0010
0000
1000
0000
0011
0000
,
1000
0000
0100
0000
0010
0000
0011
0000
,
1000
0000
0100
0000
1000
0000
1100
0000
,
0001
0000
1000
0000
0010
0000
1001
0000
,
1000
0000
0010
0000
1000
0000
1100
0000
,
0001
0000
0100
0000
0010
0000
0011
0000
,
1000
0000
0010
0000
1000
0000
1100
0000
,
0001
0000
0010
0000
0100
0000
1010
0000
,
1000
0000
0010
0000
0100
0000
0011
0000
,
1000
0000
0100
0000
1000
0000
1010
0000
,
0001
0000
0100
0000
0001
0000
0110
0000
,
1000
0000
0100
0000
1000
0000
0011
0000
,
1000
0000
0001
0000
1000
0000
1010
0000
,
0001
0000
1000
0000
0010
0000
0101
0000
,
1000
0000
0001
0000
0100
0000
1010
0000
,
1000
0000
0001
0000
0100
0000
0011
0000
,
1000
0000
0001
0000
1000
0000
0101
0000
,
1000
0000
0001
0000
0010
0000
1100
0000
,
0001
0000
0010
0000
0001
0000
1010
0000
,
0001
0000
0100
0000
0010
0000
0101
0000
,
1000
0000
0001
0000
1000
0000
0101
0000
,
0001
0000
0100
0000
0001
0000
0101
0000
,
0001
0000
1000
0000
0001
0000
0101
0000
,
1000
0000
0100
0000
1000
1000
0001
0100
,
0001
0000
0100
0000
0001
0000
1100
0000
,
0001
0000
0100
0000
0001
0000
1001
0000
,
1000
0000
0010
0000
1000
0000
0011
0000
,
0001
0000
0100
0000
0001
0000
1100
0000
,
0001
0000
0010
0000
0001
0000
0110
0000
,
1000
0000
0001
0000
0010
0000
0101
0000
,
1000
0000
0010
0000
1000
0000
0011
0000
,
1000
0000
0001
0000
0100
0100
0010
1000
,
1000
0000
0010
0000
0100
0000
0001
0100
,
0001
0000
0010
0000
0000
0000
0100
0000
,
1000
0000
0000
0000
0000
0000
0000
0000
,
0000
0000
0000
0000
0000
0000
0000
0000
,
0000
0000
0000
0000
0000
0000
0000
0000
,
0000
0000
0000
0000
0000
0000
0000
0000
,
0000
0000
0000
0000
0000
0000
0000
0000
,;

//---------------dance-single - Heavy----------------
#NOTES:
     dance-single:
     Heavy:
     Hard:
     7:
     0.388,0.362,0.348,0.000,0.000:
1000
0010
0100
0010
0100
0010
1000
0100
,
1000
0100
0001
0100
1000
0000
1010
0000
,
0001
0000
0010
0000
0001
0000
1100
0000
,
1000
0010
0100
0001
0010
0000
1001
0000
,
0001
0100
1000
0100
0010
0000
1010
0000
,
1000
0000
0100
0000
0010
0000
0101
0000
,
1000
0100
1000
0100
0010
0000
1001
0000
,
0001
1000
0010
0100
0010
0000
1001
0000
,
1000
0000
0100
0000
0010
0000
1010
0000
,
1000
0001
0100
0001
0100
0000
1010
0000
,
0001
0100
1000
0100
0010
0000
1100
0000
,
1000
0000
0001
0000
1000
0000
1100
0000
,
1000
0010
0100
0001
0010
0000
1100
0000
,
0001
0100
0001
1000
0010
0000
1001
0000
,
1000
0000
0001
0000
1000
0000
1100
0000
,
0001
0010
0001
0010
0100
0000
0110
0000
,
1000
0001
0100
0001
1000
0000
1001
0000
,
0001
0000
0100
0000
0001
0000
1010
0000
,
1000
0100
0010
0100
0010
0000
0101
0000
,
0001
0100
0010
1000
0001
0000
0101
0000
,
0001
0000
0010
0000
0001
0000
0011
0000
,
1000
0001
0100
0001
0010
0000
1001
0000
,
0001
0100
0010
0100
0010
0000
1100
0000
,
1000
0000
0100
0000
1000
0000
0110
0000
,
0001
0100
0001
0010
0100
0100
1000
0001
,
1000
0010
1000
0010
1000
0000
0101
0000
,
1000
0000
0010
0000
1000
0000
0101
0000
,
1000
0001
0010
0100
1000
0000
1100
0000
,
1000
0001
0010
0100
1000
0000
1100
0000
,
1000
0000
0001
0000
0010
0000
0110
0000
,
0001
1000
0010
0001
0100
0000
0101
0000
,
1000
0010
0100
0010
1000
0000
0101
0000
,
0001
0000
1000
0000
0010
0010
0100
0010
,
1000
0100
1000
0100
1000
0100
1000
0010
,
1000
0000
0100
0010
0100
0010
0001
0010
,
0001
0000
0010
0000
0000
0000
0001
0000
,
1000
0000
0000
0000
0000
0000
0000
0000
,
0001
0000
0000
0000
0000
0000
0000
0000
,
0001
0000
0000
0000
0000
0000
0000
0000
,
1000
0000
0000
0000
0000
0000
0000
0000
,
;
