#TITLE:Rainbow Road;
#SUBTITLE:;
#ARTIST:Super Mario Kart;
#TITLETRANSLIT:;
#SUBTITLETRANSLIT:;
#ARTISTTRANSLIT:;
#CREDIT:;
#BANNER:;
#BACKGROUND:;
#LYRICSPATH:;
#CDTITLE:;
#MUSIC:Rainbow Road.mp3;
#OFFSET:-0.100;
#SAMPLESTART:29.560;
#SAMPLELENGTH:12.000;
#SELECTABLE:YES;
#BPMS:0.000=146.400;
#STOPS:;
#BGCHANGES:;

//---------------dance-single - xRGTMx----------------
#NOTES:
     dance-single:
     xRGTMx:
     Challenge:
     10:
     0.746,0.767,0.324,0.718,0.498:
0000
0000
0000
0000
,
0000
0000
0000
0000
,
0000
0000
0000
0000
,
0000
0000
0000
0000
0000
0000
0000
0000
1000
0000
1000
0100
0010
0001
0100
0010
,
1000
0000
1000
0010
0100
0000
0010
0000
0110
0000
0000
0000
0101
0000
0000
0000
,
1001
0000
0000
0001
0010
0000
0100
0000
0010
0000
0001
0000
1000
0010
0100
0001
,
1000
0000
0000
0001
0010
0000
0100
0000
0010
0000
0001
0000
1000
0000
0010
0000
,
0100
0000
0010
0000
1000
0000
0001
0000
0000
1000
0001
0100
0010
1000
0100
0010
,
0001
0000
0001
0010
0100
0000
0010
0000
0110
0000
0000
0000
1100
0000
0000
0000
,
1001
0000
0000
1000
0010
0000
0100
0000
0010
0000
1000
0000
0001
0010
0100
1000
,
0001
0000
0000
1000
0010
0000
0100
0000
0010
0000
1000
0000
0001
0000
0010
0000
,
0100
0000
1000
0000
0001
0000
0100
0000
0000
0010
0100
0000
0010
0000
1000
0000
,
1001
0000
0000
1000
0100
0000
0010
0000
0100
1000
0001
0000
0100
0001
1000
0000
,
0010
0000
0100
0000
0010
0000
1000
0000
0000
0001
1000
0000
0001
0000
0011
0000
,
0010
0000
0000
0010
0100
0000
1000
0000
0001
1000
0001
0000
0100
0010
0100
0000
,
0001
0000
0100
0000
0010
0000
1000
0000
0000
0100
0010
0000
0100
0000
1000
0000
,
0001
0000
0010
0000
1000
0000
0010
0000
0001
0010
0100
0000
1000
0100
0010
0000
,
0001
0000
1000
0000
0001
0000
0100
0000
0010
1000
0100
0010
0001
0100
0010
1000
,
0100
0120
0032
2003
,
3002
0100
0203
0310
,
0202
0010
1000
0313
,
2002
0000
0000
0000
3013
0000
0000
0000
1000
0010
0001
0010
1000
0100
0001
0100
,
1000
1200
0010
0001
,
2300
0001
3002
0103
,
2200
0010
0001
3310
,
2002
0000
0000
0000
3103
0000
0000
0000
0001
0010
1000
0010
0001
0100
1000
0100
,
0001
0000
0010
0001
0020
0000
0130
1000
0200
0000
0310
0001
0020
0000
0130
1000
,
0200
0000
0010
0000
0320
0001
0032
1000
,
2003
0000
3001
0100
0001
0000
0010
0000
0200
0000
1300
0100
1000
0000
0001
0000
,
0200
0000
0310
0100
0001
0000
1000
0000
0020
0000
0130
0010
1000
0000
0001
0000
,
2001
0000
0000
0000
0000
0000
3001
0100
0002
0000
0000
0000
1000
0000
0000
0000
,
1003
0100
0000
0000
0100
1000
0000
0000
1001
0000
0001
0010
0100
1000
0010
0000
,
2001
0000
0000
0000
0000
0000
3001
0100
0002
0000
0000
0000
1000
0000
0000
0000
,
1003
0100
0000
0000
0100
1000
0000
0000
1001
0000
0001
0010
0100
1000
0010
0100
,
0010
0210
2300
3002
,
2003
0010
3020
0130
,
2020
0100
0001
3130
,
2002
0000
0000
0000
3103
0000
0000
0000
0001
0100
1000
0100
0001
0010
1000
0010
,
0001
0021
0100
1000
,
0032
1000
2003
3010
,
0022
0100
1000
0133
,
2002
0000
0000
0000
3013
0000
0000
0000
1000
0100
0001
0100
1000
0010
0001
0010
,
1000
0000
0100
1000
0200
0000
0310
0001
0020
0000
0130
1000
0200
0000
0310
0001
,
0020
0000
0100
0000
0230
1000
2300
0001
,
3002
0000
1003
0010
1000
0000
0100
0000
0020
0000
0031
0010
0001
0000
1000
0000
,
0020
0000
0130
0010
1000
0000
0001
0000
0200
0000
0310
0100
0001
0000
1000
0000
,
1002
0000
0000
0000
0000
0000
1003
0010
2000
0000
0000
0000
0001
0000
0000
0000
,
3001
0010
0000
0000
0010
0001
0000
0000
1001
0000
1000
0100
0010
0001
0100
0000
,
1002
0000
0000
0000
0000
0000
1003
0010
2000
0000
0000
0000
0001
0000
0000
0000
,
3001
0010
0000
0000
0010
0001
0000
0000
1001
0000
1000
0100
0010
0001
0100
0020
,
2000
0000
0000
0000
,
3030
0000
0000
0000
;

//---------------dance-single - xRGTMx----------------
#NOTES:
     dance-single:
     xRGTMx:
     Hard:
     8:
     0.607,0.649,0.683,0.868,0.139:
0000
0000
0000
0000
,
0000
0000
0000
0000
,
0000
0000
0000
0000
,
0000
0000
0000
0000
1000
0001
0100
0010
,
1001
1010
1001
0011
,
0110
0000
1000
0100
0000
0001
0100
0000
,
2002
0000
3000
2003
0002
0000
3003
0000
,
1000
0010
0100
0001
0000
1000
0100
0010
,
1001
0011
1001
1010
,
0110
0000
0001
0100
0000
1000
0100
0000
,
2002
0000
3003
0002
2000
0000
3003
0000
,
1000
0010
0100
0001
0000
1000
0100
0010
,
0022
0000
0003
0032
0020
0000
0000
0033
,
0001
0010
0100
1000
0000
0010
0100
0001
,
2002
0000
3000
2003
0200
0000
0000
3300
,
1000
0010
0100
0001
0000
0100
0010
1000
,
2020
0000
0030
3020
0200
0000
0000
0330
,
0010
0000
1000
0000
0001
0000
0100
0000
0000
0010
0100
0000
0010
0000
1000
0100
,
0010
0210
2300
3020
,
0230
0010
0302
1003
,
2200
0000
0010
3300
,
2002
0000
0000
0000
0000
0000
3003
0000
1000
0010
1000
0000
0001
0010
0001
0000
,
0010
0210
0302
0023
,
0230
0010
2300
3001
,
0202
0000
0010
0303
,
2002
0000
0000
0000
0000
0000
3003
0000
0001
0010
0001
0000
1000
0010
1000
0000
,
0100
0110
1100
0011
,
1002
0000
0100
0003
0101
0000
1010
0000
,
1002
0103
2010
3100
,
0012
0000
0103
0000
2001
0000
3100
0010
,
0021
0000
0031
1000
1020
0000
0130
0000
,
0100
0010
0000
0000
0010
0100
0000
0000
1001
0000
0000
0000
0100
0000
0010
0000
,
1020
0000
1030
0001
0021
0000
0130
0000
,
0100
0010
0000
0000
0010
0100
0000
0000
1001
0000
1000
0001
1000
0001
1000
0001
,
0100
0120
0032
0203
,
0320
0100
2030
3001
,
0022
0000
0100
0033
,
2002
0000
0000
0000
0000
0000
3003
0000
0001
0100
0001
0000
1000
0100
1000
0000
,
0100
0120
2030
3200
,
0320
0100
0032
1003
,
2020
0000
0100
3030
,
2002
0000
0000
0000
0000
0000
3003
0000
1000
0100
1000
0000
0001
0100
0001
0000
,
0010
0110
0011
1100
,
2001
0000
0010
3000
1010
0000
0101
0000
,
2001
3010
0102
0013
,
2100
0000
3010
0000
1002
0000
0013
0100
,
1200
0000
1300
0001
0201
0000
0310
0000
,
0010
0100
0000
0000
0100
0010
0000
0000
1001
0000
0000
0000
0010
0000
0100
0000
,
0201
0000
0301
1000
1200
0000
0310
0000
,
0010
0100
0000
0000
0100
0010
0000
0000
1001
0000
0001
1000
0001
1000
0001
1000
,
0200
0000
0000
0000
,
0300
0000
0000
0000
;

//---------------dance-single - xRGTMx----------------
#NOTES:
     dance-single:
     xRGTMx:
     Medium:
     5:
     0.337,0.384,0.127,0.579,0.000:
0000
0000
0000
0000
,
0000
0000
0000
0000
,
0000
0000
0000
0000
,
0000
0000
1000
0001
,
1000
0100
0010
0001
,
1000
0000
0000
0001
0000
0000
1001
0000
,
0002
0000
2003
0000
,
3001
0000
0100
0000
0010
1000
0001
0000
,
0001
0100
0010
1000
,
0001
0000
0000
1000
0000
0000
1001
0000
,
2000
0000
3002
0000
,
1003
0100
0010
0100
,
2000
0000
3020
0000
,
0130
0001
0010
0100
,
0020
0000
0230
0000
,
1300
0010
0001
0010
,
2000
0000
3002
0000
,
0103
0000
0001
0000
0010
0100
0010
0000
,
0100
0100
1000
1000
,
0002
0000
0103
0100
,
0020
0000
0130
0000
,
0200
0000
0301
1001
,
0100
0100
0001
0001
,
2000
0000
3100
0100
,
0020
0000
0130
0000
,
0200
0000
1300
1001
,
1000
0010
0001
0010
,
2000
0000
3001
0010
,
0020
0000
0230
0000
,
2300
0000
3002
0000
,
0203
0000
0000
0010
0020
0000
0330
0000
,
2000
0002
3003
1001
,
0020
0000
0000
0100
0200
0000
0330
0000
,
0002
2000
3003
1001
,
0010
0010
0001
0001
,
2000
0000
3010
0010
,
0200
0000
0310
0000
,
0020
0000
1030
1001
,
0010
0010
1000
1000
,
0002
0000
0013
0010
,
0200
0000
0310
0000
,
0020
0000
0031
1001
,
0001
0100
1000
0100
,
0002
0000
1003
0100
,
0200
0000
0320
0000
,
0032
0000
2003
0000
,
3020
0000
0000
0100
0200
0000
0330
0000
,
0002
2000
3003
1001
,
0200
0000
0000
0010
0020
0000
0330
0000
,
2000
0002
3003
1001
,
0220
0000
0000
0000
,
0330
0000
0000
0000
;

//---------------dance-single - xRGTMx----------------
#NOTES:
     dance-single:
     xRGTMx:
     Easy:
     3:
     0.195,0.232,0.012,0.185,0.000:
0000
0000
0000
0000
,
0000
0000
0000
0000
,
0000
0000
0000
0000
,
0000
0000
0010
0000
,
0010
1000
0010
0000
,
0100
0000
0100
0000
,
0001
1000
0001
0000
,
1000
0000
0001
0000
,
1000
0100
0010
0000
,
0001
0000
1000
0000
,
0001
0100
0010
0000
,
0100
0000
0010
0000
,
1000
0010
1000
0000
,
0001
0000
1000
0000
,
0100
1000
0100
0000
,
0010
0000
0001
0000
,
0100
0001
0010
0000
,
0100
0000
1000
0000
,
0020
0000
0030
0000
,
2000
0000
3000
0000
,
0002
0000
0003
0000
,
2000
0000
3100
0100
,
0200
0000
0300
0000
,
0020
0000
0030
0000
,
0002
0000
0003
0000
,
2000
0000
3001
0001
,
0001
0000
1000
0000
,
0001
0000
1000
0000
,
0010
0000
1000
0000
,
0010
0000
1000
0000
,
0001
1000
0001
0000
,
1000
0001
1000
0000
,
0100
1000
0100
0000
,
0100
1000
0100
0000
,
0200
0000
0300
0000
,
0002
0000
0003
0000
,
2000
0000
3000
0000
,
0002
0000
0013
0010
,
0020
0000
0030
0000
,
0200
0000
0300
0000
,
2000
0000
3000
0000
,
0002
0000
1003
1000
,
1000
0000
0001
0000
,
1000
0000
0001
0000
,
0100
0000
0001
0000
,
0100
0000
0001
0000
,
1000
0001
1000
0000
,
0001
1000
0001
0000
,
0010
0001
0010
0000
,
0010
0001
0010
0000
,
1001
0000
0000
0000
;

//---------------dance-single - xRGTMx----------------
#NOTES:
     dance-single:
     xRGTMx:
     Beginner:
     1:
     0.068,0.116,0.012,0.000,0.000: // measure 1
0000
0000
0000
0000
,  // measure 2
0000
0000
0000
0000
,  // measure 3
0000
0000
0000
0000
,  // measure 4
0000
0000
0000
0000
,  // measure 5
1000
0000
0000
0000
,  // measure 6
0000
0000
0000
0000
,  // measure 7
0001
0000
0000
0000
,  // measure 8
0000
0000
0000
0000
,  // measure 9
1000
0000
0000
0000
,  // measure 10
0000
0000
0000
0000
,  // measure 11
0001
0000
0000
0000
,  // measure 12
0000
0000
0000
0000
,  // measure 13
0100
0000
0000
0000
,  // measure 14
0000
0000
0000
0000
,  // measure 15
0010
0000
0000
0000
,  // measure 16
0000
0000
0000
0000
,  // measure 17
0100
0000
0000
0000
,  // measure 18
0000
0000
0000
0000
,  // measure 19
0010
0000
0000
0000
,  // measure 20
1000
0000
0000
0000
,  // measure 21
0001
0000
0000
0000
,  // measure 22
0100
0000
0000
0000
,  // measure 23
0010
0000
0000
0000
,  // measure 24
1000
0000
0000
0000
,  // measure 25
0001
0000
0000
0000
,  // measure 26
0100
0000
0000
0000
,  // measure 27
0001
0000
0000
0000
,  // measure 28
1000
0000
0000
0000
,  // measure 29
0100
0000
0000
0000
,  // measure 30
0010
0000
0000
0000
,  // measure 31
0001
0000
0000
0000
,  // measure 32
0100
0000
0000
0000
,  // measure 33
0010
0000
0000
0000
,  // measure 34
1000
0000
0000
0000
,  // measure 35
0001
0000
0000
0000
,  // measure 36
0010
0000
0000
0000
,  // measure 37
0100
0000
0000
0000
,  // measure 38
1000
0000
0000
0000
,  // measure 39
0001
0000
0000
0000
,  // measure 40
0100
0000
0000
0000
,  // measure 41
0010
0000
0000
0000
,  // measure 42
1000
0000
0000
0000
,  // measure 43
0100
0000
0000
0000
,  // measure 44
0010
0000
0000
0000
,  // measure 45
0001
0000
0000
0000
,  // measure 46
1000
0000
0000
0000
,  // measure 47
0100
0000
0000
0000
,  // measure 48
1000
0000
0000
0000
,  // measure 49
0001
0000
0000
0000
,  // measure 50
0100
0000
0000
0000
,  // measure 51
1001
0000
0000
0000
;
