#TITLE:Gnat Attack 3;
#SUBTITLE:;
#ARTIST:Mario Paint;
#TITLETRANSLIT:;
#SUBTITLETRANSLIT:;
#ARTISTTRANSLIT:;
#CREDIT:;
#BANNER:Gnat Attack 3-bn.PNG;
#BACKGROUND:Gnat Attack 3-bg.PNG;
#LYRICSPATH:;
#CDTITLE:;
#MUSIC:Gnat Attack 3.mp3;
#OFFSET:-0.060;
#SAMPLESTART:0.000;
#SAMPLELENGTH:12.000;
#SELECTABLE:YES;
#BPMS:0.000=390.398,164.000=97.600,167.000=390.397,395.000=97.599,398.000=390.396;
#STOPS:;
#BGCHANGES:;

//---------------dance-single - xRGTMx----------------
#NOTES:
     dance-single:
     xRGTMx:
     Challenge:
     13:
     1.000,1.000,0.689,0.248,0.086: // measure 1
0000
0000
0000
0000
,  // measure 2
0000
0000
0000
0000
,  // measure 3
0000
0000
0000
0000
,  // measure 4
0000
0000
0000
0000
,  // measure 5
0000
0000
0000
0000
,  // measure 6
0000
0000
0000
0000
,  // measure 7
0000
0000
0000
0000
,  // measure 8
0000
0000
0000
0000
,  // measure 9
1000
0000
0001
0100
0001
0000
1000
0100
,  // measure 10
0000
1000
0000
0001
0100
0000
0001
1000
,  // measure 11
0001
0000
1000
0100
1000
0000
0001
0100
,  // measure 12
0000
0001
0000
1000
0100
0000
1000
0001
,  // measure 13
1000
0000
0001
0010
0001
0000
1000
0010
,  // measure 14
0000
1000
0000
0001
0010
0000
0001
1000
,  // measure 15
0001
0000
1000
0010
1000
0000
0001
0010
,  // measure 16
0000
0001
0000
1000
0010
0000
1000
0001
,  // measure 17
1000
0000
0000
1100
0000
0000
0110
0000
,  // measure 18
0001
0000
0000
0101
0000
0000
0110
0000
,  // measure 19
1000
0000
0000
0011
0000
0000
1100
0000
,  // measure 20
0001
0000
0000
1010
0000
0000
0101
0000
,  // measure 21
1000
0000
0000
0110
0000
0000
1001
0000
,  // measure 22
0220
0000
0000
0000
0000
0330
0000
0000
,  // measure 23
0001
0000
0000
0110
0000
0000
1001
0000
,  // measure 24
0220
0000
0000
0330
,  // measure 25
0001
0000
0000
0101
0000
0000
0110
0000
,  // measure 26
1000
0000
0000
1100
0000
0000
0110
0000
,  // measure 27
0001
0000
0000
1010
0000
0000
0101
0000
,  // measure 28
1000
0000
0000
0011
0000
0000
1100
0000
,  // measure 29
0001
0000
0000
0110
0000
0000
1001
0000
,  // measure 30
0220
0000
0000
0000
0000
0330
0000
0000
,  // measure 31
1000
0000
0000
0110
0000
0000
1001
0000
,  // measure 32
0220
0000
0000
0330
,  // measure 33
1010
0000
0000
0101
0000
0000
1010
0000
,  // measure 34
0102
0000
0100
0000
,  // measure 35
1000
0000
0100
0000
,  // measure 36
0010
0000
1000
0000
,  // measure 37
0100
0000
0013
0000
,  // measure 38
1000
0000
0100
0000
0010
0000
0001
0000
0100
0000
1000
0000
,  // measure 39
0100
0000
0001
0000
0010
0000
0100
0000
1000
0000
0010
0000
,  // measure 40
0001
0010
1000
0100
0010
0001
0100
1000
,  // measure 41
0100
0001
0010
0100
1000
0010
0001
0020
,  // measure 42
2000
0000
0000
0000
3031
0000
1000
0010
,  // measure 43
1000
0010
1000
0010
1000
0010
1000
0010
,  // measure 44
1000
0010
1000
0010
1000
0000
0001
1000
,  // measure 45
0001
1000
0001
1000
0001
1000
0001
1000
,  // measure 46
0001
1000
0001
1000
0001
0000
1000
0100
,  // measure 47
1000
0100
1000
0100
1000
0100
1000
0100
,  // measure 48
1000
0100
1000
0100
1000
0000
0010
0100
,  // measure 49
0010
0100
0010
0100
0010
0100
0010
0100
,  // measure 50
0010
0100
0010
0100
0010
0000
0001
0010
,  // measure 51
0001
0010
0001
0010
0001
0010
0001
0010
,  // measure 52
0001
0010
0001
0010
0001
0000
1000
0001
,  // measure 53
1000
0001
1000
0001
1000
0001
1000
0001
,  // measure 54
1000
0001
1000
0001
1000
0000
0001
0100
,  // measure 55
0001
0100
0001
0100
0001
0100
0001
0100
,  // measure 56
0001
0100
0001
0100
0001
0000
0010
0100
,  // measure 57
0010
0100
0010
0100
0010
0100
0010
0100
,  // measure 58
0010
0100
0010
0100
0010
0000
0001
0000
,  // measure 59
1000
0100
1000
0000
0001
0100
0000
0001
,  // measure 60
0000
1000
0100
0000
1000
0001
1000
0000
,  // measure 61
0001
0100
0001
0000
1000
0100
0000
1000
,  // measure 62
0000
0001
0100
0000
0001
1000
0001
0000
,  // measure 63
1000
0010
1000
0000
0001
0010
0000
0001
,  // measure 64
0000
1000
0010
0000
1000
0001
1000
0000
,  // measure 65
0001
0010
0001
0000
1000
0010
0000
0100
,  // measure 66
0000
0010
1000
0000
1000
0001
1000
0000
,  // measure 67
0001
0010
0001
0000
1000
0010
0000
1000
,  // measure 68
0000
0001
0010
0000
0001
1000
0001
0000
,  // measure 69
1000
0010
1000
0000
0001
0010
0000
0001
,  // measure 70
0000
1000
0010
0000
1000
0001
1000
0000
,  // measure 71
0001
0100
0001
0000
1000
0100
0000
1000
,  // measure 72
0000
0001
0100
0000
0001
1000
0001
0000
,  // measure 73
1000
0100
1000
0000
0001
0100
0000
0001
,  // measure 74
0000
1000
0100
0000
1000
0001
1000
0000
,  // measure 75
0000
1010
0000
0000
0110
0000
0001
0000
,  // measure 76
0000
0011
0000
0000
0110
0000
1000
0000
,  // measure 77
0000
0101
0000
0000
1010
0000
0001
0000
,  // measure 78
0000
1100
0000
0000
0011
0000
1000
0000
,  // measure 79
0000
0110
0000
0000
1001
0000
0220
0000
,  // measure 80
0000
0000
0000
0330
0000
0000
0001
0000
,  // measure 81
0000
0110
0000
0000
1001
0000
0220
0000
,  // measure 82
0000
0000
0330
0001
,  // measure 83
0000
0011
0000
0000
0110
0000
1000
0000
,  // measure 84
0000
1010
0000
0000
0110
0000
0001
0000
,  // measure 85
0000
1100
0000
0000
0011
0000
1000
0000
,  // measure 86
0000
0101
0000
0000
1010
0000
0001
0000
,  // measure 87
0000
0110
0000
0000
1001
0000
0220
0000
,  // measure 88
0000
0000
0000
0330
0000
0000
1000
0000
,  // measure 89
0000
0110
0000
0000
1001
0000
0220
0000
,  // measure 90
0000
0000
0330
1010
,  // measure 91
0000
0101
0000
0000
1010
0000
0012
0000
,  // measure 92
0000
0010
0000
1000
,  // measure 93
0000
0010
0000
0100
,  // measure 94
0000
1000
0000
0010
,  // measure 95
0000
0000
0000
0103
0000
0000
0000
0000
0000
1000
0000
0010
,  // measure 96
0000
0100
0000
0001
0000
0010
0000
1000
0000
0010
0000
0001
,  // measure 97
0000
0000
0100
0000
0000
0000
0010
0000
0000
0000
1000
0000
0000
0000
0100
0000
0000
0000
0001
0000
0000
0100
0000
0000
,  // measure 98
1000
0010
0100
0001
0010
1000
0010
0001
,  // measure 99
0100
0010
1000
0100
0001
0200
2000
0000
,  // measure 100
0000
0000
3301
0000
1000
0100
1000
0100
,  // measure 101
1000
0100
1000
0100
0010
0001
0010
0001
,  // measure 102
0010
0001
0010
0000
0001
0100
0001
0100
,  // measure 103
0001
0100
0001
0100
0010
1000
0010
1000
,  // measure 104
0010
1000
0010
0000
1000
0100
1000
0100
,  // measure 105
1000
0100
1000
0100
0001
0100
0001
0100
,  // measure 106
0001
0100
0001
0000
1000
0010
1000
0010
,  // measure 107
1000
0010
1000
0010
0001
0010
0001
0010
,  // measure 108
0001
0010
0001
0000
1000
0100
1000
0100
,  // measure 109
0010
0001
0010
0001
1000
0100
1000
0100
,  // measure 110
0010
0001
0010
0000
0001
0100
0001
0100
,  // measure 111
0010
1000
0010
1000
0001
0100
0001
0100
,  // measure 112
0010
1000
0010
0000
1000
0100
1000
0100
,  // measure 113
0001
0100
0001
0100
1000
0100
1000
0100
,  // measure 114
0001
0100
0001
0000
1000
0010
1000
0010
,  // measure 115
0001
0010
0001
0010
1000
0010
1000
0010
,  // measure 116
0001
0010
0001
0000
1000
0000
0100
0010
,  // measure 117
0001
0000
0100
1000
0000
0100
0000
0001
,  // measure 118
0010
0000
0100
1000
0010
0000
0001
0010
,  // measure 119
1000
0000
0100
0010
0000
0001
0000
0100
,  // measure 120
1000
0000
0100
0001
0010
0000
0100
1000
,  // measure 121
0001
0000
0100
0001
0000
1000
0000
0100
,  // measure 122
0010
0000
0100
1000
0100
0000
0010
0001
,  // measure 123
1000
0000
0010
0100
0000
0001
0000
1000
,  // measure 124
0100
0000
0010
0100
1000
0000
0010
0100
,  // measure 125
0001
0000
0010
1000
0000
0010
0000
0001
,  // measure 126
0100
0000
0010
1000
0100
0000
0001
0100
,  // measure 127
1000
0000
0010
0100
0000
0001
0000
0010
,  // measure 128
1000
0000
0010
0001
0100
0000
0010
1000
,  // measure 129
0001
0000
0010
0001
0000
1000
0000
0010
,  // measure 130
0100
0000
0010
1000
0010
0000
0100
0001
,  // measure 131
1000
0000
0100
0010
0000
0001
0000
1000
,  // measure 132
0010
0000
0100
0010
2000
0000
0000
0000
,  // measure 133
0000
0000
0000
0000
,  // measure 134
0000
0000
0000
0000
,  // measure 135
0000
0000
0000
0000
,  // measure 136
0000
0000
3000
0000
;

//---------------dance-single - xRGTMx----------------
#NOTES:
     dance-single:
     xRGTMx:
     Hard:
     11:
     0.868,1.000,0.539,0.248,0.086:
0000
0000
0000
0000
,
0000
0000
0000
0000
,
0000
0000
0000
0000
,
0000
0000
0000
0000
,
0000
0000
0000
0000
,
0000
0000
0000
0000
,
0000
0000
0000
0000
,
0000
0000
0000
0000
,
1000
0000
0001
0000
0010
0000
0000
0100
,
0000
1000
0000
0010
0100
0000
0001
0000
,
1000
0000
0001
0000
0010
0000
0000
0100
,
0000
1000
0000
0010
0100
0000
0001
0000
,
1000
0000
0001
0000
0100
0000
0000
0010
,
0000
1000
0000
0100
0010
0000
0001
0000
,
1000
0000
0001
0000
0100
0000
0000
0010
,
0000
1000
0000
0100
0010
0000
0001
0000
,
1000
0000
0000
0010
0000
0000
1010
0000
,
0010
0000
0000
0100
0000
0000
0101
0000
,
0001
0000
0000
0010
0000
0000
0011
0000
,
0010
0000
0000
0100
0000
0000
1100
0000
,
1000
0000
0000
0110
0000
0000
1001
0000
,
0220
0000
0000
0330
,
0001
0000
0000
0110
0000
0000
1001
0000
,
0220
0000
0000
0330
,
0001
0000
0000
0010
0000
0000
0011
0000
,
0010
0000
0000
0100
0000
0000
1100
0000
,
1000
0000
0000
0010
0000
0000
1010
0000
,
0010
0000
0000
0100
0000
0000
0101
0000
,
0001
0000
0000
0110
0000
0000
1001
0000
,
0220
0000
0000
0330
,
1000
0000
0000
0110
0000
0000
1001
0000
,
0220
0000
0000
0330
,
1100
0000
0000
0110
0000
0000
0011
0000
,
1002
0000
1000
0000
,
1000
0000
1000
0000
,
0100
0000
0100
0000
,
0100
0000
0103
0000
,
1000
0000
0100
0000
1000
0000
0100
0000
0010
0000
0100
0000
,
0010
0000
0001
0000
0010
0000
0001
0000
1000
0000
0001
0000
,
1000
0100
1000
0000
0100
0010
0100
0000
,
0010
0001
0010
0000
0001
1000
0001
0000
,
2002
0000
0000
0000
3013
0000
1000
0100
,
1000
0100
1000
0100
1000
0000
0100
0000
,
0010
0000
0001
0000
1000
0000
0001
0100
,
0001
0100
0001
0100
0001
0000
0100
0000
,
0010
0000
1000
0000
0001
0000
1000
0010
,
1000
0010
1000
0010
1000
0000
0010
0000
,
0100
0000
0001
0000
1000
0000
0001
0010
,
0001
0010
0001
0010
0001
0000
0010
0000
,
0100
0000
1000
0000
0001
0000
1000
0001
,
1000
0001
1000
0001
1000
0000
0001
0000
,
0100
0000
0010
0000
1000
0000
0001
1000
,
0001
1000
0001
1000
0001
0000
1000
0000
,
0100
0000
0010
0000
0001
0000
1000
0001
,
1000
0001
1000
0001
1000
0000
0001
0000
,
0010
0000
0100
0000
1000
0000
0001
1000
,
0001
1000
0001
1000
0001
0000
1000
0000
,
0010
0100
0001
1000
,
0001
0000
0010
0000
0000
0100
0000
1000
,
0000
0010
0100
0000
0001
0000
1000
0000
,
0001
0000
0010
0000
0000
0100
0000
1000
,
0000
0010
0100
0000
0001
0000
1000
0000
,
0001
0000
0100
0000
0000
0010
0000
1000
,
0000
0100
0010
0000
0001
0000
1000
0000
,
0001
0000
0100
0000
0000
0010
0000
1000
,
0000
0100
0010
0000
0001
0000
1000
0000
,
0001
0000
0100
0000
0000
0010
0000
1000
,
0000
0100
0010
0000
0001
0000
1000
0000
,
0001
0000
0100
0000
0000
0010
0000
1000
,
0000
0100
0010
0000
0001
0000
1000
0000
,
0001
0000
0010
0000
0000
0100
0000
1000
,
0000
0010
0100
0000
0001
0000
1000
0000
,
0001
0000
0010
0000
0000
0100
0000
1000
,
0000
0010
0100
0000
0001
0000
1000
0000
,
0000
0100
0000
0000
1100
0000
0100
0000
,
0000
0010
0000
0000
0011
0000
0001
0000
,
0000
0100
0000
0000
0101
0000
0100
0000
,
0000
0010
0000
0000
1010
0000
1000
0000
,
0000
0110
0000
0000
1001
0000
0220
0000
,
0000
0000
0330
0001
,
0000
0110
0000
0000
1001
0000
0220
0000
,
0000
0000
0330
0001
,
0000
0100
0000
0000
0101
0000
0100
0000
,
0000
0010
0000
0000
1010
0000
1000
0000
,
0000
0100
0000
0000
1100
0000
0100
0000
,
0000
0010
0000
0000
0011
0000
0001
0000
,
0000
0110
0000
0000
1001
0000
0220
0000
,
0000
0000
0330
1000
,
0000
0110
0000
0000
1001
0000
0220
0000
,
0000
0000
0330
1010
,
0000
0110
0000
0000
0101
0000
1002
0000
,
0000
1000
0000
1000
,
0000
1000
0000
0010
,
0000
0010
0000
0010
,
0000
0000
0000
0013
0000
0000
0000
0000
0000
1000
0000
0010
,
0000
1000
0000
0010
0000
0100
0000
0010
0000
0100
0000
0001
,
0000
0000
0100
0000
0000
0000
0001
0000
0000
0000
1000
0000
0000
0000
0001
0000
0000
0000
1000
0000
0000
0010
0000
0000
,
1000
0000
0010
0100
0010
0000
0100
0001
,
0100
0000
0001
1000
0001
0000
2002
0000
,
0000
0000
3013
0000
1000
0010
1000
0010
,
1000
0010
1000
0000
0010
0000
0100
0000
,
0001
0000
1000
0000
0001
0010
0001
0010
,
0001
0010
0001
0000
0010
0000
0100
0000
,
1000
0000
0001
0000
1000
0100
1000
0100
,
1000
0100
1000
0000
0100
0000
0010
0000
,
0001
0000
1000
0000
0001
0100
0001
0100
,
0001
0100
0001
0000
0100
0000
0010
0000
,
1000
0000
0001
0000
1000
0001
1000
0001
,
1000
0001
1000
0000
0001
0000
0010
0000
,
0100
0000
1000
0000
0001
1000
0001
1000
,
0001
1000
0001
0000
1000
0000
0010
0000
,
0100
0000
0001
0000
1000
0001
1000
0001
,
1000
0001
1000
0000
0001
0000
0100
0000
,
0010
0000
1000
0000
0001
1000
0001
1000
,
0001
1000
0001
0000
1000
0000
0100
0000
,
0010
0001
1000
0001
,
0010
0000
0000
0100
0000
1000
0000
0010
,
0100
0001
1000
0001
,
0010
0000
0000
0100
0000
1000
0000
0010
,
0100
0001
1000
0001
,
0100
0000
0000
0010
0000
1000
0000
0100
,
0010
0001
1000
0001
,
0100
0000
0000
0010
0000
1000
0000
0100
,
0010
0001
1000
0001
,
0100
0000
0000
0010
0000
1000
0000
0100
,
0010
0001
1000
0001
,
0100
0000
0000
0010
0000
1000
0000
0100
,
0010
0001
1000
0001
,
0010
0000
0000
0100
0000
1000
0000
0010
,
0100
0001
1000
0001
,
0010
0000
0000
0100
0000
1000
0000
0010
,
0100
0001
2000
0000
,
0000
0000
0000
0000
,
0000
0000
0000
0000
,
0000
0000
0000
0000
,
0000
0000
3000
0000
;

//---------------dance-single - xRGTMx----------------
#NOTES:
     dance-single:
     xRGTMx:
     Medium:
     9:
     0.603,0.730,0.022,0.463,0.000:
0000
0000
0000
0000
,
0000
0000
0000
0000
,
0000
0000
0000
0000
,
0000
0000
0000
0000
,
0000
0000
0000
0000
,
0000
0000
0000
0000
,
0000
0000
0000
0000
,
0000
0000
0000
0000
,
0010
0000
0100
0000
0010
0000
0000
1000
,
0000
0001
0000
0000
0100
0000
0010
0000
,
1000
0000
0001
0000
1000
0000
0000
0010
,
0000
0100
0000
0000
0001
0000
1000
0000
,
0010
0000
0100
0000
0010
0000
0000
1000
,
0000
0001
0000
0000
0100
0000
0010
0000
,
1000
0000
0001
0000
1000
0000
0000
0010
,
0000
0100
0000
0000
0001
0000
1000
0000
,
0100
0000
0000
0100
0000
0000
0100
0000
,
0010
0000
0000
0010
0000
0000
0010
0000
,
0001
0000
0000
0001
0000
0000
0001
0000
,
1000
0000
0000
1000
0000
0000
1000
0000
,
0010
0000
0000
1000
0000
0000
0001
0000
,
0200
0000
0000
0300
,
0010
0000
0000
1000
0000
0000
0001
0000
,
0200
0000
0000
0300
,
0010
0000
0000
0010
0000
0000
0010
0000
,
0100
0000
0000
0100
0000
0000
0100
0000
,
0001
0000
0000
0001
0000
0000
0001
0000
,
1000
0000
0000
1000
0000
0000
1000
0000
,
0100
0000
0000
1000
0000
0000
0001
0000
,
0020
0000
0000
0030
,
0100
0000
0000
1000
0000
0000
0001
0000
,
0020
0000
0000
0030
,
1000
0000
0000
0001
0000
0000
1000
0000
,
0200
0000
0000
0000
,
0010
0000
0000
0000
,
0010
0000
0000
0000
,
0310
0000
0000
0000
,
0100
1000
0100
1000
,
0001
1000
0001
1000
,
0001
0100
0001
0100
,
0010
0100
0010
0100
,
2002
0000
3003
2000
,
0000
0001
0000
0001
,
0000
3001
0000
0002
,
0000
0100
0000
0100
,
0000
0103
0000
0002
,
0000
1000
0000
1000
,
0000
1003
0000
2000
,
0000
0100
0000
0100
,
0000
3100
0000
0020
,
0000
0031
0000
0002
,
1000
1003
0000
2000
,
0000
3010
0000
0020
,
0100
0130
0000
0200
,
0000
0301
0000
0002
,
1000
1003
0000
2000
,
0000
3100
0000
0200
,
0010
0310
0000
0010
,
0100
0000
0010
0000
0000
0001
0000
1000
,
0000
0100
0010
0001
,
1000
0000
0001
0000
0000
0010
0000
0100
,
0000
1000
0001
0010
,
0100
0000
0010
0000
0000
0001
0000
1000
,
0000
0100
0010
0001
,
1000
0000
0001
0000
0000
0010
0000
0100
,
0000
1000
0001
0100
,
0010
0000
0100
0000
0000
0001
0000
1000
,
0000
0010
0100
0001
,
1000
0000
0001
0000
0000
0100
0000
0010
,
0000
1000
0001
0100
,
0010
0000
0100
0000
0000
0001
0000
1000
,
0000
0010
0100
0001
,
1000
0000
0001
0000
0000
0100
0000
0010
,
0000
1000
0001
0010
,
0000
0010
0000
0000
0010
0000
0100
0000
,
0000
0100
0000
0000
0100
0000
1000
0000
,
0000
1000
0000
0000
1000
0000
0001
0000
,
0000
0001
0000
0000
0001
0000
0100
0000
,
0000
0001
0000
0000
1000
0000
0020
0000
,
0000
0000
0030
0100
,
0000
0001
0000
0000
1000
0000
0020
0000
,
0000
0000
0030
0100
,
0000
0100
0000
0000
0100
0000
0010
0000
,
0000
0010
0000
0000
0010
0000
1000
0000
,
0000
1000
0000
0000
1000
0000
0001
0000
,
0000
0001
0000
0000
0001
0000
0010
0000
,
0000
0001
0000
0000
1000
0000
0200
0000
,
0000
0000
0300
0010
,
0000
0001
0000
0000
1000
0000
0200
0000
,
0000
0000
0300
0001
,
0000
1000
0000
0000
0001
0000
0020
0000
,
0000
0000
0000
0100
,
0000
0000
0000
0100
,
0000
0000
0000
0130
,
0000
0000
0000
0010
,
0001
0010
0001
1000
,
0001
1000
0001
1000
,
0010
1000
0010
0100
,
0010
0100
0010
2002
,
0000
3003
2000
0000
,
3001
0000
0002
0000
,
1003
0000
2000
0000
,
3001
0000
0002
1000
,
1003
0000
2000
0000
,
3010
0000
0020
0000
,
1030
0000
2000
0000
,
3010
0000
0020
1000
,
1030
0000
0200
0010
,
0310
0000
0002
1000
,
1003
0000
0020
0100
,
0130
0000
0002
1000
,
1003
0000
0200
0010
,
0310
0000
0002
1000
,
1003
0000
0020
0100
,
0130
0000
0002
1000
,
1003
0000
0010
0100
,
0010
0000
0000
1000
0000
0001
0000
0000
,
0100
0010
1000
0001
,
1000
0000
0000
0010
0000
0100
0000
0000
,
0001
1000
0010
0100
,
0010
0000
0000
1000
0000
0001
0000
0000
,
0100
0010
1000
0001
,
1000
0000
0000
0010
0000
0100
0000
0000
,
0001
1000
0100
0010
,
0100
0000
0000
1000
0000
0001
0000
0000
,
0010
0100
1000
0001
,
1000
0000
0000
0100
0000
0010
0000
0000
,
0001
1000
0100
0010
,
0100
0000
0000
1000
0000
0001
0000
0000
,
0010
0100
1000
0001
,
1000
0000
0000
0100
0000
0010
0000
0000
,
0001
1000
0020
0000
,
0000
0000
0000
0000
,
0000
0000
0000
0000
,
0000
0000
0000
0000
,
0000
0000
0030
0000
;

//---------------dance-single - xRGTMx----------------
#NOTES:
     dance-single:
     xRGTMx:
     Easy:
     7:
     0.502,0.657,0.345,0.269,0.000:
0000
0000
0000
0000
,
0000
0000
0000
0000
,
0000
0000
0000
0000
,
0000
0000
0000
0000
,
0000
0000
0000
0000
,
0000
0000
0000
0000
,
0000
0000
0000
0000
,
0000
0000
0000
0000
,
0010
0000
0010
0000
,
0001
0001
1000
0000
,
0010
0000
0010
0000
,
1000
1000
0001
0000
,
0100
0000
0100
0000
,
0001
0001
1000
0000
,
0100
0000
0100
0000
,
1000
1000
0001
0000
,
0020
0000
0031
0000
,
0011
0000
0010
0000
,
0002
0000
0103
0000
,
0101
0000
0001
0000
,
0200
0000
0310
0000
,
0110
0000
0100
0000
,
0020
0000
1030
0000
,
1010
0000
0010
0000
,
2000
0000
3001
0000
,
0101
0000
0001
0000
,
2000
0000
3001
0000
,
0011
0000
0001
0000
,
0002
0000
1003
0000
,
1100
0000
1000
0000
,
0002
0000
1003
0000
,
1010
0000
1000
0000
,
0110
0000
0110
0000
,
2002
0000
0000
0000
,
0000
0000
0000
0000
,
3003
0000
0000
0000
,
0000
0000
0000
0000
,
1000
0001
1000
0000
,
0001
1000
0001
0000
,
0100
0010
0100
0000
,
0010
0100
0010
0000
,
2002
0000
3003
1000
,
0001
1000
0000
1001
,
0000
0000
0000
0001
,
1000
0001
0000
1001
,
0000
0000
0000
0100
,
0010
0100
0000
0110
,
0000
0000
0000
0010
,
0100
0010
0000
0110
,
0000
0000
0000
1000
,
0000
1000
0000
0001
,
0100
0001
0000
1000
,
0000
1000
0000
0001
,
0100
0001
0000
1000
,
0000
1000
0000
0001
,
0010
0001
0000
1000
,
0000
1000
0000
0001
,
0010
0001
0000
0010
,
0000
0010
0000
0001
,
0001
1000
0000
0010
,
0000
0010
0000
1000
,
1000
0001
0000
0100
,
0000
0100
0000
0001
,
0001
1000
0000
0100
,
0000
0100
0000
1000
,
1000
0001
0000
0010
,
0000
0010
0000
0001
,
0001
1000
0000
0010
,
0000
0010
0000
1000
,
1000
0001
0000
0100
,
0000
0100
0000
0001
,
0001
1000
0000
0100
,
0000
0100
0000
1000
,
1000
0001
0000
0020
,
0000
0031
0000
0011
,
0000
0010
0000
0002
,
0000
0103
0000
0101
,
0000
0001
0000
0200
,
0000
0310
0000
0110
,
0000
0100
0000
0020
,
0000
1030
0000
1010
,
0000
0010
0000
2000
,
0000
3001
0000
0101
,
0000
0001
0000
2000
,
0000
3001
0000
0011
,
0000
0001
0000
0002
,
0000
1003
0000
1100
,
0000
1000
0000
0002
,
0000
1003
0000
1010
,
0000
1000
0000
0110
,
0000
0110
0000
2002
,
0000
0000
0000
0000
,
0000
0000
0000
3003
,
0000
0000
0000
0000
,
0000
0000
0000
1000
,
0001
1000
0000
0001
,
1000
0001
0000
0100
,
0010
0100
0000
0010
,
0100
0010
0000
2002
,
0000
3003
1000
0001
,
1000
0000
1001
0000
,
0000
0000
0001
1000
,
0001
0000
1001
0000
,
0000
0000
0100
0010
,
0100
0000
0110
0000
,
0000
0000
0010
0100
,
0010
0000
0110
0000
,
0000
0000
1000
0000
,
1000
0000
0001
0100
,
0001
0000
1000
0000
,
1000
0000
0001
0100
,
0001
0000
1000
0000
,
1000
0000
0001
0010
,
0001
0000
1000
0000
,
1000
0000
0001
0010
,
0001
0000
0010
0000
,
0010
0000
0001
0001
,
1000
0000
0010
0000
,
0010
0000
1000
1000
,
0001
0000
0100
0000
,
0100
0000
0001
0001
,
1000
0000
0100
0000
,
0100
0000
1000
1000
,
0001
0000
0010
0000
,
0010
0000
0001
0001
,
1000
0000
0010
0000
,
0010
0000
1000
1000
,
0001
0000
0100
0000
,
0100
0000
0001
0001
,
1000
0000
0100
0000
,
0100
0000
1000
1000
,
0001
0000
2000
0000
,
0000
0000
0000
0000
,
0000
0000
0000
0000
,
0000
0000
0000
0000
,
0000
0000
3000
0000
;

//---------------dance-single - xRGTMx----------------
#NOTES:
     dance-single:
     xRGTMx:
     Beginner:
     3:
     0.206,0.354,0.248,0.000,0.000:
0000
0000
0000
0000
,
0000
0000
0000
0000
,
0000
0000
0000
0000
,
0000
0000
0000
0000
,
0000
0000
0000
0000
,
0000
0000
0000
0000
,
0000
0000
0000
0000
,
0000
0000
0000
0000
,
0010
0000
0000
0000
,
0010
0000
0000
0000
,
0100
0000
0000
0000
,
0100
0000
0000
0000
,
0010
0000
0000
0000
,
0010
0000
0000
0000
,
0100
0000
0000
0000
,
0100
0000
0000
0000
,
1001
0000
0000
0000
,
0100
0000
0000
0000
,
1001
0000
0000
0000
,
0010
0000
0000
0000
,
1001
0000
0000
0000
,
0100
0000
0000
0000
,
1001
0000
0000
0000
,
0010
0000
0000
0000
,
0110
0000
0000
0000
,
1000
0000
0000
0000
,
0110
0000
0000
0000
,
0001
0000
0000
0000
,
0110
0000
0000
0000
,
1000
0000
0000
0000
,
0110
0000
0000
0000
,
0001
0000
0000
0000
,
1001
0000
0000
0000
,
0110
0000
0000
0000
,
0000
0000
0000
0000
,
0000
0000
0000
0000
,
0000
0000
0000
0000
,
1000
0000
0100
0000
,
0010
0000
0001
0000
,
1000
0000
0100
0000
,
0010
0000
0001
0000
,
1001
0000
0000
1000
,
0000
0000
0000
0000
,
0000
0000
0000
0001
,
0000
0000
0000
0000
,
0000
0000
0000
1000
,
0000
0000
0000
0000
,
0000
0000
0000
0001
,
0000
0000
0000
0000
,
0000
0000
0000
0100
,
0000
0000
0000
0000
,
0000
0000
0000
0010
,
0000
0000
0000
0000
,
0000
0000
0000
0100
,
0000
0000
0000
0000
,
0000
0000
0000
0010
,
0000
0000
0000
0000
,
0000
0000
0000
0010
,
0000
0000
0000
0010
,
0000
0000
0000
0100
,
0000
0000
0000
0100
,
0000
0000
0000
0010
,
0000
0000
0000
0010
,
0000
0000
0000
0100
,
0000
0000
0000
0100
,
0000
0000
0000
0010
,
0000
0000
0000
0010
,
0000
0000
0000
0100
,
0000
0000
0000
0100
,
0000
0000
0000
0010
,
0000
0000
0000
0010
,
0000
0000
0000
0100
,
0000
0000
0000
0100
,
0000
0000
0000
1001
,
0000
0000
0000
0100
,
0000
0000
0000
1001
,
0000
0000
0000
0010
,
0000
0000
0000
1001
,
0000
0000
0000
0100
,
0000
0000
0000
1001
,
0000
0000
0000
0010
,
0000
0000
0000
0110
,
0000
0000
0000
1000
,
0000
0000
0000
0110
,
0000
0000
0000
0001
,
0000
0000
0000
0110
,
0000
0000
0000
1000
,
0000
0000
0000
0110
,
0000
0000
0000
0001
,
0000
0000
0000
1001
,
0000
0000
0000
0110
,
0000
0000
0000
0000
,
0000
0000
0000
0000
,
0000
0000
0000
0000
,
0000
0000
0000
1000
,
0000
0100
0000
0010
,
0000
0001
0000
1000
,
0000
0100
0000
0010
,
0000
0001
0000
1001
,
0000
0000
1000
0000
,
0000
0000
0000
0000
,
0000
0000
0001
0000
,
0000
0000
0000
0000
,
0000
0000
1000
0000
,
0000
0000
0000
0000
,
0000
0000
0001
0000
,
0000
0000
0000
0000
,
0000
0000
0100
0000
,
0000
0000
0000
0000
,
0000
0000
0010
0000
,
0000
0000
0000
0000
,
0000
0000
0100
0000
,
0000
0000
0000
0000
,
0000
0000
0010
0000
,
0000
0000
0000
0000
,
0000
0000
0010
0000
,
0000
0000
0010
0000
,
0000
0000
0100
0000
,
0000
0000
0100
0000
,
0000
0000
0010
0000
,
0000
0000
0010
0000
,
0000
0000
0100
0000
,
0000
0000
0100
0000
,
0000
0000
0010
0000
,
0000
0000
0010
0000
,
0000
0000
0100
0000
,
0000
0000
0100
0000
,
0000
0000
0010
0000
,
0000
0000
0010
0000
,
0000
0000
0100
0000
,
0000
0000
0100
0000
,
0000
0000
1001
0000
;
