#TITLE:Fight Against an Armored Boss;
#ARTIST:Youko Shimomura;
#BANNER:fightagainstanarmoredboss.png;
#BACKGROUND:fightagainstanarmoredboss-bg.png;
#OFFSET:-0.571338;
#BPMS:0=141.263147;
#MUSIC:1-19-fight-against-an-armed-boss.mp3;
#CREDIT:Gorilla v1.1.4 (Dancing Monkeys v1.06); // --- Arrows ---
#NOTES:
     dance-single:
     Basic:
     easy:
     6:
     :
1000
0000
0100
0000
0000
0000
0010
0000
,
0000
0000
1000
0000
0001
0000
0100
0000
,
1010
0000
0001
0000
0001
0000
0100
0000
,
0011
0000
1000
0000
1000
0000
0100
0000
,
0011
0000
1000
0000
0100
0000
0010
0000
,
1100
0000
0001
0000
0010
0000
0100
0000
,
0011
0000
1000
0000
0100
0000
0010
0000
,
1010
0000
0001
0000
0100
0000
0010
0000
,
0101
0000
1000
0000
0010
0000
0100
0000
,
0101
0000
1000
0000
0010
0000
0100
0000
,
0011
0000
1000
0000
0100
0000
0010
0000
,
0101
0000
1000
0000
0010
0000
0100
0000
,
1100
0000
0001
0000
0010
0000
0100
0000
,
1010
0000
0001
0000
0100
0000
0010
0000
,
1010
0000
0001
0000
0100
0000
0010
0000
,
1010
0000
0001
0000
0001
0000
0100
0000
,
0110
0000
1000
0000
0010
0000
1000
0000
,
1010
0000
0001
0000
0001
0000
0100
0000
,
0011
0000
1000
0000
0100
0000
0010
0000
,
1010
0000
0001
0000
0001
0000
0100
0000
,
1010
0000
0001
0000
0001
0000
0100
0000
,
0101
0000
1000
0000
1000
0000
0010
0000
,
1000
0000
0100
0000
1000
0000
0001
0000
,
0110
0000
1000
0000
0010
0000
1000
0000
,
0011
0000
1000
0000
0100
0000
0010
0000
,
1010
0000
0001
0000
0001
0000
0100
0000
,
1100
0000
0001
0000
0001
0000
0010
0000
,
0011
0000
1000
0000
0100
0000
0010
0000
,
0011
0000
1000
0000
0100
0000
0010
0000
,
0110
0000
1000
0000
0010
0000
1000
0000
,
1010
0000
0001
0000
0001
0000
0100
0000
,
1000
0000
0100
0000
1000
0000
0001
0000
,
1010
0000
0001
0000
0001
0000
0100
0000
,
0101
0000
1000
0000
1000
0000
0010
0000
,
0011
0000
1000
0000
0100
0000
0010
0000
,
1010
0000
0001
0000
0001
0000
0100
0000
,
0011
0000
1000
0000
0100
0000
0010
0000
,
1010
0000
0001
0000
0100
0000
0010
0000
,
0101
0000
1000
0000
0010
0000
0100
0000
,
0101
0000
1000
0000
0010
0000
0100
0000
,
1010
0000
0001
0000
0001
0000
0100
0000
,
0011
0000
1000
0000
0100
0000
0010
0000
,
1010
0000
0001
0000
0001
0000
0100
0000
,
0101
0000
1000
0000
1000
0000
0010
0000
,
0011
0000
1000
0000
0100
0000
0010
0000
,
1010
0000
0001
0000
0001
0000
0100
0000
,
1100
0000
0001
0000
0001
0000
0010
0000
,
1100
0000
0001
0000
0001
0000
0010
0000
,
0011
0000
1000
0000
0100
0000
0010
0000
,
1010
0000
0001
0000
0001
0000
0100
0000
,
1010
0000
0001
0000
0001
0000
0100
0000
,
1010
0000
0001
0000
0001
0000
0100
0000
,
1000
0000
0100
0000
1000
0000
0001
0000
,
0110
0000
1000
0000
0010
0000
1000
0000
,
0011
0000
1000
0000
0100
0000
0010
0000
,
1010
0000
0001
0000
0001
0000
0100
0000
,
1100
0000
0001
0000
0001
0000
0010
0000
,
0011
0000
1000
0000
0100
0000
0010
0000
,
1010
0000
0001
0000
0001
0000
0100
0000
,
0110
0000
1000
0000
0010
0000
1000
0000
,
1010
0000
0001
0000
0001
0000
0100
0000
,
1010
0000
0001
0000
0001
0000
0100
0000
,
1000
0000
0000
0000
1000
0000
0001
0000
,
1000
0000
0100
0000
0000
0000
0010
0000
,
0001
0000
0000
0000
0000
0000
0000
0000
,
1000
0000
0000
0000
0000
0000
0000
0000
,
0000
0000
0000
0000
0000
0000
0000
0000
,
0000
0000
0000
0000
0000
0000
0000
0000
,
0000
0000
0000
0000
0000
0000
0000
0000
,
0000
0000
0000
0000
0000
0000
0000
0000
,
#NOTES:
     dance-single:
     Standard:
     medium:
     8:
     :
1000
0000
0001
0000
0000
0000
0010
0000
,
0000
0000
1000
0000
0001
0000
1000
0000
,
1100
0000
0001
0001
0001
0000
0100
0000
,
1010
0000
0001
0001
0001
0000
0010
0000
,
1100
0000
1000
1000
0100
0000
0010
0000
,
0011
0000
0001
0001
0010
0000
0100
0000
,
1010
0000
1000
1000
0010
0000
0100
0000
,
0011
0000
0001
0001
0010
0000
0100
0000
,
1100
0000
1000
1000
0100
0000
0010
0000
,
0011
0000
0001
0001
0010
0000
0100
0000
,
1010
0000
1000
1000
0010
0000
0100
0000
,
1100
0000
1000
1000
0100
0000
0010
0000
,
1100
0000
1000
1000
0100
0000
0010
0000
,
0011
0000
0001
0001
0010
0000
0100
0000
,
1010
0000
1000
1000
0010
0000
0100
0000
,
1100
0000
0001
0001
0001
0000
0100
0000
,
0011
0000
0001
0100
0001
0000
1000
0000
,
1100
0000
0001
0001
0001
0000
0100
0000
,
1100
0000
1000
1000
0100
0000
0010
0000
,
1100
0000
0001
0001
0001
0000
0100
0000
,
1010
0000
0001
0001
0001
0000
0010
0000
,
0011
0000
1000
1000
1000
0000
0010
0000
,
1000
0000
0100
0010
0100
0000
0110
0000
,
0011
0000
0001
0100
0001
0000
1000
0000
,
1100
0000
1000
1000
0100
0000
0010
0000
,
1100
0000
0001
0001
0001
0000
0100
0000
,
1010
0000
0001
0001
0001
0000
0010
0000
,
1100
0000
1000
1000
0100
0000
0010
0000
,
1010
0000
1000
1000
0010
0000
0100
0000
,
0011
0000
0001
0100
0001
0000
1000
0000
,
1100
0000
0001
0001
0001
0000
0100
0000
,
1000
0000
0100
0010
0100
0000
0110
0000
,
1100
0000
0001
0001
0001
0000
0100
0000
,
1010
0000
0001
0001
0001
0000
0010
0000
,
1100
0000
1000
1000
0100
0000
0010
0000
,
1100
0000
0001
0001
0001
0000
0100
0000
,
1100
0000
1000
1000
0100
0000
0010
0000
,
0101
0000
0001
0001
0100
0000
0010
0000
,
0101
0000
0001
0001
0100
0000
0010
0000
,
1010
0000
1000
1000
0010
0000
0100
0000
,
1100
0000
0001
0001
0001
0000
0100
0000
,
1100
0000
1000
1000
0100
0000
0010
0000
,
1100
0000
0001
0001
0001
0000
0100
0000
,
1100
0000
0001
0001
0001
0000
0100
0000
,
1100
0000
1000
1000
0100
0000
0010
0000
,
1100
0000
0001
0001
0001
0000
0100
0000
,
1100
0000
0001
0001
0001
0000
0100
0000
,
1100
0000
0001
0001
0001
0000
0100
0000
,
1100
0000
1000
1000
0100
0000
0010
0000
,
1100
0000
0001
0001
0001
0000
0100
0000
,
0101
0000
1000
1000
1000
0000
0100
0000
,
1100
0000
0001
0001
0001
0000
0100
0000
,
1000
0000
0100
0010
0100
0000
0110
0000
,
0011
0000
0001
0100
0001
0000
1000
0000
,
1100
0000
1000
1000
0100
0000
0010
0000
,
1100
0000
0001
0001
0001
0000
0100
0000
,
1100
0000
0001
0001
0001
0000
0100
0000
,
1100
0000
1000
1000
0100
0000
0010
0000
,
1100
0000
0001
0001
0001
0000
0100
0000
,
0011
0000
0001
0100
0001
0000
1000
0000
,
1100
0000
0001
0001
0001
0000
0100
0000
,
1100
0000
0001
0001
0001
0000
0100
0000
,
1001
0000
0001
0000
0001
0000
0010
0000
,
1000
0000
0001
0000
0000
0000
0010
0000
,
0001
0000
1000
0000
0000
0000
0000
0000
,
1000
0000
0001
0000
0000
0000
0000
0000
,
0000
0000
0000
0000
0000
0000
0000
0000
,
0000
0000
0000
0000
0000
0000
0000
0000
,
0000
0000
0000
0000
0000
0000
0000
0000
,
0000
0000
0000
0000
0000
0000
0000
0000
,
#NOTES:
     dance-single:
     Heavy:
     hard:
     9:
     :
0001
0000
0100
0100
0001
0000
0010
0000
,
0000
0000
1000
1000
0100
0000
0010
0000
,
1100
0000
0001
0001
0001
1000
0100
0000
,
0011
0000
1000
1000
1000
0001
0010
0000
,
0101
0000
0001
0001
0010
0100
1000
0000
,
1010
0000
1000
1000
0100
0010
0001
0000
,
0011
0000
0001
0001
0100
0010
1000
0000
,
0011
0000
0001
0001
0100
0010
1000
0000
,
0101
0000
0001
0001
0010
0100
1000
0000
,
1100
0000
1000
1000
0010
0100
0001
0000
,
0011
0000
0001
0001
0100
0010
1000
0000
,
1010
0000
1000
1000
0100
0010
0001
0000
,
1010
0000
1000
1000
0100
0010
0001
0000
,
1100
0000
1000
1000
0010
0100
0001
0000
,
0011
0000
0001
0001
0100
0010
1000
0000
,
1100
0000
0001
0001
0001
1000
0100
0000
,
0110
0000
0100
0001
1000
0000
1001
0000
,
1100
0000
0001
0001
0001
1000
0100
0000
,
0101
0000
0001
0001
0010
0100
1000
0000
,
1100
0000
0001
0001
0001
1000
0100
0000
,
1010
0000
0001
0001
0001
1000
0010
0000
,
1010
0000
0001
0001
0001
1000
0010
1000
,
0001
0000
1000
0100
1000
0000
0110
0000
,
0110
0000
0100
0001
1000
0000
1001
0000
,
0101
0000
0001
0001
0010
0100
1000
0000
,
1100
0000
0001
0001
0001
1000
0100
0000
,
0011
0000
1000
1000
1000
0001
0010
0000
,
0101
0000
0001
0001
0010
0100
1000
0000
,
1100
0000
1000
1000
0010
0100
0001
0000
,
0110
0000
0100
0001
1000
0000
1001
0000
,
1100
0000
0001
0001
0001
1000
0100
1000
,
0001
0000
1000
0100
1000
0000
0110
0000
,
1100
0000
0001
0001
0001
1000
0100
0000
,
1100
0000
0001
0001
0001
1000
0100
0000
,
0101
0000
0001
0001
0010
0100
1000
0000
,
1100
0000
0001
0001
0001
1000
0100
0000
,
0101
0000
0001
0001
0010
0100
1000
0000
,
1010
0000
1000
1000
0100
0010
0001
0000
,
0101
0000
0001
0001
0010
0100
1000
0000
,
1010
0000
1000
1000
0100
0010
0001
0000
,
1100
0000
0001
0001
0001
1000
0100
0000
,
0101
0000
0001
0001
0010
0100
1000
0000
,
1100
0000
0001
0001
0001
1000
0100
0000
,
0011
0000
1000
1000
1000
0001
0010
0000
,
0101
0000
0001
0001
0010
0100
1000
0000
,
1100
0000
0001
0001
0001
1000
0100
0000
,
1010
0000
0001
0001
0001
1000
0010
0000
,
0011
0000
1000
1000
1000
0001
0010
0000
,
0101
0000
0001
0001
0010
0100
1000
0000
,
1100
0000
0001
0001
0001
1000
0100
0000
,
0101
0000
1000
1000
1000
0001
0100
0000
,
0101
0000
1000
1000
1000
0001
0100
0001
,
0001
0000
1000
0100
1000
0000
0110
0000
,
0110
0000
0100
0001
1000
0000
1001
0000
,
0101
0000
0001
0001
0010
0100
1000
0000
,
1100
0000
0001
0001
0001
1000
0100
0000
,
1010
0000
0001
0001
0001
1000
0010
0000
,
0101
0000
0001
0001
0010
0100
1000
0000
,
1100
0000
0001
0001
0001
1000
0100
0000
,
0110
0000
0100
0001
1000
0000
1001
0000
,
1100
0000
0001
0001
0001
1000
0100
0000
,
1010
0000
0001
0001
0001
1000
0010
0000
,
0110
0000
1000
1000
1000
0000
0100
0010
,
0001
0000
0100
0100
0001
0000
0010
0000
,
1000
0000
0100
0000
0000
0000
0000
0000
,
1000
0000
0100
0000
0000
0000
0000
0000
,
1000
0000
0000
0000
0000
0000
0000
0000
,
1000
0000
0000
0000
0000
0000
0000
0000
,
1000
0000
0000
0000
0000
0000
0000
0000
,
0001
0000
0000
0000
0000
0000
0000
0000
,
