#TITLE:FF4- Boss theme;
#ARTIST:Nobuo Uematsu;
#BACKGROUND:FF4- Boss theme-bg.png;
#BANNER:FF4- Boss theme.png;
#OFFSET:-1.557098;
#BPMS:0=172.625261;
#MUSIC:FF4- Boss theme.mp3;
#CREDIT:Gorilla v1.1.4 (Dancing Monkeys v1.06); // --- Arrows ---
#NOTES:
     dance-single:
     Basic:
     easy:
     3:
     :
0000
0000
0000
0000
0000
0000
0001
0000
,
0000
0000
0001
0000
0000
0000
1000
0000
,
0000
0000
0001
0000
0000
0000
1000
0000
,
0000
0000
0001
0000
0000
0000
1000
0000
,
0000
0000
1000
0000
0000
0000
0001
0000
,
0000
0000
1000
0000
0001
0000
0100
0000
,
0000
0000
1000
0000
0001
0000
0100
0000
,
0000
0000
0001
0000
1000
0000
0100
0000
,
0000
0000
0001
0000
1000
0000
0100
0000
,
0000
0000
0001
0000
0000
0000
1000
0000
,
0000
0000
0000
0000
0000
0000
0001
0000
,
0000
0000
0000
0000
0000
0000
1000
0000
,
0000
0000
0001
0000
0000
0000
1000
0000
,
0000
0000
0001
0000
0000
0000
1000
0000
,
0000
0000
0001
0000
0000
0000
1000
0000
,
0000
0000
0001
0000
0000
0000
1000
0000
,
0000
0000
0001
0000
0000
0000
1000
0000
,
0000
0000
0000
0000
1000
0000
0010
0000
,
0000
0000
1000
0000
0001
0000
0100
0000
,
0000
0000
1000
0000
0001
0000
0010
0000
,
0000
0000
0001
0000
1000
0000
0010
0000
,
0000
0000
0001
0000
0000
0000
1000
0000
,
0000
0000
0000
0000
0000
0000
0001
0000
,
0000
0000
0000
0000
0000
0000
0001
0000
,
0000
0000
0001
0000
0000
0000
1000
0000
,
0000
0000
1000
0000
0000
0000
0001
0000
,
0000
0000
1000
0000
0000
0000
0100
0000
,
0000
0000
1000
0000
0000
0000
0100
0000
,
0001
0000
0000
0000
0000
0000
0101
0000
,
0000
0000
0000
0000
1000
0000
0010
0000
,
0000
0000
0000
0000
0001
0000
0010
0000
,
0000
0000
0000
0000
1000
0000
0100
0000
,
0000
0000
0001
0000
0000
0000
1000
0000
,
0000
0000
1000
0000
0001
0000
0100
0000
,
0000
0000
1000
0000
0001
0000
0010
0000
,
0000
0000
0001
0000
1000
0000
0010
0000
,
1000
0000
0001
0000
0000
0000
0100
0000
,
0001
0000
1000
0000
0000
0000
0100
0000
,
1000
0000
0100
0000
0000
0000
1000
0000
,
0000
0000
1000
0000
0001
0000
0100
0000
,
1000
0000
0100
0000
0000
0000
1000
0000
,
0000
0000
1000
0000
0001
0000
0100
0000
,
1000
0000
0100
0000
0000
0000
1000
0000
,
0000
0000
0001
0000
0000
0000
1000
0000
,
0000
0000
0000
0000
0001
0000
0010
0000
,
0000
0000
0001
0000
0000
0000
1000
0000
,
0001
0000
0010
0000
0000
0000
0000
0000
,
#NOTES:
     dance-single:
     Standard:
     medium:
     6:
     :
0000
0000
0000
0000
1000
0000
0001
0000
,
0000
0000
1000
0000
0100
0000
1000
0000
,
0000
0000
0001
0000
0010
0000
0001
0000
,
0000
0000
0001
0000
0010
0000
0001
0000
,
0000
0000
0001
0000
0100
0000
0001
0000
,
0001
0000
1000
0000
0001
0000
1000
0000
,
1000
0000
0001
0000
1000
0000
0001
0000
,
1000
0000
0001
0000
1000
0000
0001
0000
,
0001
0000
1000
0000
0001
0000
1000
0000
,
0001
0000
1000
0000
0100
0000
0010
0000
,
0000
0000
0000
0000
1000
0000
0001
0000
,
0000
0000
0000
0000
1000
0000
0001
0000
,
0000
0000
1000
0000
0100
0000
1000
0000
,
0000
0000
0001
0000
0010
0000
0001
0000
,
0000
0000
1000
0000
0010
0000
1000
0000
,
0000
0000
1000
0000
0010
0000
1000
0000
,
0000
0000
0001
0000
0100
0000
0001
0000
,
0001
0000
0100
0000
0001
0000
0100
0000
,
0001
0000
1000
0000
0001
0000
1000
0000
,
1000
0000
0001
0000
1000
0000
0001
0000
,
1000
0000
0001
0000
1000
0000
0001
0000
,
0001
0000
1000
0000
0100
0000
0010
0000
,
0000
0000
1000
0000
0000
0000
0010
0000
,
0000
0000
0000
0000
1000
0000
0001
0000
,
0000
0000
1000
0000
0100
0000
1000
0000
,
0000
0000
0001
0000
0010
0000
0001
0010
,
0000
0000
1000
1000
0000
0000
0010
0000
,
0000
0000
0001
0001
0000
0000
0010
0000
,
0001
1000
0001
0000
0010
0000
1100
0000
,
0001
0000
0100
0000
0001
0000
0100
0000
,
1000
0000
0010
0000
1000
0000
0010
0000
,
1000
0000
0010
0000
1000
0000
0010
0000
,
0001
0000
1000
0000
0100
0000
0010
0000
,
0001
0000
1000
0000
0001
0000
1000
0000
,
1000
0000
0001
0000
1000
0000
0001
0000
,
1000
0000
0001
0000
1000
0000
0001
0000
,
1000
0000
0001
0000
0010
0000
0100
0000
,
0001
0000
1000
0000
0100
0000
0010
0000
,
0001
0000
1000
0100
0010
0000
0100
0000
,
0001
0000
1000
0000
0001
0000
1000
0000
,
0001
0000
1000
0100
0010
0000
0100
0000
,
0001
0000
1000
0000
0001
0000
1000
0000
,
0001
0000
1000
0100
0010
0000
0100
0000
,
0001
0000
1000
0000
0100
0000
0010
0000
,
1000
0000
0000
0000
0001
0000
0010
0000
,
0000
0000
1000
0000
0100
0000
1000
0000
,
0001
0000
0100
0000
0001
0000
0000
0000
,
#NOTES:
     dance-single:
     Heavy:
     hard:
     9:
     :
0000
0000
1000
0000
0100
0100
1000
0000
,
0001
0000
0100
0000
0001
0000
0100
0010
,
0001
0000
0100
0000
0001
0000
0100
0010
,
0001
0000
0100
0000
0001
0000
0100
0010
,
0001
0000
0010
0000
0001
0000
0010
0100
,
0001
1000
0010
1000
0001
0000
0100
0010
,
0001
1000
0100
1000
0001
0000
0010
0100
,
1000
0001
0100
0001
1000
0000
0010
0100
,
1000
0001
0100
0001
1000
0000
0010
0100
,
1000
0100
0010
0100
0010
0000
0001
0000
,
0000
0000
1000
0000
0100
0100
1000
0000
,
0000
0000
1000
0000
0010
0010
1000
0000
,
0001
0000
0100
0000
0001
0000
0100
0010
,
0001
0000
0010
0000
0001
0000
0010
0100
,
0001
0000
0100
0000
0001
0000
0100
0010
,
0001
0000
0010
0000
0001
0000
0010
0100
,
1000
0000
0010
0000
1000
0000
0010
0100
,
0001
0100
0010
1000
0010
0100
0010
0000
,
0001
1000
0010
1000
0001
0000
0100
0010
,
0001
1000
0100
1000
0001
0000
0010
0100
,
0001
1000
0010
1000
0001
0000
0100
0010
,
1000
0100
0010
0100
0010
0000
0001
0000
,
0000
0000
1000
0000
0100
0000
1000
0000
,
0000
0000
1000
0000
0100
0100
1000
0000
,
0001
0000
0100
0000
0001
0000
0100
0010
,
1000
0000
0010
1000
0100
0000
0010
0100
,
1000
0000
1001
0000
0000
0000
0110
0000
,
0001
0000
1001
0000
0000
0000
0110
0000
,
1000
0010
0100
0010
0100
0000
0011
0000
,
0001
0100
0010
1000
0010
0100
0010
0000
,
0001
0010
0100
1000
0100
0010
0100
0000
,
0001
0100
0010
1000
0010
0100
0010
0000
,
1000
0100
0010
0100
0010
0000
0001
0000
,
0001
1000
0010
1000
0001
0000
0100
0010
,
1000
0001
0100
0001
1000
0000
0010
0100
,
0001
1000
0010
1000
0001
0000
0100
0000
,
1100
0000
0100
1000
0100
0000
0010
0000
,
0011
0000
0010
0001
0010
0000
0100
0000
,
0101
0000
0001
0010
0100
0000
0010
0001
,
0001
1000
0010
1000
0001
0000
0100
0000
,
0101
0000
0001
0010
0100
0000
0010
0001
,
0001
1000
0010
1000
0001
0000
0100
0000
,
0101
0000
0001
0010
0100
0000
0010
0001
,
1000
0100
0010
0100
0010
0000
0001
0000
,
0001
0100
0000
0000
0001
0000
1000
0010
,
0001
0000
0100
0000
0001
0000
0100
0010
,
1000
0000
0001
0100
0010
0000
0000
0000
,
