#TITLE:Crocodile Cacophony!;
#SUBTITLE:;
#ARTIST:Dave Wise;
#TITLETRANSLIT:;
#SUBTITLETRANSLIT:;
#ARTISTTRANSLIT:;
#CREDIT:Nightime;
#BANNER:Crocodile Cacophony.png;
#BACKGROUND:Crocodile Cacophony-bg.jpg;
#LYRICSPATH:;
#CDTITLE:./CDTITLES/SNES.PNG;
#MUSIC:Crocodile Cacophony.mp3;
#OFFSET:-0.241;
#SAMPLESTART:32.910;
#SAMPLELENGTH:15.000;
#SELECTABLE:YES;
#DISPLAYBPM:235.000;
#BPMS:0.000=234.400;
#STOPS:;
#BGCHANGES:;

//---------------dance-single - ----------------
#NOTES:
     dance-single:
     :
     Easy:
     5:
     0.398,0.481,0.440,0.150,0.000: // measure 1
0000
0000
0000
0000
,  // measure 2
0000
0000
0000
0000
,  // measure 3
0000
0000
0000
0000
,  // measure 4
0000
0000
0000
0000
,  // measure 5
0010
0000
0000
0000
,  // measure 6
0000
0000
0000
0000
,  // measure 7
0000
0000
0000
0000
,  // measure 8
0000
0000
0000
0000
,  // measure 9
0010
0000
1001
0000
,  // measure 10
1000
0100
1001
0000
,  // measure 11
0010
0000
1001
0000
,  // measure 12
0001
0100
1001
0000
,  // measure 13
0010
0000
1001
0000
,  // measure 14
1000
0100
1100
0000
,  // measure 15
0010
0000
1001
0000
,  // measure 16
0001
0100
0101
0000
,  // measure 17
1000
0100
1000
0001
,  // measure 18
0100
0001
1000
1000
,  // measure 19
0001
0100
0001
1000
,  // measure 20
0100
1000
0001
0001
,  // measure 21
1000
0010
1000
0001
,  // measure 22
0010
0001
1000
1000
,  // measure 23
0001
0010
0001
1000
,  // measure 24
0010
1000
0001
0001
,  // measure 25
1000
0001
1000
0100
,  // measure 26
0010
0000
1001
0000
,  // measure 27
0001
1000
0001
0100
,  // measure 28
0010
0000
1001
0000
,  // measure 29
0001
0100
0001
0100
,  // measure 30
0010
0000
1001
0000
,  // measure 31
1000
0100
1000
0100
,  // measure 32
0010
0000
1001
0000
,  // measure 33
2000
0000
0100
0000
,  // measure 34
0010
0000
3000
0000
,  // measure 35
0200
0000
0010
0320
,  // measure 36
0100
0100
0130
0000
,  // measure 37
0002
0000
0100
0000
,  // measure 38
0010
0000
0003
0000
,  // measure 39
0020
0100
0230
0010
,  // measure 40
0310
0000
1001
0000
,  // measure 41
0010
0000
1000
0000
,  // measure 42
1100
0000
1100
0000
,  // measure 43
0010
0000
0001
1000
,  // measure 44
0001
1000
0001
0000
,  // measure 45
0010
0000
0001
0000
,  // measure 46
0101
0000
0101
0000
,  // measure 47
0010
0000
1000
0001
,  // measure 48
0000
0000
1000
0001
,  // measure 49
0010
0000
0001
1000
,  // measure 50
0000
0001
1000
0000
,  // measure 51
1000
0100
0010
0100
,  // measure 52
1000
0100
0010
0000
,  // measure 53
0001
0100
0010
0100
,  // measure 54
0001
0100
0010
0000
,  // measure 55
2002
0000
0000
3003
,  // measure 56
1000
0000
1000
0000
,  // measure 57
0202
0000
0000
0303
,  // measure 58
0001
0000
0001
0000
,  // measure 59
2200
0000
0000
3300
,  // measure 60
1000
0000
0001
0000
,  // measure 61
0220
0000
0000
0330
,  // measure 62
0000
0000
0000
0000
,  // measure 63
0010
0000
1001
0000
,  // measure 64
1000
0100
1001
0000
,  // measure 65
0010
0000
1001
0000
,  // measure 66
0001
0100
1001
0000
,  // measure 67
0010
0000
1001
0000
,  // measure 68
1000
0001
0101
0000
,  // measure 69
0010
0000
1001
0000
,  // measure 70
0001
1000
1100
0000
,  // measure 71
1000
0010
1000
0001
,  // measure 72
0010
0001
1001
1001
,  // measure 73
0001
0010
0001
1000
,  // measure 74
0010
1000
1001
1001
,  // measure 75
1000
0100
1000
0001
,  // measure 76
0100
0001
1001
1001
,  // measure 77
0001
0100
0001
1000
,  // measure 78
0100
1000
1001
1001
,  // measure 79
0010
0010
0010
0000
,  // measure 80
0000
1100
1001
0000
,  // measure 81
0010
0010
0010
0000
,  // measure 82
0000
0101
1001
0000
;

//---------------dance-single - ----------------
#NOTES:
     dance-single:
     :
     Medium:
     6:
     0.479,0.524,0.354,0.461,0.000: // measure 1
0000
0000
0000
0000
,  // measure 2
0000
0000
0000
0000
,  // measure 3
0000
0000
0000
0000
,  // measure 4
0000
0000
0000
0000
,  // measure 5
1001
0000
0000
0000
,  // measure 6
0000
0000
0000
0000
,  // measure 7
0010
0000
0000
0000
,  // measure 8
0000
0000
0000
0000
,  // measure 9
0001
0100
0001
0000
0010
0000
0100
0000
,  // measure 10
1000
0000
1001
0000
,  // measure 11
1000
0100
1000
0000
0010
0000
0100
0000
,  // measure 12
0001
0000
1001
0000
,  // measure 13
0001
0100
0001
0000
1000
0000
0100
0000
,  // measure 14
0010
0000
0011
0000
,  // measure 15
1000
0100
1000
0000
0001
0000
0100
0000
,  // measure 16
0010
0000
1010
0000
,  // measure 17
2000
0100
3100
0002
,  // measure 18
0100
0103
0020
1030
,  // measure 19
0002
0100
0103
2000
,  // measure 20
0100
3100
0020
0031
,  // measure 21
2000
0100
3100
0020
,  // measure 22
0100
0130
0002
1003
,  // measure 23
0002
0100
0103
0020
,  // measure 24
0100
0130
2000
3001
,  // measure 25
1000
0001
1000
0001
1000
0000
0000
0000
,  // measure 26
0000
0110
1001
0000
,  // measure 27
0001
1000
0001
1000
0001
0000
0000
0000
,  // measure 28
0000
0110
1001
0000
,  // measure 29
0001
0100
0001
0100
0001
0000
0000
0000
,  // measure 30
0000
1010
1001
0000
,  // measure 31
1000
0100
1000
0100
1000
0000
0000
0000
,  // measure 32
0000
0011
1001
0000
,  // measure 33
1100
0000
0010
0002
,  // measure 34
0010
0013
0000
0001
,  // measure 35
0100
0010
1000
0100
,  // measure 36
0010
0001
0011
0000
,  // measure 37
0101
0000
0010
2000
,  // measure 38
0010
3010
0000
0001
,  // measure 39
1000
0010
0100
0001
,  // measure 40
1000
1001
1001
1001
,  // measure 41
0000
0020
0000
1000
,  // measure 42
2000
0000
3030
0002
,  // measure 43
0100
0000
0010
0000
,  // measure 44
1000
1000
1003
0000
,  // measure 45
0000
0020
0000
0001
,  // measure 46
0002
0000
0033
2000
,  // measure 47
0100
0000
0010
0020
,  // measure 48
0000
0000
3030
0002
,  // measure 49
0100
0000
0010
0020
,  // measure 50
0000
0000
0033
0000
,  // measure 51
1000
0100
1000
0010
,  // measure 52
1000
0100
0110
0000
,  // measure 53
0001
0100
0001
0010
,  // measure 54
0001
0100
0110
0000
,  // measure 55
2002
0000
0000
0000
,  // measure 56
3003
0000
0000
0000
,  // measure 57
2020
0000
0000
3030
,  // measure 58
0000
0000
0000
0000
,  // measure 59
2002
0000
0000
3003
,  // measure 60
0000
0000
0000
0000
,  // measure 61
0022
0000
0000
0033
,  // measure 62
0000
0000
0000
0000
0000
0000
1000
0100
,  // measure 63
1000
0100
1000
0000
0001
0000
0010
0000
,  // measure 64
0100
0000
0000
0000
1001
0000
0001
0100
,  // measure 65
0001
0100
0001
0000
1000
0000
0010
0000
,  // measure 66
0100
0000
0000
0000
1001
0000
0100
0001
,  // measure 67
0100
0001
0100
0000
0010
0000
1000
0000
,  // measure 68
0100
0000
0000
0000
0011
0000
0100
1000
,  // measure 69
0100
1000
0100
0000
0010
0000
0001
0000
,  // measure 70
0100
0000
1010
0000
,  // measure 71
2000
0100
3100
0002
,  // measure 72
0100
0103
0020
1030
,  // measure 73
0002
0100
0103
2000
,  // measure 74
0100
3100
0020
0031
,  // measure 75
2000
0100
3100
0020
,  // measure 76
0100
0130
0002
1003
,  // measure 77
0002
0100
0103
0020
,  // measure 78
0100
0130
2000
3001
,  // measure 79
1000
0001
1000
0001
1000
0000
0000
0000
,  // measure 80
0000
0110
1001
0000
,  // measure 81
0001
1000
0001
1000
0001
0000
0000
0000
,  // measure 82
0000
0110
1001
0000
;

//---------------dance-single - ----------------
#NOTES:
     dance-single:
     :
     Hard:
     8:
     0.698,0.786,1.000,0.343,0.000: // measure 1
0000
0000
0000
0000
,  // measure 2
0000
0000
0000
0000
,  // measure 3
0000
0000
0000
0000
,  // measure 4
0000
0000
0000
0000
,  // measure 5
1001
0000
0000
0000
,  // measure 6
0000
0000
0000
0000
,  // measure 7
0100
0010
0000
0000
0000
0000
0000
0000
,  // measure 8
0000
0000
0000
0000
0000
0000
0001
0010
,  // measure 9
0100
1000
0010
0000
0101
0000
0010
1000
,  // measure 10
0010
0100
0000
0000
1001
0000
1000
0010
,  // measure 11
0100
0001
0010
0000
1100
0000
0010
0001
,  // measure 12
0010
0100
0000
0000
1001
0000
0001
0010
,  // measure 13
0100
1000
0010
0000
0101
0000
1000
0010
,  // measure 14
1000
0100
0000
0000
0011
0000
1000
0010
,  // measure 15
0100
0001
0010
0000
1100
0000
0001
0010
,  // measure 16
0001
0100
0000
0000
1010
0000
0000
0000
,  // measure 17
1100
1100
1001
0101
,  // measure 18
0101
0110
1001
0110
,  // measure 19
0011
0011
1001
1010
,  // measure 20
1010
0110
1001
0110
,  // measure 21
0101
0101
1001
1100
,  // measure 22
1100
0110
1001
0110
,  // measure 23
1010
1010
1001
0011
,  // measure 24
0011
0110
1001
0110
,  // measure 25
1000
0001
0100
0001
0020
0000
2000
0000
,  // measure 26
3000
0000
0130
1000
0010
0000
0000
0000
,  // measure 27
0001
1000
0100
1000
0020
0000
0002
0000
,  // measure 28
0003
0000
0130
0001
0010
0000
0000
0000
,  // measure 29
0001
1000
0100
0010
0100
0000
0002
0000
,  // measure 30
0000
0000
1003
0010
0011
0000
0000
0000
,  // measure 31
1000
0001
0100
0010
0100
0000
2000
0000
,  // measure 32
0000
0000
3001
0010
1010
0000
0000
0000
,  // measure 33
0001
1000
0001
0100
,  // measure 34
0010
0001
0010
0000
0000
0000
1000
0000
,  // measure 35
0001
0100
0010
1000
,  // measure 36
0100
0010
0100
0000
1001
0000
0000
0000
,  // measure 37
1000
0001
1000
0100
,  // measure 38
0010
1000
0010
0000
0000
0000
0001
0000
,  // measure 39
1000
0010
0100
1001
,  // measure 40
0110
0000
0010
0100
0010
0100
0010
0100
,  // measure 41
0010
2000
0100
0100
,  // measure 42
0001
0001
3002
0100
,  // measure 43
0203
0010
0320
1000
,  // measure 44
1000
1000
2030
0000
,  // measure 45
0000
0001
3002
0100
,  // measure 46
0100
1000
2003
0100
,  // measure 47
0100
3200
0010
0320
,  // measure 48
0001
0001
0032
0100
,  // measure 49
0203
0010
0010
0320
,  // measure 50
1000
1000
1030
0000
,  // measure 51
1000
0100
1000
0100
1000
0100
1000
0100
,  // measure 52
0010
0100
0010
0100
1000
0100
1000
0010
,  // measure 53
0100
0001
0100
0001
0100
0001
0100
0001
,  // measure 54
0100
0010
0100
0010
0100
0001
0100
0001
,  // measure 55
2002
0000
0000
3003
,  // measure 56
1010
0000
0000
0110
0000
0000
0101
0000
,  // measure 57
2002
0000
0000
3003
,  // measure 58
0011
0000
0000
0110
0000
0000
1100
0000
,  // measure 59
2000
0002
0000
0000
0000
0000
3003
0000
,  // measure 60
0021
0000
0000
1000
0000
0000
0031
0000
,  // measure 61
0200
0020
0000
0000
0000
0000
0330
0000
,  // measure 62
1020
0000
0000
0001
0000
0000
1030
0100
,  // measure 63
0010
0001
0100
0000
1010
0000
0001
0100
,  // measure 64
0001
0010
0000
0000
1100
0000
0001
0100
,  // measure 65
0010
1000
0100
0000
0011
0000
1000
0100
,  // measure 66
1000
0010
0000
0000
0101
0000
0010
1000
,  // measure 67
0001
0100
0010
0000
0011
0000
0010
1000
,  // measure 68
0100
0010
0000
1000
0010
0000
0010
0001
,  // measure 69
1000
0100
0010
0000
1010
0000
0010
0001
,  // measure 70
0100
0010
0000
0001
0010
0000
0000
0000
,  // measure 71
1010
1010
1001
1100
,  // measure 72
1100
0110
1001
0110
,  // measure 73
0011
0011
1001
0101
,  // measure 74
0101
0110
1001
0110
,  // measure 75
1010
0110
0011
0110
,  // measure 76
1010
1001
0110
1001
,  // measure 77
0101
0110
1100
0110
,  // measure 78
0101
0110
1001
0110
,  // measure 79
0001
0100
0001
0010
0200
0000
0002
0000
,  // measure 80
0003
0010
1300
0000
,  // measure 81
1000
0100
1000
0010
0200
0000
2000
0000
,  // measure 82
3000
0010
0301
0000
;
