#TITLE:Chrono Trigger;
#SUBTITLE:;
#ARTIST:SQUARE;
#TITLETRANSLIT:;
#SUBTITLETRANSLIT:;
#ARTISTTRANSLIT:;
#CREDIT:Nightime;
#BANNER:Chrono Trigger CD-TitleB.jpg;
#BACKGROUND:Chrono Trigger-bg.jpg;
#LYRICSPATH:;
#CDTITLE:./CDTITLES/SNES.PNG;
#MUSIC:Chrono Trigger.mp3;
#OFFSET:-1.317;
#SAMPLESTART:37.810;
#SAMPLELENGTH:15.000;
#SELECTABLE:YES;
#DISPLAYBPM:130.000;
#BPMS:0.000=130.000,248.000=125.000;
#STOPS:;
#BGCHANGES:0.000=Chrono_Trigger.avi=1.000=1=1=0,
99999=-nosongbg-=1.000=0=0=0 // don't automatically add -songbackground-
;

//---------------dance-single - ----------------
#NOTES:
     dance-single:
     :
     Easy:
     2:
     0.178,0.344,0.276,0.192,0.000:
0000
0000
0000
0000
,
0000
0000
0000
0000
,
0000
0000
0000
0000
,
0000
0000
0000
0000
,
0000
0000
0000
0000
,
0000
0000
0000
0000
,
0000
0000
0000
0000
,
0000
0000
0000
0000
,
1000
1000
1000
0000
,
1001
0000
0000
0000
,
0010
0000
0010
0000
,
0100
0000
0100
0000
,
0001
0001
0001
0000
,
1001
0000
0000
0000
,
0010
0000
0010
0000
,
0100
0000
0100
0000
,
1001
0000
0000
0000
,
1001
0000
0000
0000
,
0010
0010
0010
0000
,
1000
0000
1000
0000
,
1001
0000
0000
0000
,
1001
0000
0000
0000
,
0110
0000
0000
0110
,
0000
0000
1001
0000
,
0001
0001
0001
0000
,
1001
0000
0000
0000
,
0010
0000
0100
0000
,
0010
0000
0100
0000
,
1000
1000
1000
0000
,
1001
0000
0000
0000
,
0010
0000
0100
0000
,
0010
0000
0100
0000
,
1001
0000
0000
0000
,
2002
0000
0000
0000
,
0000
0000
0000
0000
,
3003
0000
0000
0000
,
1000
1000
0001
1000
,
0001
0001
1000
0001
,
1001
0000
0110
0000
,
1001
0000
0110
0000
,
2000
0000
0000
3000
,
0200
0000
0000
0300
,
0220
0000
0000
0330
,
0000
0000
0000
0000
,
0002
0000
0000
0003
,
0020
0000
0000
0030
,
2002
0000
0000
3003
,
0000
0000
0000
0000
,
0002
0000
0000
0003
,
0200
0000
0000
0300
,
0220
0000
0000
0330
,
0000
0000
0000
0000
,
2000
0000
0000
3000
,
0020
0000
0000
0030
,
1001
1001
1001
0000
,
1001
1001
1001
0000
,
1000
0001
1000
0001
,
2000
0000
0000
3000
,
0000
0001
0001
1000
,
0001
1000
1000
0000
,
2002
3003
0220
0000
,
0000
0330
0000
0000
,
1001
0110
1001
0110
,
2002
3003
0000
0000
;

//---------------dance-single - ----------------
#NOTES:
     dance-single:
     :
     Medium:
     4:
     0.287,0.342,0.217,0.351,0.000:
0000
0000
0000
0000
,
0000
0000
0000
0000
,
0000
0000
0000
0000
,
0000
0000
0000
0000
,
2000
0000
0000
3000
,
0002
0000
0000
0003
,
0020
0000
0000
0030
,
2002
0000
0000
3003
,
1000
0100
0001
0100
,
1000
0000
1001
0000
,
0010
1000
0001
0100
,
0010
0000
0000
0010
0000
0000
0000
0000
,
0001
0100
1000
0100
,
0001
0000
1001
0000
,
0010
0001
1000
0100
,
0010
0000
0000
0010
0000
0000
0000
0000
,
2200
0300
0002
3003
,
0202
0300
2000
3003
,
0010
0000
0010
0000
1000
0001
0000
0000
,
0010
0000
0000
0010
0000
0000
0000
0000
,
0002
0000
0020
0033
,
2000
0000
0020
3030
,
0100
0100
0000
0001
0001
0000
1000
1000
,
0000
0010
0010
0000
1001
0000
1001
0000
,
1000
0010
0001
0010
,
1000
0000
1001
0000
,
0001
0100
0010
1000
,
0001
0000
0000
0001
0000
0000
0000
0000
,
0001
0010
1000
0010
,
0001
0000
1001
0000
,
1000
0100
0010
0001
,
1000
0000
0000
1000
0000
0000
0000
0100
,
2000
0000
0020
3030
,
0002
0000
0000
0000
0020
0000
0033
0100
,
0000
0010
0000
2002
0000
3003
0000
0000
,
0110
0000
0000
1001
0000
0000
0000
0000
,
0022
0030
0200
0303
,
2020
0030
0200
3300
,
0010
0010
0000
1000
1000
0000
0001
0001
,
0000
0100
0100
0000
0010
0000
0010
0000
,
2001
0001
0010
0100
,
3002
1000
0010
0100
,
1000
1000
2000
0000
,
0000
0000
3003
0010
,
0220
0000
0330
0200
,
2000
3000
0020
0030
,
0002
0303
0000
0000
,
0000
0000
0010
0100
,
1002
1000
0100
0010
,
2003
0001
0100
0010
,
0001
0001
0002
0000
,
0000
0000
3003
0010
,
0220
0000
0330
0100
,
0010
0000
1001
0000
,
1000
1100
1100
0010
,
0001
0101
0101
0010
,
1000
0001
0100
0010
,
0010
0000
1001
0000
,
0001
0100
0001
0001
,
1000
0100
1000
1000
,
0010
0000
0010
0010
0020
0000
0000
0000
,
0030
0000
1010
0101
,
1000
1000
0100
0100
0010
0010
0001
0001
,
1000
0000
0000
0000
;

//---------------dance-single - ----------------
#NOTES:
     dance-single:
     :
     Hard:
     8:
     0.432,0.504,0.167,0.192,0.238:
0000
0000
0000
0000
,
0000
0000
0000
0000
,
0000
0000
0000
0000
,
0000
0000
0000
0000
,
0020
0000
0000
0030
,
2000
0000
0002
3003
,
0220
0000
0000
0330
,
0000
0000
0000
0000
0000
0000
0000
0001
,
0010
0000
0000
0001
0000
0000
1000
0000
0010
0000
0000
1000
0000
0000
0100
0000
,
0010
0000
0000
0000
0000
0000
1001
0000
0000
0000
0010
0100
0010
0100
0000
0000
,
1000
0000
0000
0010
0000
0000
0100
0000
0001
0000
0000
0000
0000
0000
0010
0000
,
0100
0000
0000
1001
0000
0000
0000
1000
,
0010
0000
0000
1000
0000
0000
0001
0000
0010
0000
0000
0001
0000
0000
0100
0000
,
0010
0000
0000
0000
0000
0000
1001
0000
0000
0000
0010
0100
0010
0100
0000
0000
,
0001
0000
0000
0010
0000
0000
0100
0000
1000
0000
0000
0000
0000
0000
0010
0000
,
0100
0000
0000
0000
0000
0000
1001
0000
0000
0000
0000
0000
0000
0000
0100
0010
,
0200
0000
2000
3000
,
0020
0000
0000
0000
0030
0000
0000
0000
0001
0000
0000
0010
0000
0000
1000
0000
,
0000
0000
0301
0000
0000
0000
0010
0100
0010
0000
0000
0000
0000
0000
1000
0000
,
0001
0000
0000
0000
0000
0000
0110
0000
0000
0000
0000
0000
0000
0000
0010
0100
,
0020
0000
0002
0003
,
0200
0300
2000
3030
,
0001
0100
0001
0000
0000
0000
1000
0100
1000
0000
0000
0000
0001
0010
0001
0000
,
0000
0000
1000
0010
1000
0000
0000
0000
1001
0000
0000
0000
0000
0000
0001
0000
,
0100
0000
0000
0001
0000
0000
1000
0000
0100
0000
0000
1000
0000
0000
0010
0000
,
0100
0000
0000
0000
0000
0000
1001
0000
0000
0000
1000
0100
1000
0100
0000
0000
,
0010
0000
0000
0001
0000
0000
0010
0000
0100
0000
0000
0000
0000
0000
0000
0000
,
1100
0000
0000
1001
0000
0000
0000
1000
,
0100
0000
0000
1000
0000
0000
0001
0000
0100
0000
0000
0001
0000
0000
0010
0000
,
0100
0000
0000
0000
0000
0000
1001
0000
0000
0000
0001
0100
0001
0100
0000
0000
,
0010
0000
0000
1000
0000
0000
0010
0000
0100
0000
0000
0000
0000
0000
0000
0000
,
0101
0000
0000
1001
0000
0000
0000
1000
,
0100
0010
0100
1000
0010
0001
0010
0100
,
1000
0100
0001
0010
0100
0010
0001
0100
,
0000
0010
0000
0100
1001
0000
0000
0001
,
0010
0000
0000
0000
0000
0000
1001
0000
0000
0000
0000
0000
0000
0000
1000
0010
,
2000
0000
0020
0030
,
3002
0000
0020
0033
,
1000
0100
1000
0000
0000
0000
0001
0010
0001
0000
0000
0000
1000
0010
1000
0000
,
0000
0000
0001
0100
0001
0000
0000
0000
0011
0000
0000
0110
0000
0000
0100
1000
,
0010
0100
0010
0001
0010
0100
0010
1000
,
0001
0010
0001
1000
0001
0100
0001
1000
,
0100
0010
0100
0001
0100
0010
0100
1000
,
0001
0100
0010
0100
0001
0010
0100
0010
,
0001
0100
0010
1000
0001
0100
0001
1000
,
0010
0100
0001
1000
0020
0000
0100
0000
,
0001
0100
1000
0100
,
0001
0000
0000
0000
0130
0000
0000
0000
1010
0000
0000
0110
0000
0000
0100
0001
,
0010
0100
0010
1000
0010
0100
0010
0001
,
1000
0010
1000
0001
1000
0100
1000
0001
,
0100
0010
0100
1000
0100
0010
0100
0001
,
1000
0100
0010
0100
1000
0010
0100
0010
,
1000
0100
0010
0001
1000
0010
1000
0001
,
0100
0010
1000
0001
0100
0010
1000
1001
,
1000
0000
0001
0010
0000
0010
0100
0000
1000
0000
0010
0000
0100
0000
0001
1000
,
0002
0000
0000
0010
0000
0000
1000
0000
1003
0000
0000
0000
0000
0000
1000
0001
,
2000
0000
0000
0010
0000
0000
0001
0000
0001
0000
0000
0000
0100
0000
3200
0000
,
0000
0000
0000
0000
0000
0300
0000
0000
,
0000
0000
0010
0100
0010
0100
0000
0000
1000
0000
0000
0010
0000
0100
0000
0001
,
0000
1000
0000
0000
0001
0000
0000
0010
0000
0000
0100
0000
0000
0000
1000
0000
,
0010
0000
0000
0100
0000
0000
0002
0000
2000
0000
0000
0000
0000
0000
0000
0000
,
0000
3000
0010
0103
,
0010
1000
0000
1000
0100
0000
0010
0001
0000
0001
0100
0000
0010
1000
0001
0100
,
0020
0000
0030
0000
;
