#TITLE:Blue Sky;
#SUBTITLE:Super Bonk;
#ARTIST:Nishizawa-Ueki-Samemura;
#TITLETRANSLIT:;
#SUBTITLETRANSLIT:;
#ARTISTTRANSLIT:;
#CREDIT:348;
#BANNER:;
#BACKGROUND:;
#LYRICSPATH:;
#CDTITLE:;
#MUSIC:Blue Sky.mp3;
#OFFSET:-0.021;
#SAMPLESTART:3.659;
#SAMPLELENGTH:14.500;
#SELECTABLE:YES;
#BPMS:0.000=131.900;
#STOPS:;
#BGCHANGES:;

//---------------dance-single - ----------------
#NOTES:
     dance-single:
     :
     Beginner:
     2:
     0.118,0.132,0.008,0.000,0.000:
0000
0000
0000
0000
,
0000
0000
0000
0000
,
1000
0000
1000
0000
,
1000
0000
0000
0000
,
1000
0000
1000
0000
,
1000
0000
0000
0000
,
0001
0000
0001
0000
,
0001
0000
0000
0000
,
0001
0000
0001
0000
,
0001
0000
0000
0000
,
0100
0000
0000
0000
,
0001
0000
0000
0000
,
1000
0000
0000
0000
,
0010
0000
0100
0100
,
0100
0000
0100
0000
,
0100
0000
0000
0000
,
0100
0000
0100
0000
,
0100
0000
0000
0000
,
0010
0000
0010
0000
,
0010
0000
0000
0000
,
0010
0000
0010
0000
,
0010
0000
0000
0000
,
1000
0000
0000
1000
,
0100
0000
0000
0100
,
0010
0000
0000
0010
,
0001
0000
0000
0001
,
1000
0000
0001
0000
,
1000
0000
0000
0000
,
0010
0000
0100
0000
,
0010
0000
0000
0000
,
1000
0000
0001
0000
,
1000
0000
0001
0000
,
0100
0000
0000
0000
,
0000
0000
0010
0010
,
0010
0000
0010
0000
,
0010
0000
0000
0000
,
0100
0000
0100
0000
,
0100
0000
0000
0000
,
0001
0000
0000
0000
,
0100
0000
0000
0000
,
0010
0000
0000
0000
,
1000
0000
0001
0001
,
0001
0000
0001
0000
,
0001
0000
0000
0000
,
1000
0000
1000
0000
,
1000
0000
0000
0000
,
0001
0000
0001
0000
,
0001
0000
0000
0000
,
1000
0000
1000
0000
,
1000
0000
0000
0000
,
0010
0000
0000
0010
,
1000
0000
0000
1000
,
0001
0000
0000
0001
,
0100
0000
0000
0100
,
0100
0000
0010
0000
,
0100
0000
0000
0000
,
0001
0000
1000
0000
,
0001
0000
0000
0000
,
0100
0000
0010
0000
,
0100
0000
0010
0000
,
1000
0000
0000
0000
,
0000
0000
0001
0001
,
0100
0000
0000
0000
,
1001
0000
0000
0000
;

//---------------dance-single - ----------------
#NOTES:
     dance-single:
     :
     Easy:
     4:
     0.269,0.267,0.243,0.176,0.000:
0000
0000
0000
0000
,
0000
0000
0000
0000
,
1000
0100
1000
0100
,
1000
0000
0110
0000
,
0001
0010
0001
0010
,
0001
0000
0110
0000
,
0100
0010
0100
0010
,
0100
0000
1001
0000
,
0010
0100
0010
0100
,
0010
0000
1001
0000
,
0200
0300
0010
0010
,
2000
3000
0001
0001
,
0002
0003
1000
1000
,
0020
0030
0100
0100
,
0011
0000
1000
0001
,
1000
0100
0010
0001
,
1100
0000
0001
1000
,
0001
0010
0100
1000
,
0101
0000
0010
0100
,
0010
1000
0001
0100
,
1010
0000
0100
0010
,
0100
0001
1000
0010
,
2000
0000
3001
0000
,
0020
0000
0130
0000
,
0200
0000
0310
0000
,
0002
0000
1003
0000
,
0020
0030
0200
0300
,
0002
0003
2000
3000
,
0001
0000
1000
0000
,
0001
1000
0001
1000
,
0011
0000
1100
0000
,
1010
0000
0101
0000
,
0010
0100
0010
0100
,
0010
0000
1001
0110
,
1000
0100
1000
0000
,
0001
0010
0001
1100
,
0010
1000
0010
0000
,
0100
0001
0100
0011
,
2000
0000
3100
0000
,
0002
0000
0013
0000
,
0200
0000
0301
0000
,
0020
0000
1030
0001
,
1001
0000
0100
0000
,
0010
1000
0010
1000
,
0101
0000
1000
0000
,
0001
0010
0001
0010
,
1010
0000
0001
0000
,
1000
0100
1000
0100
,
1001
0000
0010
0000
,
0100
0001
0100
0001
,
1000
0100
1000
0000
,
0020
0000
0130
0000
,
0001
0010
0001
0000
,
2000
0000
3001
0000
,
0100
0010
1000
0001
,
0110
0000
0110
0000
,
2000
0000
3001
0000
,
0002
0000
1003
0000
,
0011
0000
0101
0000
,
1010
0000
1100
0000
,
1001
0000
0100
0010
,
0100
0000
1001
0110
,
1000
0100
0010
0001
,
2000
0000
0000
3000
;

//---------------dance-single - ----------------
#NOTES:
     dance-single:
     :
     Medium:
     6:
     0.387,0.401,0.243,0.193,0.017:
0000
0000
0000
0000
,
0000
0000
0000
0000
,
1000
0000
0001
0100
0001
0000
1000
0000
,
0010
0100
0001
1010
,
0001
0000
1000
0010
1000
0000
0001
0000
,
0100
0010
1000
0101
,
0010
0000
0100
0001
0100
0000
0010
0000
,
1000
0001
0100
0011
,
0100
0000
0010
1000
0010
0000
0100
0000
,
0001
1000
0010
1100
,
0002
1000
1000
1003
,
0200
0010
0010
0310
,
0020
0100
0100
0130
,
2000
0001
0001
3001
,
1001
0000
0100
0000
0010
1000
0010
0000
,
0100
0001
2000
3010
,
0110
0000
1000
0000
0001
1000
0001
0000
,
1000
0010
0200
0301
,
0110
0000
0001
0000
1000
0001
1000
0000
,
0001
0100
0020
1030
,
1001
0000
0010
0000
0100
0001
0100
0000
,
0010
1000
0002
0103
,
1000
0000
0000
0000
0101
0000
0000
0000
1000
0000
0000
1000
0000
0000
1000
0000
,
0100
0000
0011
0000
0100
0001
0100
0000
,
0001
0000
0000
0000
1010
0000
0000
0000
0001
0000
0000
0001
0000
0000
0001
0000
,
0010
0000
1100
0000
0010
1000
0010
0000
,
2000
0000
3100
0000
0010
0001
0010
0000
,
0001
0100
0001
1000
,
0002
0000
0013
0000
0100
1000
0100
0000
,
1000
0010
1000
0001
,
0200
0310
0002
1003
,
2000
3001
0200
0310
,
1000
0000
0001
0100
0001
0000
1000
0010
,
0000
0100
0000
0001
0000
1000
0001
0000
,
1000
0000
0001
0000
0000
0100
0010
0000
,
1000
0000
0010
0000
0100
0001
0100
0000
,
0001
0000
1000
0000
0000
0010
0100
0000
,
0001
0000
0100
0000
0010
1000
0010
0000
,
2000
0100
0100
3100
,
0200
0010
0010
0310
,
0020
0001
0001
0031
,
0002
1000
1000
1003
,
1001
0110
1000
0001
,
1000
0000
0010
0100
0010
0000
1000
0000
,
0110
1001
0010
0100
,
0010
0000
1000
0100
1000
0000
0010
0000
,
0101
1010
0001
1000
,
0001
0000
0100
0010
0100
0000
0001
0000
,
1100
0011
0100
0010
,
0100
0000
0001
0010
0001
0000
0100
0000
,
0001
0000
0000
0000
1100
0000
0000
0000
0010
0000
0000
0010
0000
0000
0010
0000
,
1000
0000
0001
0100
0000
0100
0001
0000
,
1000
0000
0000
0000
0011
0000
0000
0000
0100
0000
0000
0100
0000
0000
0100
0000
,
0001
0000
1000
0010
0000
0010
1000
0000
,
0002
0010
0100
1003
,
2000
0100
0010
3001
,
0100
0010
1000
0001
,
1000
0001
0100
0010
,
0200
0001
0010
0301
,
0020
1000
0100
1030
,
1001
0000
0110
0000
1001
0000
0000
0110
,
0000
1001
0000
0110
0000
1000
0001
0000
,
1000
0010
0100
1001
,
0200
0000
0000
0300
;

//---------------dance-single - ----------------
#NOTES:
     dance-single:
     :
     Hard:
     8:
     0.519,0.507,0.511,0.360,0.067:
0000
0000
0000
0000
,
0000
0000
0000
0000
,
0001
0000
1000
0100
1000
0000
0001
1000
,
0001
0010
0001
0010
0100
1000
0100
0000
,
1000
0000
0001
0010
0001
0000
1000
0001
,
1000
0100
1000
0100
0010
0001
0010
0000
,
0100
0000
0010
1000
0010
0000
0100
0010
,
0100
0010
0100
0010
1000
0001
1000
0000
,
0010
0000
0100
0001
0100
0000
0010
0100
,
0010
0100
0010
0100
0001
1000
0001
0000
,
1000
0100
1000
0000
0001
0010
0001
0000
,
1000
0010
1000
0000
0001
0100
0001
0000
,
1000
0001
1000
0000
0001
1000
0001
0000
,
0100
0010
0100
0000
1001
0000
0110
0000
,
1001
0000
0010
0100
0010
0000
1000
0100
,
1000
0000
0001
0100
0001
0000
0110
0000
,
1001
0000
0100
0010
0100
0000
0001
0010
,
0001
0000
1000
0010
1000
0000
0110
0000
,
0110
0000
0001
1000
0001
0000
0100
0001
,
0100
0000
0010
1000
0010
0000
1001
0000
,
0110
0000
1000
0001
1000
0000
0100
1000
,
0100
0000
0010
0001
0010
0000
1001
0000
,
0100
0000
0000
0010
0000
0000
1001
0000
0000
0020
0000
0000
0130
0000
0000
0000
,
1000
0000
0000
0001
0000
0000
0110
0000
0000
0002
0000
0000
1003
0000
0000
0000
,
0001
0000
0000
1000
0000
0000
0110
0000
0000
2000
0000
0000
3001
0000
0000
0000
,
0010
0000
0000
0100
0000
0000
1001
0000
0000
0200
0000
0000
0301
0000
0000
0000
,
2000
3020
0230
0302
,
2003
0000
3002
2000
0003
3002
2000
0003
,
3020
0000
2030
0002
0003
3001
0000
0220
,
0030
0320
2030
3002
,
0203
0302
2003
3020
,
1030
0100
0010
0000
0001
0010
0100
1000
,
0000
0011
0000
1010
0000
1001
0000
0101
,
0000
1100
0000
0001
1000
0010
0100
0000
,
1001
0000
0010
0000
1000
0100
1000
0000
,
0001
0010
0100
1000
0001
0010
0100
0000
,
1001
0000
0100
0000
0001
0010
0001
0000
,
1000
0100
0010
0001
1000
0100
0010
0000
,
0001
0100
0010
1000
0010
0100
0001
0000
,
1000
0100
0010
0001
0010
0100
1000
0000
,
0001
0010
1000
0010
0001
1000
0001
0000
,
1000
0001
0100
0001
1000
0000
0110
0000
,
1001
0000
1100
0000
0011
0000
1000
0100
,
0001
0100
1000
0000
0101
0000
1010
0000
,
0110
0000
0011
0000
0101
0000
0010
1000
,
0010
0001
0010
0000
1100
0000
1010
0000
,
1001
0000
0011
0000
1010
0000
0001
0010
,
1000
0010
0001
0000
1100
0000
0101
0000
,
0110
0000
1100
0000
0011
0000
0100
0001
,
0100
1000
0100
0000
1010
0000
0101
0000
,
1000
0000
0000
0010
0000
0000
1100
0000
0000
0020
0000
0000
1030
0000
0000
0000
,
0001
0000
0000
0100
0000
0000
0011
0000
0000
0200
0000
0000
0301
0000
0000
0000
,
0100
0000
0000
0001
0000
0000
1010
0000
0000
0002
0000
0000
0103
0000
0000
0000
,
0010
0000
0000
1000
0000
0000
0101
0000
0000
2000
0000
0000
3010
0000
0000
0000
,
0100
0001
0200
0000
0320
0000
2030
0000
,
3010
0100
0020
0000
0230
0000
0302
0000
,
1003
0000
0000
0011
0000
1100
0000
2002
,
0000
3003
0110
0000
1010
0000
0101
0000
,
2000
3200
0302
0203
,
1300
0100
0010
0001
0010
0100
1000
0001
,
0000
0110
0000
1010
0000
0101
0000
0110
,
0000
1001
0000
0010
1000
0001
0100
0000
,
0010
1100
0010
0101
,
2002
0000
0000
3003
;

//---------------dance-single - ----------------
#NOTES:
     dance-single:
     :
     Challenge:
     9:
     0.632,0.614,0.519,0.235,0.214: // measure 1
0000
0000
0000
0000
,  // measure 2
0000
0000
0000
0000
,  // measure 3
0110
0000
0000
0000
0001
0000
0010
0000
0100
0000
0000
1000
0001
0000
0100
0000
,  // measure 4
1000
0100
0001
0010
1000
0010
0001
0000
,  // measure 5
0110
0000
0000
0000
1000
0000
0100
0000
0010
0000
0000
0001
1000
0000
0100
0000
,  // measure 6
0001
0100
1000
0100
0010
0001
0110
0000
,  // measure 7
1001
0000
0000
0000
0100
0000
0010
0000
1000
0000
0000
0001
0100
0000
0010
0000
,  // measure 8
0100
0001
1000
0010
0100
0010
0100
0000
,  // measure 9
1001
0000
0000
0000
0010
0000
0100
0000
0001
0000
0000
1000
0010
0000
0100
0000
,  // measure 10
0010
1000
0001
1000
0010
0100
1001
0000
,  // measure 11
0100
0000
0010
0000
1000
0000
0001
0000
1000
0000
0001
0010
0001
0000
1000
0000
,  // measure 12
0001
0000
0010
0000
0100
0000
1000
0000
0001
0000
1000
0100
1000
0000
0001
0000
,  // measure 13
1000
0000
0100
0000
0001
0000
0100
0000
1000
0000
0010
0100
0010
0000
1000
0000
,  // measure 14
0001
0000
0100
0010
0100
0000
0001
0000
1000
0000
0000
0000
0110
0000
0000
0000
,  // measure 15
0101
0000
0000
1000
0020
0000
1000
0000
1030
0000
0000
0100
0002
0000
0100
0000
,  // measure 16
1003
0010
0100
0001
1000
0100
0010
0001
,  // measure 17
1010
0000
0000
0001
0200
0000
0001
0000
0301
0000
0000
0010
2000
0000
0010
0000
,  // measure 18
3010
0100
0001
1000
0001
0100
0010
0000
,  // measure 19
1100
0000
0000
0001
0020
0000
0001
0000
0031
0000
0000
0100
2000
0000
0100
0000
,  // measure 20
3001
0010
0100
1000
0001
0100
0010
1000
,  // measure 21
0011
0000
0000
1000
0200
0000
1000
0000
1300
0000
0000
0010
0002
0000
0010
0000
,  // measure 22
0103
0010
1000
0001
1000
0010
0100
0000
,  // measure 23
0011
0000
0000
1010
0000
0000
1001
0000
0000
0100
0010
0000
1001
0000
0000
0000
,  // measure 24
1100
0000
0000
0101
0000
0000
0110
0000
0000
1000
0001
0000
0110
0000
0001
0000
,  // measure 25
1100
0000
0000
1010
0000
0000
1001
0000
0000
0010
0100
0000
1001
0000
0000
0000
,  // measure 26
0101
0000
0000
0011
0000
0000
0110
0000
0000
0001
1000
0000
0110
0000
1000
0000
,  // measure 27
0002
0010
0013
0000
0200
0010
0310
0000
,  // measure 28
0002
0010
0100
1000
0010
0100
1003
0000
,  // measure 29
2000
0100
3100
0000
0020
0100
0130
0000
,  // measure 30
2000
0010
0100
0001
0010
0100
3001
0000
,  // measure 31
0010
0100
1001
0000
0100
0010
1001
0000
,  // measure 32
0100
0010
0001
1100
0001
0010
0100
0011
,  // measure 33
2000
0000
3001
0100
0002
0000
0013
0001
,  // measure 34
1000
0100
0001
0100
1000
0001
0110
0000
,  // measure 35
1000
0100
2000
0000
3001
0100
0010
1000
,  // measure 36
0100
0010
0002
0000
0103
0010
1000
0001
,  // measure 37
0100
0010
1000
0001
1000
0010
1000
0000
,  // measure 38
0011
0000
0000
0000
1100
0000
0000
0001
1000
0000
0010
0000
0100
0000
0000
0000
,  // measure 39
0001
0000
0010
0000
1000
0000
0010
0000
0001
0000
1000
0010
1000
0000
0001
0000
,  // measure 40
1000
0000
0100
0000
0001
0000
0100
0000
1000
0000
0001
0100
0001
0000
1000
0000
,  // measure 41
0010
0000
0100
0000
0010
0000
1000
0000
0001
0000
1000
0001
1000
0000
0010
0000
,  // measure 42
0100
0000
0001
1000
0001
0000
0100
0000
0010
0000
0000
0000
1001
0000
0000
0000
,  // measure 43
0100
0000
0000
0001
0000
0000
1000
0000
0000
0000
0000
0010
0100
0000
0000
0001
0000
0000
1000
0000
0000
0010
0000
0000
,  // measure 44
0100
0000
0000
0000
0000
0000
0001
0000
0000
0000
0000
0000
1000
0000
0000
0000
0000
0000
0000
0000
0000
0000
0100
0000
0010
0000
0000
0000
0000
0000
0001
0000
0000
0000
0000
0000
0010
0000
0000
0100
0000
0000
0000
0000
0000
0000
0000
0000
,  // measure 45
1000
0000
0000
0001
0000
0000
0100
0000
0000
0000
0000
0001
1000
0000
0000
0100
0000
0000
1000
0000
0000
0010
0000
0000
,  // measure 46
1000
0000
0001
0000
1000
0100
0000
0010
0001
0000
0100
0000
1001
0000
0000
0000
,  // measure 47
0100
0000
0100
0000
0001
0000
0000
0001
0100
0000
0100
0000
0001
0000
0000
0000
,  // measure 48
1000
0100
0000
0000
0001
0100
0000
0000
1000
0010
0000
0000
0001
0010
0000
0000
,  // measure 49
0100
0000
0100
0000
0001
0000
0000
0001
0100
0000
0100
0000
0001
0000
0000
0000
,  // measure 50
1000
0000
0001
0000
0100
0001
0000
1000
0010
0000
1000
0000
0001
0000
0000
0000
,  // measure 51
0110
0000
0000
1001
0000
0000
1100
0000
0000
0001
0100
0000
1010
0000
0100
0000
,  // measure 52
1001
0000
0000
0110
0000
0000
0011
0000
0000
1000
0010
0000
0101
0000
0000
0000
,  // measure 53
0110
0000
0000
1001
0000
0000
0101
0000
0000
1000
0100
0000
0011
0000
0100
0000
,  // measure 54
1001
0000
0000
0110
0000
0000
1010
0000
0000
0001
0010
0000
1100
0000
0000
0000
,  // measure 55
0020
0100
0130
0000
2000
0100
3100
0000
,  // measure 56
0020
0100
1000
0100
0001
0100
1030
0000
,  // measure 57
0200
0010
0310
0000
0002
0010
0013
0000
,  // measure 58
0200
0010
0001
0010
1000
0010
0301
0000
,  // measure 59
1000
0001
0110
0000
0001
1000
0110
0000
,  // measure 60
1000
0001
0100
1010
0001
1000
0010
0101
,  // measure 61
0020
0000
0130
0001
0200
0000
0310
1000
,  // measure 62
0010
0100
0010
0001
0010
1000
0110
0000
,  // measure 63
1010
0101
0011
1100
,  // measure 64
2002
0000
0000
3003
;

//---------------dance-single - ----------------
#NOTES:
     dance-single:
     :
     Edit:
     10:
     0.733,0.668,0.352,0.327,0.536: // measure 1
0000
0000
0000
0000
,  // measure 2
0000
0000
0000
0000
,  // measure 3
1001
0000
0000
0010
0100
0000
0010
0000
0100
0000
0001
1000
0001
0000
0100
0000
,  // measure 4
0001
0010
1000
0010
0001
0010
0100
1000
,  // measure 5
0110
0000
0000
1000
0001
0000
0100
0000
0010
0000
1000
0001
1000
0000
0010
0000
,  // measure 6
1000
0000
0100
0000
0001
0000
0100
0000
1000
0001
1000
0000
0110
0000
0000
0000
,  // measure 7
0110
0000
0000
0001
0010
0000
0100
0000
1000
0000
0010
0100
0010
0000
1000
0000
,  // measure 8
0001
0100
1000
0100
0001
1000
0010
0100
,  // measure 9
1001
0000
0000
0100
0010
0000
1000
0000
0001
0000
0100
0010
0100
0000
0001
0000
,  // measure 10
1000
0000
0010
0000
0001
0000
0010
0000
0100
0010
0100
0000
1001
0000
0000
0000
,  // measure 11
0110
0000
1000
0100
1000
0000
0100
0010
0100
0000
0010
0001
0010
0000
0000
0000
,  // measure 12
1001
0000
0100
1000
0100
0000
0000
1000
0001
0000
0100
0000
1001
0000
0000
0000
,  // measure 13
0110
0000
1000
0001
1000
0000
0001
0010
0000
0100
1000
0000
0110
0000
0000
0000
,  // measure 14
1000
0100
1000
0100
0010
0001
0010
0001
1000
0000
0000
0000
0110
0000
0000
0000
,  // measure 15
1000
0000
0001
0010
0001
0000
1000
0000
0001
0000
1000
0100
1000
0000
0001
0000
,  // measure 16
0100
0000
0010
0000
1000
0100
0000
0100
1000
0000
0001
0000
1000
0000
0010
0000
,  // measure 17
0100
0000
0010
1000
0010
0000
0100
0000
0010
0000
0100
0001
0100
0000
0010
0000
,  // measure 18
1000
0000
0001
0000
0100
0001
0000
0001
0100
0000
0001
0000
1100
0000
0000
0000
,  // measure 19
0010
0000
0100
0001
0100
0000
0010
0000
0100
0000
0010
1000
0010
0000
0100
0000
,  // measure 20
0001
0000
1000
0000
0010
1000
0000
1000
0010
0000
1000
0000
0100
0000
0010
0000
,  // measure 21
0001
0000
0100
0001
0100
0000
0001
0000
1000
0000
0010
1000
0010
0000
1000
0000
,  // measure 22
0010
0000
0100
0000
0001
0010
0000
0010
0001
0000
1000
0000
0011
0000
0000
0000
,  // measure 23
1000
0100
0000
0100
0010
0000
0010
0001
0000
0001
2000
0000
0001
0000
3001
0000
,  // measure 24
0001
0010
0000
0010
0100
0000
0100
1000
0000
1000
0002
0000
1000
0000
1003
0000
,  // measure 25
1000
0010
0000
0010
0100
0000
0100
0001
0000
0001
0020
0000
0001
0000
0031
0000
,  // measure 26
0001
0100
0000
0100
0010
0000
0010
1000
0000
1000
0200
0000
1300
0001
1000
0001
,  // measure 27
1000
0000
0001
0100
0001
0000
1000
0000
0010
0100
0000
0100
0020
0000
0100
0000
,  // measure 28
0230
0000
0000
0000
0302
0000
2000
0000
0003
3000
0001
2000
0002
0000
3000
0000
,  // measure 29
0103
0000
0001
0010
0100
0000
0020
0000
0000
0000
0031
0000
0000
0000
2100
0000
,  // measure 30
0000
0000
3001
0010
0200
0000
0000
0000
2300
0000
0000
0000
3002
0000
0000
0000
,  // measure 31
1003
0000
0010
0100
0020
0000
0000
0000
0130
0000
0010
0100
0002
0000
0000
0000
,  // measure 32
1003
0000
0100
0010
0001
0000
1000
0000
0001
0000
0010
0100
1000
0000
0001
0000
,  // measure 33
1000
0001
0110
0000
0001
1000
0110
0000
,  // measure 34
1000
0100
0010
0001
0110
1001
0110
0000
,  // measure 35
1000
0000
0001
0000
0100
0010
0000
1000
0001
0000
1000
0000
0001
0000
1000
0000
,  // measure 36
0001
0000
1000
0000
0010
0100
0000
0001
1000
0000
0001
0000
0101
0000
0001
0000
,  // measure 37
0100
0000
0010
0000
1000
0010
0000
1000
0010
0000
0100
0000
0010
0000
0100
0000
,  // measure 38
0001
0000
0100
0000
0001
0100
0000
0001
0100
0000
0010
0000
1010
0000
0000
0000
,  // measure 39
0110
0000
0001
0010
0001
0000
0010
0100
0010
0000
0100
1000
0100
0000
0000
0000
,  // measure 40
1001
0000
0010
0001
0010
0000
0000
0001
1000
0000
0010
0000
1001
0000
0000
0000
,  // measure 41
0110
0000
0001
1000
0001
0000
1000
0010
0000
0100
0001
0000
0110
0000
0000
0000
,  // measure 42
0001
0100
0001
0100
0010
1000
0010
1000
0001
0000
0000
0000
0110
0000
0000
0000
,  // measure 43
1000
0000
0001
0100
0001
0000
0100
0000
0010
1000
0010
0000
0200
0000
0000
0000
,  // measure 44
0301
0000
0010
0000
0100
0000
1000
0000
0001
0100
0010
0000
1000
0000
0001
0000
,  // measure 45
1000
0000
0001
0010
0001
0000
0010
0000
0100
1000
0100
0000
2000
0000
0000
0000
,  // measure 46
3001
0000
0100
0000
0010
1000
0010
1000
0010
0000
0100
0000
1010
0000
0000
0000
,  // measure 47
0001
0000
1000
0010
1000
0000
0010
0000
0100
0001
0100
0000
0020
0000
0000
0000
,  // measure 48
1030
0000
0100
0000
0010
0000
0001
0000
1000
0010
0100
0000
0001
0000
1000
0000
,  // measure 49
0001
0000
1000
0100
1000
0000
0100
0000
0010
0001
0010
0000
0002
0000
0000
0000
,  // measure 50
1003
0000
0010
0000
0100
0001
0100
0001
0100
0000
0010
0000
0101
0000
0000
0000
,  // measure 51
0010
0001
0000
0001
0100
0000
0010
1000
0000
1000
0200
0000
0010
0000
0310
0000
,  // measure 52
0100
1000
0000
1000
0010
0000
0100
0001
0000
0001
0020
0000
0100
0000
0130
0000
,  // measure 53
0100
1000
0000
1000
0001
0000
0001
0010
0000
0010
0002
0000
0010
0000
0013
0000
,  // measure 54
0010
0001
0000
0001
1000
0000
1000
0100
0000
0100
1000
0000
0010
0100
0010
0100
,  // measure 55
0010
0000
1000
0001
1000
0000
0010
0000
1000
0001
0000
0001
2000
0000
0001
0000
,  // measure 56
3002
0000
0000
0000
0203
0000
0020
0000
0300
0030
0100
0020
0200
0000
0030
0000
,  // measure 57
0301
0000
1000
0100
0010
0000
0200
0000
0000
0000
1300
0000
0000
0000
0012
0000
,  // measure 58
0000
0000
1003
0100
0020
0000
0000
0000
0032
0000
0000
0000
2003
0000
0000
0000
,  // measure 59
3010
0000
1000
0001
2000
0000
0000
0000
3001
0000
1000
0001
0200
0000
0000
0000
,  // measure 60
0310
0000
0100
0010
1000
0000
0001
0000
0100
0000
0010
0100
0001
0000
1000
0000
,  // measure 61
0010
0100
1001
0000
0100
0010
1001
0000
,  // measure 62
0100
0001
1000
0010
1001
0110
1001
0000
,  // measure 63
0011
0000
0110
0110
0110
0000
1100
0000
,  // measure 64
2002
0000
0000
3003
;
