#TITLE:Aquatic Ambience;
#SUBTITLE:Donkey Kong Country;
#ARTIST:David Wise;
#TITLETRANSLIT:;
#SUBTITLETRANSLIT:;
#ARTISTTRANSLIT:;
#CREDIT:Pandemonium X;
#BANNER:bn.png;
#BACKGROUND:bg.png;
#LYRICSPATH:;
#CDTITLE:;
#MUSIC:Aquatic Ambience.mp3;
#OFFSET:-0.240;
#SAMPLESTART:83.400;
#SAMPLELENGTH:12.000;
#SELECTABLE:YES;
#BPMS:0.000=75.000;
#STOPS:;
#BGCHANGES:;

//---------------dance-single - ----------------
#NOTES:
     dance-single:
     :
     Hard:
     9:
     0.494,0.519,0.070,0.243,0.705:
0000
0000
0000
0000
,
0000
0000
0000
0000
,
0010
1000
0001
0100
0001
0001
0100
0100
0001
0100
0010
1000
0010
0010
1000
1000
,
0010
1000
0100
1000
0010
0010
1000
1000
0010
1000
0100
1000
0010
1000
0001
0200
,
0000
0000
0000
0000
,
0000
0000
0300
0000
,
0010
1000
0010
1000
0010
0100
0010
0100
0010
1000
0010
1000
1000
0100
1000
0100
,
0010
0001
0010
0001
0100
0001
0100
0001
0100
0010
0100
0010
1000
0010
1000
0010
,
1000
0100
0010
0001
0100
0100
0001
0001
0100
0001
1000
0010
0100
0100
0010
0100
,
0010
1000
0100
0010
0001
0001
1000
1000
0100
0010
1000
0100
0010
0001
1000
0100
,
1000
0001
0100
0001
1000
0100
1000
0001
0100
0010
1000
0100
0010
0001
0010
0100
,
1000
0010
0100
0001
0010
0100
1000
0010
0100
0001
1000
0010
1000
0100
1000
0010
,
0100
0100
0010
0010
0100
0010
0100
0010
0100
0001
1000
0100
0010
0001
0010
0010
,
0001
0010
0100
1000
0010
0100
0001
1000
0010
1000
0100
0010
0001
0010
0100
1000
,
1001
0000
0001
0100
0010
0000
0010
0010
0000
0010
1000
0010
0210
0000
0010
0310
,
0100
0000
0010
1000
0002
0000
0010
0013
0001
0000
0001
0100
0020
0000
0100
0130
,
0010
0000
1000
0001
0100
0000
0010
2000
0200
0000
0000
0000
3300
0000
1100
0011
,
0001
0000
0001
0100
0020
0000
0100
0130
0010
0000
0010
1000
0002
0000
0010
0013
,
0011
0000
0001
0100
0010
0000
0010
0100
1000
0001
0100
0001
0010
0001
0100
0001
,
0010
0000
0000
0000
0000
0000
0000
0000
0011
0000
0000
0000
0000
0000
0000
0000
1100
0000
0000
0000
0000
0000
0000
0000
1000
0000
0000
0000
0001
0000
0000
0000
0100
0000
0000
0000
0010
0000
0000
0000
1000
0000
0000
0000
0001
0000
0000
0000
0100
0000
0000
0000
0010
0000
0000
0000
0100
0000
0000
0000
0000
0000
0000
1000
,
0100
0000
0000
0010
0001
0000
0000
0001
0100
0000
0000
0010
0100
0000
0000
1000
0001
0000
0000
0100
0010
0000
0000
1000
0100
0000
0000
0001
0010
0000
0000
0000
0000
0000
0000
0000
0000
0000
0000
0000
0000
0000
0000
0000
0000
0000
0000
0000
0000
0000
0000
0000
0000
0000
0000
0000
0001
0000
0000
0000
0001
0000
0000
0000
,
1000
0000
0100
0000
1000
0000
0001
0100
0010
0000
0100
0000
0110
0000
0010
1000
,
0001
0010
0100
0010
0001
0010
0100
1000
0100
0010
0001
0010
0100
1000
0100
0010
,
0100
1000
0100
0010
0001
0010
0100
1000
0001
0100
0010
1000
0001
0100
0010
1000
,
0100
0000
1000
0001
0200
0000
0010
0310
0100
0000
0010
1000
0002
0000
0010
0013
,
0001
0000
0000
0000
0000
0000
0001
0000
0000
0100
0000
0000
0010
0000
0000
0000
0000
0000
0001
0000
0000
0000
0000
0000
0001
0000
1000
0000
0001
0000
1000
0000
0001
0000
0010
0000
0100
0000
0010
0000
0001
0000
0010
0000
0100
0000
1000
0000
,
0002
0000
0003
0000
0002
0000
1000
2000
0000
0000
0000
0000
3003
0000
0000
0000
,
0000
0000
1000
0001
2000
0000
0100
0100
0000
0000
0100
0100
0000
0000
3200
0000
,
0000
0000
0000
0000
2300
0000
0010
0020
0000
0000
3000
0000
0000
0000
0000
0000
,
0030
0000
0000
0000
0200
0000
0010
0020
0000
0000
0000
0000
0330
0000
0000
0000
,
1010
0000
0000
0000
0020
0000
1000
2000
0000
0000
0000
0000
3030
0000
0000
0000
,
0000
0000
0100
0001
0020
0000
0001
0001
0000
0000
0001
0002
0030
0000
1003
0000
,
0020
0000
0000
0000
0100
0000
0100
0230
0000
0000
0000
0000
0310
0000
0001
0002
,
0000
0000
0000
0000
0100
0000
0100
0200
0000
0000
0000
0000
0000
0000
0303
0000
,
0000
0000
0001
0100
0020
0000
0100
0100
0000
0000
0100
0200
0000
0000
0330
0000
,
0000
0000
0010
2000
0100
0000
0100
0100
0000
0000
0100
0100
0000
0000
0100
0000
,
3100
1000
0001
0010
0001
0100
0010
1000
0001
0000
0000
0000
0000
0000
0001
1000
,
0100
1000
0001
0010
0001
0100
0010
1000
0010
0010
1000
0010
1000
0000
0001
0000
,
0020
0100
0000
0000
,
0030
0000
0000
0000
;

//---------------dance-single - ----------------
#NOTES:
     dance-single:
     :
     Medium:
     6:
     0.323,0.443,0.070,0.133,0.243:
0000
0000
0000
0000
,
0000
0000
0000
0000
,
1000
1000
0001
0001
1000
0001
1000
0001
,
0100
0100
0010
0010
0100
0010
0100
0020
,
0000
0000
0000
0000
,
0000
0000
0000
0000
0000
0000
0000
0000
0000
0000
0000
0030
0000
0000
0000
0000
,
1000
0010
1000
0010
0100
0010
0100
0010
,
0100
0001
0100
0001
0010
0001
0010
0001
,
0100
0010
1000
1000
0010
0100
0001
0001
,
0100
0010
1000
1000
0010
0100
0001
0001
,
1000
0001
1000
0001
0100
0001
0001
0010
,
0001
0010
0100
1000
0010
0100
0001
0100
,
0002
0100
0100
0103
0002
0010
0010
0013
,
0020
0100
0100
0130
0200
1000
1000
1300
,
1100
0000
1000
0100
1000
0000
0100
0000
1000
0000
0010
0000
1010
0000
0000
0000
,
0010
0000
1000
0000
1010
0000
0010
0100
0010
0000
0010
0000
0010
0000
0000
0000
,
1010
0000
0100
0000
0010
0000
1000
0100
1000
0000
0010
0000
1000
0000
1000
0010
,
1000
0000
0100
0000
1100
0000
1000
0010
1000
0000
0010
0000
1010
0000
0000
0000
,
1000
0000
0010
0000
0100
0000
0010
1000
0001
0100
0010
1000
0001
0100
0010
1000
,
0010
0000
0100
0000
0110
0000
0010
0100
0001
1000
0010
0100
0001
0100
0010
0000
,
1000
1000
0010
0010
1000
1000
0010
0000
0000
0000
0000
0000
0000
0000
0010
1000
,
0001
0000
0000
0000
0000
0000
0001
1000
0100
0000
0000
0000
0000
0000
0001
1000
,
0010
1000
0010
1000
0010
1000
0010
0000
0001
0100
0001
0100
0001
0100
0001
0000
,
0010
0001
0010
0001
0010
0001
0010
0000
0100
1000
0100
1000
0100
1000
0100
0000
,
1000
1000
0000
0000
0001
0000
0000
1000
0000
0000
0000
0000
0000
0000
0000
0000
,
0010
0010
0000
0000
0100
0000
0000
0010
0000
0000
0000
0000
0000
0000
0000
0000
,
1001
0000
0000
0000
1000
0000
0001
0200
0000
0000
0000
0000
0300
0000
0000
0000
,
0000
0000
0100
0010
0100
0000
0010
0100
0000
0000
0010
1000
0000
0000
0001
0000
,
0000
0000
0000
0000
1000
0000
0002
2000
0000
0000
0000
0000
3003
0000
0000
0000
,
0000
0000
0000
0000
1001
0000
0001
0200
0000
0000
0000
0000
0300
0000
0000
0000
,
0000
0000
0000
0000
0010
0000
0010
0200
0000
0000
0000
0000
0300
0000
0000
0000
,
0000
0000
0001
0100
0001
0000
0100
0010
0000
0000
0010
1000
0000
0000
0010
0000
,
2000
0000
0000
0000
3010
0000
0010
2000
0000
0000
0000
0000
3001
0000
0001
2000
,
0000
0000
0000
0000
3001
0000
0100
0002
0000
0000
0000
0000
0003
0000
0000
0000
,
0000
0000
0100
0010
0100
0000
0010
1000
0000
0000
1000
0100
0000
0000
0000
0000
,
0000
0000
0100
1000
0010
0000
0010
1000
0000
0000
0010
0100
0000
0000
0002
0000
,
2000
0000
3003
0000
,
1000
0001
1000
0001
1000
0001
1000
0001
1000
0000
0001
0000
0100
0000
0010
1000
,
0002
0000
0000
0000
0000
0000
0100
0100
0000
0000
0000
0000
0000
0000
1000
1000
,
0003
0000
0000
0000
;

//---------------dance-single - ----------------
#NOTES:
     dance-single:
     :
     Easy:
     1:
     0.097,0.135,0.008,0.086,0.000:
0000
0000
0000
0000
,
0000
0000
0000
0000
,
2000
0000
0000
0000
,
0000
0000
0000
0000
,
3000
0000
0000
0000
,
0000
0000
0000
0000
,
0010
0000
0010
0000
,
0010
0000
0010
0000
,
1000
0000
0001
0000
,
0100
0000
0010
0000
,
1000
0000
0001
0000
,
0100
0000
0010
0000
,
1000
0000
1000
0000
,
0001
0000
0001
0000
,
1001
0001
0100
0000
,
0001
1000
0100
0000
,
0100
1000
0010
0000
,
0100
0001
0010
0000
,
0001
0000
1000
0000
,
0001
1000
0100
0000
,
1000
1000
0000
0000
,
0000
0000
0000
0000
,
0001
0100
0001
0100
,
0001
0100
0001
0100
,
0010
0000
0000
0000
,
0010
1000
0200
0000
,
1300
0002
0103
0000
,
0000
0010
1000
0100
,
1000
0020
0000
0000
,
0030
0200
0000
0300
,
0000
0002
0000
0000
,
0003
1000
0001
0100
,
0020
2000
3030
2000
,
3000
2000
3000
0000
,
0000
0001
1000
0100
,
0000
1000
0010
0100
,
0010
0000
0000
0000
,
1000
0000
0000
0000
,
0002
1003
0000
0000
;

//---------------dance-double - ----------------
#NOTES:
     dance-double:
     :
     Challenge:
     8:
     0.356,0.494,0.078,0.251,0.309: // measure 1
00000000
00000000
00000000
00000000
,  // measure 2
00000000
00000000
00000000
00000000
,  // measure 3
10000000
01000000
10000000
01000000
00100000
00010000
00100000
00010000
,  // measure 4
00100000
00001000
00100000
00001000
00010000
00000100
00010000
00000100
,  // measure 5
00000000
00000000
00000000
00000000
,  // measure 6
00000000
00000000
00000000
00000000
,  // measure 7
00001000
00000100
00001000
00000100
00000010
00000001
00000010
00000001
,  // measure 8
00000100
00000001
00000100
00000001
00001000
00000001
00001000
00001000
,  // measure 9
00000100
00010000
00001000
00010000
00001000
00100000
00010000
01000000
,  // measure 10
00100000
10000000
01000000
00100000
00001000
00010000
00000100
00001000
,  // measure 11
00000010
00000100
00000001
00000010
00000100
00001000
00000100
00010000
,  // measure 12
00001000
00010000
00001000
00010000
00000100
00010000
00001000
00010000
,  // measure 13
00000100
00001000
00000100
00001000
00000010
00000100
00000001
00000100
,  // measure 14
00000010
00000100
00000010
00001000
00000001
00000010
00000100
00010000
,  // measure 15
00101000
00000000
00101000
00000000
00101000
00000000
00200000
00002000
00000000
00000000
00000000
00000000
00303000
00000000
00010000
01000000
,  // measure 16
00100000
00000000
01000000
00000000
00100000
00000000
10000000
02000000
00000000
00000000
00000000
00000000
03000000
00000000
10000000
00010000
,  // measure 17
02000000
00000000
00010000
00000000
00010000
00000000
03010000
00200000
00000000
00000000
00000000
00000000
00000000
00000000
00001000
00001000
,  // measure 18
00302000
00000000
00000000
00000000
00000000
00000000
00010000
00010000
00023000
00000000
00000000
00000000
00000000
00000000
00031000
00010000
,  // measure 19
00000100
00000000
00001000
00000000
00001100
00000000
00000001
00000010
00000100
00000001
00000100
00000010
00001000
00000100
00010000
00001000
,  // measure 20
00010000
00000000
00001000
00000000
00011000
00000000
00010000
00100000
01000000
00100000
10000000
00010000
01000000
00010000
00100000
00000000
,  // measure 21
20000000
32000000
03200000
00320000
00230000
00302000
00023000
00030200
00000000
00000000
00000000
00000000
00000000
00000000
00010000
00010000
,  // measure 22
00000000
00000000
00000000
00000000
00000000
00000000
00010000
00010000
00000000
00000000
00000000
00000000
00000000
00000000
00010000
00010300
,  // measure 23
00001000
00010000
00001000
00100000
00010000
00100000
00010000
01000000
00100000
10000000
01000000
00100000
00010000
01000000
00100000
10000000
,  // measure 24
01000000
00100000
00001000
00010000
00000010
00000100
00000001
00000100
00000010
00001000
00000100
00010000
00001000
01000000
00100000
10000000
,  // measure 25
00010000
00000000
00010000
01000000
00020000
00000000
01000000
01030000
00000000
00000000
00000000
00000000
00000000
00000000
10000000
00010000
,  // measure 26
10010000
00000000
00000000
00000000
00000000
00000000
01100000
00000000
00000000
00000000
00000000
00000000
10000000
01000000
00100000
00010000
00000010
00000100
00000001
00001000
00000100
00010000
00001000
00100000
,  // measure 27
00010000
00000000
00000000
00000000
10000000
00000000
02000000
20000000
00000000
00000000
00000000
00000000
33000000
00000000
00000000
00000000
,  // measure 28
00000000
00000000
01000000
00010000
00200000
00000000
00310000
00100000
00000000
00000000
00010000
00001000
00000000
00000000
00110000
00000000
,  // measure 29
00000000
00000000
00000000
00000000
00100000
00000000
00020000
00000200
00000000
00000000
00000000
00000000
00030300
00000000
00000000
00000000
,  // measure 30
00011000
00000000
00000000
00000000
00001000
00000000
00000001
00000200
00000000
00000000
00000000
00000000
00000000
00000000
00000000
00000000
,  // measure 31
00000301
00000000
00000000
00000000
00000010
00000000
00000001
00000200
00000000
00000000
00000000
00000000
00000310
00000000
00000000
00000000
,  // measure 32
00000000
00000000
00000010
00000100
00000010
00000000
00001000
00000100
00000000
00000000
00000100
00010000
00000000
00000000
00002000
00000000
,  // measure 33
00013000
00000000
00000000
00000000
00002000
00000000
01000000
01000000
00000000
00000000
00000000
00000000
00103000
00000000
00010000
01000000
,  // measure 34
00000000
00000000
00000000
00000000
00100000
00000000
20000000
02000000
00000000
00000000
00000000
00000000
00000000
00000000
33000000
00000000
,  // measure 35
00000000
00000000
00100000
00001000
00020000
00000000
00001000
00001000
00000000
00000000
00001000
00002000
00000000
00000000
00033000
00000000
,  // measure 36
00000000
00000000
00001000
00000010
00000200
00000000
00000010
00000010
00000000
00000000
00000010
00000310
00000000
00000000
00000010
00000000
,  // measure 37
00000001
00000010
00000100
00001000
00000100
00010000
00001000
00010000
00000000
00000000
00000000
00000000
00000000
00000000
00000000
00000000
,  // measure 38
00010000
00001000
00100000
00001000
00010000
00000100
00001000
00000010
00000000
00000000
00000000
00000000
00000000
00000000
00000100
00001000
,  // measure 39
00002200
00003300
00000000
00000000
;

//---------------dance-single - ----------------
#NOTES:
     dance-single:
     :
     Beginner:
     1:
     0.037,0.059,0.016,0.000,0.000:
0000
0000
0000
0000
,
0000
0000
0000
0000
,
0010
0000
0000
0000
,
0000
0000
0000
0000
,
0010
0000
0000
0000
,
0000
0000
0000
0000
,
1000
0000
0000
0000
,
0000
0000
0000
0000
,
0001
0000
0000
0000
,
0000
0000
0000
0000
,
0010
0000
0000
0000
,
0000
0000
0000
0000
,
0100
0000
0000
0000
,
0000
0000
0000
0000
,
0001
0000
0000
0000
,
1000
0000
0000
0000
,
0010
0000
0000
0000
,
0100
0000
0000
0000
,
0010
0000
0000
0000
,
1000
0000
0000
0000
,
0001
0000
0000
0000
,
1000
0000
0000
0000
,
0010
0000
0000
0000
,
0010
0000
0000
0000
,
0100
0000
0000
0000
,
1000
0000
0000
0000
,
1001
0000
0000
0000
,
0001
0000
0000
0000
,
1000
0000
0000
0000
,
0010
0000
0000
0000
,
0110
0000
0000
0000
,
0100
0000
0000
0000
,
0010
0000
0000
0000
,
1000
0000
0000
0000
,
0001
0000
0000
0000
,
1000
0000
0000
0000
,
0010
0000
0000
0000
,
0100
0000
0000
0000
,
0001
0000
0000
0000
;
