#TITLE:まもりたい;
#SUBTITLE:~White Wishes~;
#ARTIST:BoA;
#TITLETRANSLIT:mamoritai;
#SUBTITLETRANSLIT:;
#ARTISTTRANSLIT:;
#GENRE:;
#CREDIT:;
#BANNER:mamoritai ~White Wishes~.png;
#BACKGROUND:Mamoritai ~White Wishes~-bg.png;
#LYRICSPATH:;
#CDTITLE:CDTitle.png;
#MUSIC:Mamoritai ~White Wishes~.ogg;
#OFFSET:-2.222000;
#SAMPLESTART:57.220001;
#SAMPLELENGTH:17.780001;
#SELECTABLE:YES;
#BPMS:0.000000=107.995003
,208.000000=79.995003
,210.000000=59.994999
,211.000000=38.875000
;
#STOPS:
;
#BGCHANGES:15.918=Mamoritai ~White Wishes~.avi=1.000=0=0=1=====,
212.000=Mamoritai ~White Wishes~-bg2.png=1.000=1=0=1===CrossFade==,
99999=-nosongbg-=1.000=0=0=0 // don't automatically add -songbackground-
;
#KEYSOUNDS:;
#ATTACKS:;

//---------------dance-single - ----------------
#NOTES:
     dance-single:
     :
     Hard:
     6:
     0.359294,0.392917,0.093150,0.318264,0.042694,324.000000,312.000000,12.000000,41.000000,0.000000,0.000000,0.359294,0.392917,0.093150,0.318264,0.042694,324.000000,312.000000,12.000000,41.000000,0.000000,0.000000:
// measure 0
0000
0000
0000
0000
,  // measure 1
0000
0000
0000
0000
,  // measure 2
0000
0000
0000
0000
,  // measure 3
0000
0000
0000
0000
,  // measure 4
1000
0001
0100
0020
0000
0130
0000
0001
,  // measure 5
1000
0100
1000
0002
0000
1003
0000
0001
,  // measure 6
0010
0100
0010
0002
0000
0103
0000
0010
,  // measure 7
1000
0100
1000
0100
0010
0001
1001
0000
,  // measure 8
0000
1000
0100
0010
0000
0010
0001
0100
,  // measure 9
0000
0100
0010
1000
0100
0001
0100
1000
,  // measure 10
0002
0000
1003
0200
0000
1300
0010
0200
,  // measure 11
0000
0302
0010
0003
0100
1000
0002
0000
,  // measure 12
0103
0010
1000
0100
0000
0100
1000
0010
,  // measure 13
0000
0010
1000
0100
0001
0100
0010
0001
,  // measure 14
0100
0001
0010
0002
0000
0000
1003
1000
,  // measure 15
0010
1000
0010
1000
0001
0100
0110
0000
,  // measure 16
0100
0000
0001
0010
0001
0000
0010
0001
0010
0000
0001
0000
0100
0000
0020
0000
,  // measure 17
0000
1030
0000
0200
0000
0310
0000
0100
,  // measure 18
1000
0010
0001
0010
1000
0100
0010
0100
,  // measure 19
1000
0001
0100
0010
0100
0010
0110
0000
,  // measure 20
0010
0000
0100
0001
0100
0000
0001
0100
0001
0000
0100
0000
0010
0000
2000
0000
,  // measure 21
0000
3010
1000
0200
0000
0310
0000
0100
,  // measure 22
1000
0010
0001
0010
1000
0100
0010
0001
,  // measure 23
0100
0010
0100
0010
1000
0001
1001
0000
,  // measure 24
0220
0000
0000
0000
0330
0000
0001
0100
,  // measure 25
2000
0000
3100
0002
0000
0013
1000
0020
,  // measure 26
0000
0031
0000
2000
0000
3010
0000
0100
,  // measure 27
0001
0010
0001
0010
0100
1000
0100
1000
,  // measure 28
0001
0100
0010
1000
0100
0000
0010
0001
,  // measure 29
0012
0000
1000
1003
0000
0001
0100
0010
,  // measure 30
1000
0010
0100
0001
0010
0200
1000
1300
,  // measure 31
0010
0001
0010
1000
0100
0001
0100
1000
,  // measure 32
0100
0010
0001
0100
0010
1000
1001
0000
,  // measure 33
2010
0000
0000
0001
0000
0000
3001
0000
0200
0000
0000
0310
0000
0000
0000
0000
,  // measure 34
2000
0000
0000
0100
0000
0000
3100
0000
0020
0000
0000
0031
0000
0000
0000
0000
,  // measure 35
1000
0000
0000
0010
0000
0000
0001
0000
1000
0000
0000
0100
0000
0000
0001
0000
,  // measure 36
2000
0000
3001
0010
0200
0000
1300
0000
,  // measure 37
0000
0000
0000
0000
0001
0000
0100
0000
0010
0000
0000
1000
0000
0000
1001
0000
,  // measure 38
0000
1000
0001
0010
0200
0000
0310
0001
,  // measure 39
0200
0000
0320
0000
1030
0001
0200
0000
,  // measure 40
0002
0000
0000
0000
0303
0000
0010
0100
,  // measure 41
1001
0001
1000
0100
0000
0010
0001
0100
,  // measure 42
1000
0100
0001
0020
0000
0031
0000
1000
,  // measure 43
0001
0100
0001
0100
1000
0100
1000
0100
,  // measure 44
0001
0010
0100
1000
0010
0000
0110
0010
,  // measure 45
1020
0000
1030
0100
0000
0010
0100
1000
,  // measure 46
0001
1000
0001
1000
0010
0100
0000
0001
,  // measure 47
0010
1000
0010
1000
0010
0001
0010
0001
,  // measure 48
0200
0000
0320
0000
1030
0100
1000
1000
,  // measure 49
0001
0010
0100
0020
0000
0031
0100
1000
,  // measure 50
0200
0000
0001
0302
0000
0013
0001
0100
,  // measure 51
0020
0000
0000
0000
1030
0100
1000
0001
,  // measure 52
0100
1000
0100
1000
0100
0000
0001
0000
,  // measure 53
0020
0000
0000
0000
0000
0000
0000
0000
0000
0030
0000
0000
0000
0000
0000
0000
0000
0000
0000
0000
0000
0000
0000
0000
0000
0000
0000
0000
0000
0000
0000
0000
;

//---------------dance-single - ----------------
#NOTES:
     dance-single:
     :
     Medium:
     4:
     0.256163,0.277122,0.007763,0.302739,0.003881,231.000000,230.000000,1.000000,39.000000,0.000000,0.000000,0.256163,0.277122,0.007763,0.302739,0.003881,231.000000,230.000000,1.000000,39.000000,0.000000,0.000000:
// measure 0
0000
0000
0000
0000
,  // measure 1
0000
0000
0000
0000
,  // measure 2
0000
0000
0000
0000
,  // measure 3
0000
0000
0000
0000
,  // measure 4
1000
0001
1000
0001
0000
0100
0000
0000
,  // measure 5
0010
0100
0010
0100
0000
0001
0000
0000
,  // measure 6
1000
0100
1000
0100
0000
0010
0000
0001
,  // measure 7
0000
0100
0010
1000
,  // measure 8
0000
0001
0010
0001
0000
0010
0001
0010
,  // measure 9
0000
0100
0000
1000
0010
1000
0010
0000
,  // measure 10
0100
0000
0001
0000
1000
0100
1000
0000
,  // measure 11
0010
0000
1000
0000
0001
0010
0100
0000
,  // measure 12
0000
0010
0001
0010
0000
0001
0010
0001
,  // measure 13
0000
0100
0010
0100
0010
1000
0010
1000
,  // measure 14
0100
0000
0010
0000
0001
1000
0100
0000
,  // measure 15
1000
0001
0100
0000
0010
1000
0001
0000
,  // measure 16
0000
0001
0001
1000
1000
0001
0100
0020
,  // measure 17
0000
0130
0000
0200
0000
0301
0000
0001
,  // measure 18
0001
0000
0010
0000
0100
1000
0001
0000
,  // measure 19
0100
0010
1000
0000
0100
0010
0001
0000
,  // measure 20
0000
1000
1000
0001
0001
1000
0100
2000
,  // measure 21
0000
3010
0000
0020
0000
0130
0000
0010
,  // measure 22
0010
0000
0100
0000
0001
1000
0001
0000
,  // measure 23
0100
0000
0010
0000
1000
0001
1000
0000
,  // measure 24
2002
0000
0000
0000
3003
0000
0100
0001
,  // measure 25
0200
0000
0001
0301
0000
1000
0100
2000
,  // measure 26
0000
3010
0000
0200
0000
0301
0000
1000
,  // measure 27
0001
1000
0001
1000
0000
0001
0010
0002
,  // measure 28
0000
0023
0000
0032
0000
0003
0100
0010
,  // measure 29
0200
0000
0010
0310
0000
1000
0100
2000
,  // measure 30
0000
3010
0000
0200
0000
0301
0000
0010
,  // measure 31
0100
0010
0100
0020
0000
0031
1000
0002
,  // measure 32
2000
0000
0000
3003
,  // measure 33
0001
0000
0001
0000
0100
0010
1000
0000
,  // measure 34
0100
0000
0100
0000
0010
0001
0100
0000
,  // measure 35
0010
1000
0100
0000
0010
0001
0100
0000
,  // measure 36
0002
0010
0200
0000
,  // measure 37
0303
0000
0000
0000
1000
0000
0001
0000
0100
0000
0000
0100
0000
0000
0020
0000
,  // measure 38
0000
0030
0100
0010
0200
0000
0301
0010
,  // measure 39
0002
2000
0000
0000
,  // measure 40
3003
0000
0000
0000
0000
0000
0010
1000
,  // measure 41
0020
0000
1000
1030
0000
0001
0010
0002
,  // measure 42
0000
0103
0000
0020
0000
1030
0000
0001
,  // measure 43
1000
0001
1000
0001
0000
1000
0100
2000
,  // measure 44
0000
3200
0000
2300
0000
3000
0010
0100
,  // measure 45
0020
0000
0100
0130
0000
0001
0010
0002
,  // measure 46
0000
0103
0000
0020
0000
1030
0000
0100
,  // measure 47
0010
0100
0010
0200
0000
1300
0001
2000
,  // measure 48
0002
0000
0000
0000
0000
0000
3003
0001
,  // measure 49
0100
0010
0100
0020
0000
1030
0001
2000
,  // measure 50
0002
0000
0000
0000
,  // measure 51
3003
0000
0000
0000
;

//---------------dance-single - ----------------
#NOTES:
     dance-single:
     :
     Easy:
     2:
     0.164122,0.217739,0.038813,0.155251,0.000000,148.000000,143.000000,5.000000,20.000000,0.000000,0.000000,0.164122,0.217739,0.038813,0.155251,0.000000,148.000000,143.000000,5.000000,20.000000,0.000000,0.000000:
// measure 0
0000
0000
0000
0000
,  // measure 1
0000
0000
0000
0000
,  // measure 2
0000
0000
0000
0000
,  // measure 3
0000
0000
0000
0000
,  // measure 4
1000
0001
0100
0001
,  // measure 5
1000
0100
0010
0001
,  // measure 6
1000
0010
1000
0100
,  // measure 7
1000
0010
0100
0001
,  // measure 8
0000
1000
0000
0001
,  // measure 9
0000
0100
0010
0010
,  // measure 10
1000
0010
0100
0010
,  // measure 11
0200
0002
0000
0303
,  // measure 12
0000
0001
0000
1000
,  // measure 13
0000
0010
1000
0100
,  // measure 14
0010
0001
1000
0010
,  // measure 15
0220
0000
0000
0330
,  // measure 16
0000
1000
1000
1000
,  // measure 17
0000
0001
0001
0001
,  // measure 18
0100
0010
1000
0010
,  // measure 19
0010
1000
0002
0003
,  // measure 20
0000
1000
1000
1000
,  // measure 21
0000
0001
0001
0001
,  // measure 22
0010
0001
0100
0020
,  // measure 23
0200
0000
0000
0000
,  // measure 24
0330
0000
0000
0001
,  // measure 25
1001
1000
0000
0001
,  // measure 26
1001
1000
0001
0100
,  // measure 27
0110
0010
0100
0001
,  // measure 28
0010
0100
2000
0001
,  // measure 29
3001
0100
0010
0100
,  // measure 30
0001
0010
0001
0010
,  // measure 31
0100
1000
0001
0100
,  // measure 32
0020
0000
0000
0030
,  // measure 33
1000
0000
0001
0001
,  // measure 34
1000
0000
0010
0010
,  // measure 35
0100
0010
0100
0001
,  // measure 36
2000
0000
0200
0000
,  // measure 37
3300
0100
0010
0002
,  // measure 38
0003
0100
0010
1000
,  // measure 39
0002
0020
0000
0000
,  // measure 40
0033
0000
0000
0001
,  // measure 41
1002
1003
0000
0001
,  // measure 42
0100
0010
0100
0001
,  // measure 43
1000
1000
0100
0100
,  // measure 44
0010
0001
0200
0010
,  // measure 45
0310
0100
0000
0001
,  // measure 46
1000
0100
1000
0001
,  // measure 47
0100
0010
1000
0200
,  // measure 48
0020
0000
0330
0000
,  // measure 49
0010
0001
0100
0020
,  // measure 50
0200
0000
0000
0000
,  // measure 51
0330
0000
0000
0000
;
