#TITLE:Sweet Impact;
#SUBTITLE:;
#ARTIST:BoA;
#TITLETRANSLIT:;
#SUBTITLETRANSLIT:;
#ARTISTTRANSLIT:;
#GENRE:;
#CREDIT:;
#BANNER:Sweet Impact.png;
#BACKGROUND:Sweet Impact-bg.PNG;
#LYRICSPATH:;
#CDTITLE:CDTitle.png;
#MUSIC:Sweet Impact.ogg;
#OFFSET:-0.555000;
#SAMPLESTART:49.348999;
#SAMPLELENGTH:17.860001;
#SELECTABLE:YES;
#BPMS:0.000000=107.000000
;
#STOPS:
;
#BGCHANGES:14.833=Sweet Impact.avi=1.000=1=0=1===CrossFade==,
212.000=Sweet Impact-bg.png=1.000=1=0=1===CrossFade==,
99999=-nosongbg-=1.000=0=0=0 // don't automatically add -songbackground-
;
#KEYSOUNDS:;
#ATTACKS:;

//---------------dance-single - ----------------
#NOTES:
     dance-single:
     :
     Medium:
     5:
     0.363177,0.396804,0.227286,0.387228,0.016836,302.000000,275.000000,27.000000,46.000000,0.000000,0.000000,0.363177,0.396804,0.227286,0.387228,0.016836,302.000000,275.000000,27.000000,46.000000,0.000000,0.000000:
// measure 0
0000
0000
0000
0000
,  // measure 1
0000
0000
0000
0000
,  // measure 2
0000
0000
0000
0000
,  // measure 3
0000
0000
0000
0000
0000
0000
1000
0001
,  // measure 4
0010
0000
0001
1000
0010
0000
1000
0100
,  // measure 5
1000
0100
1000
0020
0030
0100
0001
0100
,  // measure 6
0002
0000
0000
0013
0000
0000
0200
0000
0000
0000
0000
0300
0000
0000
1000
0000
,  // measure 7
1001
0000
0110
0000
1000
0001
0100
0010
,  // measure 8
0200
0000
0301
1000
0100
1000
0010
0000
,  // measure 9
0110
0110
0000
1001
1001
0000
1000
0001
,  // measure 10
0100
0000
0010
1000
0100
1000
0100
2000
,  // measure 11
0000
3001
0100
0000
0110
0000
0010
0100
,  // measure 12
0001
0000
0010
0001
0100
0001
0100
0020
,  // measure 13
0000
1030
0100
0000
0010
0000
0001
0100
,  // measure 14
2000
0000
3020
0000
0031
0000
0010
0100
,  // measure 15
0100
1000
0001
2000
0000
0000
3100
0000
,  // measure 16
0010
0001
0100
0010
2000
0000
3100
0000
,  // measure 17
0001
0100
1000
0010
0001
0000
0010
1000
,  // measure 18
0002
0000
0023
0000
0130
1000
0100
1000
,  // measure 19
0002
0000
0203
0000
0310
1000
0010
1000
,  // measure 20
0002
0000
0023
0000
1030
0100
0010
0000
,  // measure 21
1001
1001
0000
0110
0110
0000
0100
0010
,  // measure 22
2001
0000
3001
1000
0100
0000
1000
0001
,  // measure 23
0100
0010
0100
0001
0000
0010
0001
0010
,  // measure 24
0002
0000
0203
0000
0320
0000
1030
0200
,  // measure 25
0000
1300
1000
0001
1000
0000
0001
1000
,  // measure 26
0020
0000
1030
0001
1000
0000
1000
0100
,  // measure 27
1000
0100
0010
0001
0000
0100
0010
1000
,  // measure 28
0002
0000
0023
0000
0130
1000
0001
0000
,  // measure 29
0101
0000
1010
0000
0100
0001
1000
1000
,  // measure 30
0200
0000
0000
0300
,  // measure 31
1001
0000
0000
0000
0000
0000
0000
0000
0000
0000
0000
0000
0000
0000
0000
0010
0000
0000
0000
0000
1001
0000
0000
0000
,  // measure 32
0200
0000
0000
0000
0000
0000
0001
0000
0000
0000
0000
0000
0310
0000
0000
0010
0000
0000
0000
0000
0110
0000
0000
0000
,  // measure 33
2000
0000
0000
0000
0000
0000
0100
0000
0000
0000
0000
0000
3010
0000
0000
0010
0000
0000
0000
0000
1001
0000
0000
0000
,  // measure 34
0101
0110
1010
2002
,  // measure 35
3003
0000
1000
0001
2001
0000
3001
0010
,  // measure 36
0100
0000
1000
0001
0100
0100
0001
1000
,  // measure 37
0000
0010
1000
0100
2000
0000
3020
0000
,  // measure 38
0230
0000
0001
0302
0000
1003
0001
1000
,  // measure 39
0001
0000
0001
0100
0020
0000
1030
0100
,  // measure 40
1000
0000
1000
0010
0100
0001
0010
0001
,  // measure 41
0000
0100
0010
1000
2000
0000
3002
0000
,  // measure 42
1003
0100
0010
0000
1001
0000
0110
0000
,  // measure 43
0001
1000
0100
1000
0010
0000
0100
0001
,  // measure 44
0010
0000
1000
0010
0001
1000
0100
0001
,  // measure 45
0000
0001
0100
0010
0002
0000
2003
0000
,  // measure 46
3200
0000
0310
0020
0000
0031
0100
0001
,  // measure 47
0001
0000
0001
1000
0010
0000
0100
0001
,  // measure 48
0010
0000
0010
0001
0100
1000
0100
0002
,  // measure 49
0000
1003
0100
1000
0200
0000
0320
0000
,  // measure 50
0031
0100
0010
0000
0110
0000
1001
0000
,  // measure 51
1000
0100
1000
0100
0002
0000
0013
1000
,  // measure 52
0002
0000
0000
0003
0000
0000
0000
0000
;

//---------------dance-single - ----------------
#NOTES:
     dance-single:
     :
     Easy:
     3:
     0.209248,0.264536,0.134688,0.134688,0.000000,174.000000,158.000000,16.000000,16.000000,0.000000,0.000000,0.209248,0.264536,0.134688,0.134688,0.000000,174.000000,158.000000,16.000000,16.000000,0.000000,0.000000:
// measure 0
0000
0000
0000
0000
,  // measure 1
0000
0000
0000
0000
,  // measure 2
0000
0000
0000
0000
,  // measure 3
0000
0000
0000
0000
,  // measure 4
1000
0000
0001
0000
,  // measure 5
1000
0000
0100
0000
,  // measure 6
0010
0000
0001
0000
,  // measure 7
0100
0100
0100
0100
,  // measure 8
0010
0000
0010
1000
,  // measure 9
0001
0001
0000
1000
1000
0000
1001
0000
,  // measure 10
0001
0100
0001
0100
,  // measure 11
0010
0000
0010
0000
,  // measure 12
1000
0100
1000
0100
,  // measure 13
0010
0000
0010
0000
,  // measure 14
0001
0100
1000
0000
,  // measure 15
1000
0100
0001
0000
,  // measure 16
1000
0010
0001
0000
,  // measure 17
0001
0010
1000
0000
,  // measure 18
0002
0000
0013
0100
,  // measure 19
2000
0000
3010
0100
,  // measure 20
0002
0000
1003
0100
,  // measure 21
0010
0010
0000
0100
0100
0000
0110
0000
,  // measure 22
1001
0100
0001
0100
,  // measure 23
1000
0100
2000
3000
,  // measure 24
0001
0010
0001
0010
,  // measure 25
1000
0010
2000
3000
,  // measure 26
0110
0010
0001
0010
,  // measure 27
0100
0010
0200
0300
,  // measure 28
0110
0010
0001
0010
,  // measure 29
0001
0001
1000
0001
,  // measure 30
0200
0000
0000
0300
,  // measure 31
2002
3003
0000
0100
,  // measure 32
0220
0000
0330
1000
,  // measure 33
2002
0000
3003
0100
,  // measure 34
1001
1001
0110
2002
,  // measure 35
3003
0000
1001
0100
,  // measure 36
0001
0100
1000
0010
,  // measure 37
0001
0010
1000
0100
,  // measure 38
1000
0100
0010
0010
,  // measure 39
0010
0000
1001
0100
,  // measure 40
0001
0100
1000
0010
,  // measure 41
0001
0010
1000
0100
,  // measure 42
0010
0001
0100
0100
,  // measure 43
0100
0000
0110
0100
,  // measure 44
0001
1000
0010
1000
,  // measure 45
0001
0100
0010
0100
,  // measure 46
0010
1000
0001
0001
,  // measure 47
0001
0000
0110
0100
,  // measure 48
0010
1000
0001
1000
,  // measure 49
0010
0100
0001
0010
,  // measure 50
0100
1000
0010
1000
,  // measure 51
0001
0100
2000
0000
,  // measure 52
0000
0000
0000
3000
0000
0000
0000
0000
;

//---------------dance-single - ----------------
#NOTES:
     dance-single:
     :
     Hard:
     8:
     0.549575,0.574529,0.370392,0.715530,0.311466,457.000000,413.000000,44.000000,85.000000,0.000000,0.000000,0.549575,0.574529,0.370392,0.715530,0.311466,457.000000,413.000000,44.000000,85.000000,0.000000,0.000000:
// measure 0
0000
0000
0000
0000
,  // measure 1
0000
0000
0000
0000
,  // measure 2
0000
0000
0000
0000
,  // measure 3
0000
0000
0000
0000
0000
0000
0001
1000
,  // measure 4
0100
0000
1000
0001
0010
0000
0001
0010
,  // measure 5
0001
0100
0010
2000
3000
0001
1000
0100
,  // measure 6
0020
0000
0000
0000
0000
0000
0000
0000
0030
0002
0000
0000
0000
0000
0000
0000
0000
0000
0203
0000
0000
0000
0000
0000
0000
0000
0000
0000
0000
0000
0000
0000
0300
0000
0000
0000
0000
0000
0000
0000
0000
0000
0010
0000
0000
0000
0000
0000
,  // measure 7
1010
0000
0000
1000
0000
0001
0100
0000
0000
0001
0000
1000
0100
0000
0000
1100
0000
0000
0100
0000
0010
0001
0000
0000
,  // measure 8
0011
0000
0000
0001
0000
0000
0000
0000
1000
0000
0000
1000
0001
0000
0000
0100
0000
0000
0010
0000
0000
1000
0000
0000
,  // measure 9
1001
0000
0000
0110
0000
0000
0000
0000
0000
0110
0000
0000
1001
0000
0000
0000
0000
0001
1000
0000
0001
0100
0000
0000
,  // measure 10
0101
0000
0000
0001
0000
0000
1000
0000
0000
0100
0000
0010
0001
0000
0000
1000
0000
0000
0001
0000
0000
0200
0000
0000
,  // measure 11
0310
0000
0000
0020
0000
0000
1030
0000
0000
0010
0000
0100
0001
0000
0000
1000
0000
0000
0100
0000
0000
0010
0000
0000
,  // measure 12
0100
0000
0000
1000
0000
0000
0001
0000
0000
1000
0000
0001
0100
0000
0000
0001
0000
0000
0010
0000
0000
0002
0000
0000
,  // measure 13
0103
0000
0000
0200
0000
0000
0310
0000
0000
1000
0000
0001
0010
0000
0000
1000
0000
0000
0010
0000
0000
0001
0000
0000
,  // measure 14
2000
0000
0000
0010
0000
0000
3020
0000
0000
0000
0000
0130
0001
0000
0000
1000
0000
0000
0001
0000
0000
0100
0000
0000
,  // measure 15
1000
0000
0000
0100
0000
0000
0001
0000
0000
1000
0000
0010
1000
0000
0000
0100
0000
0000
1200
0000
0000
0000
0000
0000
,  // measure 16
1300
0001
0000
0100
0000
0000
0001
0000
0012
0000
1000
0000
1003
0000
0100
0000
,  // measure 17
1000
0010
0000
0100
0000
0000
0001
0000
1001
0000
0000
0000
1000
0000
0001
0000
,  // measure 18
0200
0000
0000
0320
0000
0000
2030
0000
0000
3200
0000
0010
0302
0000
0000
0023
0000
0000
0230
0000
0000
2300
0000
0000
,  // measure 19
3002
0000
0000
0203
0000
0000
2300
0000
0000
3200
0000
0001
0320
0000
0000
0230
0000
0000
2300
0000
0000
3002
0000
0000
,  // measure 20
0203
0000
0000
0320
0000
0000
2030
0000
0000
3200
0000
1000
0320
0000
0000
0230
0000
0000
0302
0000
1000
0103
0000
0000
,  // measure 21
1100
0000
0000
0110
0000
0000
0000
0000
0000
0110
0000
0000
0021
0000
0000
0000
0000
0031
1000
0000
0100
1000
0000
0000
,  // measure 22
2020
3030
0010
0100
0202
0303
0100
0010
,  // measure 23
1000
0000
0000
0001
0000
0000
0100
0000
0000
0001
0000
1000
0001
0000
0000
0001
0000
0000
0010
0000
0000
0100
0000
0000
,  // measure 24
2000
0000
0000
3002
0000
0000
2003
0000
3100
0000
0000
0000
0010
0000
0002
0000
,  // measure 25
0000
0000
0000
1003
0000
0000
0001
0000
0000
2000
0000
0000
0000
3000
0000
0000
0000
0000
0001
0000
0000
0100
0000
0000
,  // measure 26
0220
0330
0010
1000
2200
3300
1000
0010
,  // measure 27
0100
0000
0000
0010
0000
0000
1000
0000
0000
0001
0000
1000
0001
0000
0000
1000
0000
0000
0001
0000
0000
0010
0000
0000
,  // measure 28
0002
0000
0000
0000
0000
0000
0000
0000
0000
2000
0003
0000
0000
0000
0000
0000
0000
0000
3200
0000
0000
0000
0000
0000
0320
0000
0000
0000
0000
0000
0031
0000
0000
0000
0000
0000
0000
0000
0000
0000
0000
0000
0010
0000
0000
0000
0000
0000
,  // measure 29
0011
0000
0000
0001
0000
1000
0100
0000
0000
1000
0000
0001
0100
0000
0000
0101
0000
0000
0001
0000
0100
0020
0000
0000
,  // measure 30
1030
0000
0000
0000
0000
0010
0000
0000
2000
0000
0000
0000
0000
0000
0000
0000
3100
0000
0000
0000
0000
0020
0000
0000
0000
0000
0000
0000
0000
0031
0000
0000
2000
0000
0000
0000
0000
0000
0000
0000
3100
0000
0000
0000
0000
0020
0000
0000
0000
0000
0000
0000
0000
0031
0000
0000
1000
0000
0000
0000
0000
0000
0000
0000
,  // measure 31
2002
0000
0000
0000
0000
0000
3003
0000
0000
0000
0000
0000
0000
0000
0000
1100
0000
0000
0000
0000
0110
0000
0000
0000
,  // measure 32
0021
0000
0000
0031
0000
0000
1000
0000
0000
0001
0000
0100
0010
0000
0000
0110
0000
0000
0000
0000
1010
0000
0000
0000
,  // measure 33
2001
0000
0000
3001
0000
0000
1000
0000
0000
0001
0000
1000
0100
0000
0000
2200
0000
3300
0000
0000
0110
0000
0000
0000
,  // measure 34
0012
0000
0000
1003
0000
0001
0200
0000
0000
0310
0000
1000
0100
0000
0000
2100
0000
0000
3100
0000
0010
0001
0000
0000
,  // measure 35
1000
0001
1000
0001
0000
0000
0010
0000
0000
0001
0000
0000
2002
0000
0000
3003
0000
0000
1000
0000
0000
0001
0000
0100
,  // measure 36
0010
0000
0000
0100
0000
0000
0010
0000
0000
1000
0000
0000
0100
0000
0000
0010
0000
0000
0001
0000
0000
1000
0000
0001
,  // measure 37
0100
0000
0000
0010
0000
0000
0001
0000
0000
0010
0000
0000
0110
0000
0000
0100
0000
0000
0001
0000
0000
1000
0000
0100
,  // measure 38
0010
0000
0000
0100
0000
0000
1000
0000
0000
2000
0000
0000
0010
0000
0000
3010
0000
0000
1000
0000
0000
0001
0000
0100
,  // measure 39
0001
0000
0000
0100
0000
0000
0001
0000
0000
1000
0000
0000
1001
0000
0000
0001
0000
0000
1000
0000
0000
0001
0000
1000
,  // measure 40
0010
0000
0000
1000
0000
0000
0010
0000
0000
1000
0000
0000
0100
0000
0000
0010
0000
0000
0001
0000
0000
1000
0000
0100
,  // measure 41
1000
0000
0000
0001
0000
0000
0010
0000
0000
0100
0000
0000
1200
0000
0000
1000
0000
0000
1300
0000
0000
0010
0000
0100
,  // measure 42
0001
0000
0000
0010
0000
0000
0001
0000
1000
0010
0000
0000
1010
0000
0000
1000
0000
0001
0100
0000
0000
0001
0000
1000
,  // measure 43
0100
0000
0000
1100
0000
0000
0100
0000
0010
0001
0000
0000
1001
0000
0000
1000
0000
0000
0001
0000
0000
1000
0000
0001
,  // measure 44
0100
0000
0000
0010
0000
0000
0001
0000
0000
0010
0000
0000
1000
0000
0000
0001
0000
0000
0010
0000
0000
0100
0000
0010
,  // measure 45
0001
0000
0000
1000
0000
0000
0010
0000
0000
0100
0000
0000
1100
0000
0000
0100
0000
0000
0001
0000
0000
0010
0000
0001
,  // measure 46
0100
0000
0000
0001
0000
0000
0001
0000
0000
0200
0000
0000
0010
0000
0000
0310
0000
0000
0100
0000
0000
0010
0000
1000
,  // measure 47
0100
0000
0000
0001
0000
0000
0100
0000
0000
1000
0000
0000
1002
0000
0000
0103
0000
0000
0010
0000
0000
1000
0000
0100
,  // measure 48
1000
0000
0000
0001
0000
0000
1000
0000
0000
0010
0000
0000
0100
0000
0000
0001
0000
0000
1000
0000
0000
0001
0000
0100
,  // measure 49
0010
0000
0000
0000
0000
0000
0100
0000
0000
0000
0000
0000
0010
0000
0000
0000
0000
0000
1000
0000
0000
0000
0000
0000
1200
0000
0000
0000
0000
0000
0000
0000
0000
0320
0000
0000
0000
0000
0000
0000
0000
0000
0031
0000
0000
0000
1000
0000
,  // measure 50
0100
0000
0000
1000
0000
0000
0100
0000
0010
0001
0000
0000
0021
0000
0000
0031
0000
1000
0020
0000
0000
1030
0000
0001
,  // measure 51
0010
0000
0000
0000
0000
0000
0000
0000
0000
0000
0000
0000
0000
0000
0000
0000
0000
0000
0000
0000
0000
0000
0000
0000
0021
0000
0000
0000
0000
0000
0000
0000
0000
0000
0000
0000
0000
0000
0000
0000
0000
0000
0000
0000
0000
0000
0000
0000
0032
0000
0000
0000
0000
0000
0000
0000
0000
0000
0000
0000
0000
0000
0000
0000
1000
0000
0000
0000
0000
0000
0000
0000
0203
0000
0000
0000
0000
0000
0000
0000
0000
0000
0000
0000
0000
0000
0000
0000
0000
0000
0000
0000
0000
0000
0000
0000
0310
0000
0000
0000
0000
0000
0000
0000
0000
0000
0000
0000
0000
0000
0000
0001
0000
0000
0000
0000
0000
0000
0000
0000
2000
0000
0000
0000
0000
0000
0000
0000
0000
0000
0000
0000
0000
0000
0000
0000
0000
0000
0000
0000
0000
0000
0000
0000
3100
0000
0000
0000
0000
0000
0000
0000
0000
0000
0000
0000
0000
0000
0000
0020
0000
0000
0000
0000
0000
0000
0000
0000
0000
0000
0000
0000
0000
0000
0000
0000
0000
0000
0000
0000
0000
0000
0000
0031
0000
0000
0000
0000
0000
0000
0000
0000
,  // measure 52
2000
0000
0000
0000
0000
0000
0000
0000
3100
0000
0000
0000
0000
0020
0000
0000
0000
0000
0000
0000
0000
0031
0000
0000
2000
0000
0000
0000
0000
0000
0000
0000
3000
0000
0000
0000
0000
0000
0000
0000
0000
0000
0000
0000
0000
0000
0000
0000
0000
0000
0000
0000
0000
0000
0000
0000
0000
0000
0000
0000
0000
0000
0000
0000
;
