#TITLE:Shattered;
#SUBTITLE:;
#ARTIST:BoA;
#TITLETRANSLIT:;
#SUBTITLETRANSLIT:;
#ARTISTTRANSLIT:;
#GENRE:K-POP;
#CREDIT:;
#BANNER:Shattered.png;
#BACKGROUND:Shattered-bg.png;
#LYRICSPATH:Shattered.lrc;
#CDTITLE:CDTitle.png;
#MUSIC:Shattered.ogg;
#OFFSET:0.000000;
#SAMPLESTART:99.434998;
#SAMPLELENGTH:18.139999;
#SELECTABLE:YES;
#BPMS:0.000000=105.000000
;
#STOPS:
;
#BGCHANGES:;
#KEYSOUNDS:;
#ATTACKS:;

//---------------dance-single - ----------------
#NOTES:
     dance-single:
     :
     Hard:
     6:
     0.387712,0.393611,0.111229,0.096398,0.111229,366.000000,351.000000,15.000000,13.000000,0.000000,0.000000,0.387712,0.393611,0.111229,0.096398,0.111229,366.000000,351.000000,15.000000,13.000000,0.000000,0.000000:
// measure 0
0000
0000
0000
0000
,  // measure 1
0000
0000
0000
0000
,  // measure 2
0000
0000
0000
0000
,  // measure 3
0000
0000
0000
0000
,  // measure 4
1000
0000
0000
0000
1000
0000
0000
0001
0100
0000
0010
0000
1000
0000
0000
0000
,  // measure 5
0001
0000
0000
0000
0001
0000
0000
1000
0010
0000
0100
0000
0001
0000
0000
0000
,  // measure 6
0100
0000
0000
0000
0100
0000
0000
0010
1000
0000
0100
0000
1000
0000
0000
0000
,  // measure 7
0100
0000
0000
0000
0100
0000
0000
0010
0001
0000
0010
0000
0001
0000
0000
0000
,  // measure 8
1000
0000
0000
0000
1000
0000
0000
1000
0001
0000
0100
0000
0010
0000
1000
0000
,  // measure 9
0100
0000
0000
0000
0100
0000
0000
0100
0010
0000
0001
0000
0010
0000
0100
0000
,  // measure 10
0010
0000
0000
0000
0010
0000
0000
0010
0001
0000
0100
0000
0010
0000
1000
0000
,  // measure 11
0001
0000
0000
0000
0001
0000
0000
0001
0100
0000
0010
0000
1000
0000
0100
0000
,  // measure 12
0010
0000
1001
0100
0010
0000
1001
0001
,  // measure 13
0100
0000
1001
1000
0100
0000
1002
0000
,  // measure 14
1000
0010
0200
0303
,  // measure 15
0001
0010
0100
1000
0010
0100
0001
0000
,  // measure 16
1000
0000
1001
0100
0010
0000
1001
0010
,  // measure 17
0100
0000
1001
1000
0100
0000
2001
0000
,  // measure 18
0010
0100
0002
3003
,  // measure 19
0010
0001
1000
0100
0010
0001
0100
0000
,  // measure 20
0010
1000
0010
1000
0001
0010
0002
0000
,  // measure 21
1000
0000
0000
0103
0010
1000
0010
1000
,  // measure 22
0100
0001
0100
0001
0200
0000
2300
0000
,  // measure 23
3020
0000
0000
0000
1000
1000
1030
0000
,  // measure 24
1000
0100
0010
0001
1000
0010
0100
0001
,  // measure 25
1000
0100
0010
0001
1000
0010
0100
0001
,  // measure 26
0010
0100
1000
0001
0100
0010
1000
0100
,  // measure 27
0010
0000
0000
0001
1000
0000
0001
0000
1000
0000
0100
0000
1000
0000
0100
0000
,  // measure 28
1000
0010
0100
0010
1000
0001
0100
0001
,  // measure 29
1000
0100
0010
0100
1000
0010
0001
0010
,  // measure 30
1000
0001
0010
0001
0100
0001
0010
0100
,  // measure 31
1000
0000
0000
0001
0100
0000
0010
0000
1000
0000
0100
0000
1000
0000
0002
0000
,  // measure 32
0010
0000
0103
0001
0010
1000
0001
0000
,  // measure 33
0100
1000
0010
0001
0010
0010
1000
0200
,  // measure 34
0001
0000
1300
0010
0001
0100
1000
0000
,  // measure 35
0100
0001
0010
1000
0100
0100
0110
0000
,  // measure 36
0010
0000
0000
0000
0110
0000
0000
0010
0000
0001
0000
0000
0100
0000
0010
0000
,  // measure 37
1000
0000
0000
0000
1001
0000
0000
1000
0000
0100
0000
0000
1000
0000
0001
0000
,  // measure 38
0010
0000
0000
0000
0110
0000
0000
0010
0000
0001
0000
0010
0001
0000
0100
0000
,  // measure 39
0010
0000
0000
0000
0110
0000
0010
0100
0000
0010
0000
0100
0010
0000
1000
0000
,  // measure 40
0001
0000
0000
0000
0101
0000
0000
0010
0000
0001
0000
0000
0100
0000
0010
0000
,  // measure 41
1000
0000
0000
0000
1100
0000
0000
0010
0000
0001
0000
0010
0100
0000
1000
0000
,  // measure 42
0010
0000
0000
0000
0010
0000
0001
0010
0000
1000
0000
0000
0100
0000
0010
0200
,  // measure 43
0000
0000
0000
0000
0001
0001
0301
0000
,  // measure 44
0010
0001
1000
0100
1000
0001
0100
0001
,  // measure 45
1000
0010
0100
0010
1000
0100
0010
0100
,  // measure 46
1000
0001
0010
0001
0100
0010
1000
0100
,  // measure 47
1000
0000
0000
0001
0010
0000
0100
0000
0010
0000
1000
0000
0010
0000
0001
0000
,  // measure 48
0100
0010
0100
1000
0100
0001
0010
0100
,  // measure 49
1000
0010
0001
0010
1000
0100
0010
0001
,  // measure 50
0100
1000
0100
0001
0010
0100
0001
0100
,  // measure 51
1000
0000
0000
0010
0001
0000
0010
0000
0100
0000
0010
0000
1000
0000
0020
0000
,  // measure 52
0001
0000
0130
0001
0010
1000
0001
0000
,  // measure 53
0100
1000
0010
0001
0010
1000
0001
0020
,  // measure 54
0100
0000
1030
0010
0001
0100
1000
0000
,  // measure 55
0100
0001
0010
0100
1000
1000
0001
0001
;

//---------------dance-single - ----------------
#NOTES:
     dance-single:
     :
     Easy:
     2:
     0.174788,0.207627,0.007415,0.163136,0.000000,165.000000,164.000000,1.000000,22.000000,0.000000,0.000000,0.174788,0.207627,0.007415,0.163136,0.000000,165.000000,164.000000,1.000000,22.000000,0.000000,0.000000:
// measure 0
0000
0000
0000
0000
,  // measure 1
0000
0000
0000
0000
,  // measure 2
0000
0000
0000
0000
,  // measure 3
0000
0000
0000
0000
,  // measure 4
2000
0000
0100
0100
,  // measure 5
3200
0000
0010
0010
,  // measure 6
0320
0000
0001
0001
,  // measure 7
0032
0000
1000
1000
,  // measure 8
1003
0001
1000
0001
,  // measure 9
1000
0100
1000
0100
,  // measure 10
1000
0010
1000
0010
,  // measure 11
1000
0001
1000
0000
,  // measure 12
0001
0001
0100
0100
,  // measure 13
0010
0010
1000
1000
,  // measure 14
0100
0010
0001
0000
,  // measure 15
0100
0010
1000
0000
,  // measure 16
0010
0010
1000
1000
,  // measure 17
0001
0001
0100
0100
,  // measure 18
0001
0010
0100
0000
,  // measure 19
1000
0010
0100
0000
,  // measure 20
0020
0000
0000
0030
,  // measure 21
2000
0000
0000
3000
,  // measure 22
0002
0000
0000
0003
,  // measure 23
0200
0000
0010
0310
,  // measure 24
0100
0100
0001
0010
,  // measure 25
0100
0100
1000
0010
,  // measure 26
0100
0100
0001
0010
,  // measure 27
0002
0003
2000
3000
,  // measure 28
0010
0010
0100
0001
,  // measure 29
0010
0010
0100
1000
,  // measure 30
0010
0010
0100
0001
,  // measure 31
2000
0000
3000
0001
,  // measure 32
0002
0000
0000
0000
,  // measure 33
0100
0100
0100
0103
,  // measure 34
0020
0000
0000
0000
,  // measure 35
1000
1000
2000
3030
,  // measure 36
0001
0001
1000
0100
,  // measure 37
0001
0001
0100
1000
,  // measure 38
0010
0010
0001
0010
,  // measure 39
1000
1000
0100
0001
,  // measure 40
0010
0010
0001
0100
,  // measure 41
1000
1000
0010
0001
,  // measure 42
0100
0100
0001
0010
,  // measure 43
0220
0000
0330
0000
,  // measure 44
0100
0100
0001
0010
,  // measure 45
0100
0100
1000
0010
,  // measure 46
0100
0100
0001
0010
,  // measure 47
0002
0003
2000
3000
,  // measure 48
0010
0010
1000
0100
,  // measure 49
0010
0010
0001
0100
,  // measure 50
0010
0010
1000
0100
,  // measure 51
2000
0000
3000
0001
,  // measure 52
0002
0000
0000
0000
,  // measure 53
0100
0100
0100
0103
,  // measure 54
0200
0000
0000
0000
,  // measure 55
0010
0010
0020
0000
,  // measure 56
0330
0000
0000
0000
;

//---------------dance-single - ----------------
#NOTES:
     dance-single:
     :
     Medium:
     4:
     0.270127,0.289381,0.177966,0.155721,0.000000,255.000000,231.000000,24.000000,21.000000,0.000000,0.000000,0.270127,0.289381,0.177966,0.155721,0.000000,255.000000,231.000000,24.000000,21.000000,0.000000,0.000000:
// measure 0
0000
0000
0000
0000
,  // measure 1
0000
0000
0000
0000
,  // measure 2
0000
0000
0000
0000
,  // measure 3
0000
0000
0000
0000
,  // measure 4
0000
0000
0000
1000
0001
0000
0001
0000
,  // measure 5
0100
0000
0000
0010
1000
0000
1000
0000
,  // measure 6
0100
0000
0000
0010
0001
0000
0001
0000
,  // measure 7
0010
0000
0010
0010
,  // measure 8
0001
0000
1000
0000
0001
0010
0001
0000
,  // measure 9
1000
0000
0001
0000
1000
0100
1000
0000
,  // measure 10
0001
0000
1000
0000
0001
0100
0001
0000
,  // measure 11
1000
0000
0001
0000
1000
0010
1000
0000
,  // measure 12
0001
0101
1000
1100
,  // measure 13
0001
0011
1000
2010
,  // measure 14
0001
0001
0200
3300
,  // measure 15
0010
0001
0100
0000
0001
0010
0100
0000
,  // measure 16
1000
1010
0001
0011
,  // measure 17
1000
1100
0001
0102
,  // measure 18
0010
0010
2000
3003
,  // measure 19
0001
1000
0001
0100
0010
0000
0110
0000
,  // measure 20
0200
0000
0000
0020
0000
0000
0330
0000
,  // measure 21
2000
0000
0000
0002
0000
0000
3003
0000
,  // measure 22
2000
0000
0000
0200
0000
0000
3300
0000
,  // measure 23
0020
0000
0100
0130
,  // measure 24
0010
0000
1001
0000
0100
0001
1000
0000
,  // measure 25
0010
0000
1001
0000
0100
1000
0001
0000
,  // measure 26
1000
1100
0001
0101
,  // measure 27
2010
0000
0001
0000
0010
0010
3010
0000
,  // measure 28
0100
0000
1001
0000
0010
1000
0100
0000
,  // measure 29
0010
0000
1001
0000
0100
0001
0010
0000
,  // measure 30
0001
0011
1000
1010
,  // measure 31
0002
0000
0100
0000
0103
0000
0010
2000
,  // measure 32
0001
0100
0010
0001
,  // measure 33
0020
0000
3030
0000
0100
0001
1000
0020
,  // measure 34
0100
0001
0100
1000
,  // measure 35
1030
0100
0010
0001
,  // measure 36
1000
0000
1000
0000
0001
0010
0001
0000
,  // measure 37
0100
0000
0100
0000
0010
1000
0010
0000
,  // measure 38
0100
0000
0100
0000
0001
1000
0001
0000
,  // measure 39
0010
0000
0010
0000
0100
1000
0100
0010
,  // measure 40
0001
0000
0001
0000
0100
0010
1000
0000
,  // measure 41
0001
0000
0001
0000
1000
0010
0100
0000
,  // measure 42
0010
0000
1000
0100
0010
0000
0001
1000
,  // measure 43
0200
0000
0000
0000
0010
0010
0310
0000
,  // measure 44
0001
0000
1100
0000
0001
0100
0010
0000
,  // measure 45
1000
0000
0101
0000
0010
1000
0100
0000
,  // measure 46
1000
0000
0011
0000
0100
1000
0010
0000
,  // measure 47
0001
0000
0010
0000
1000
0100
1000
0010
,  // measure 48
0100
0000
0110
0000
0100
0001
0100
0000
,  // measure 49
0010
0000
0110
0000
1000
0100
1000
0000
,  // measure 50
0001
0000
0110
0000
1000
0100
0010
0000
,  // measure 51
0002
0000
1000
0000
0103
0000
0001
0020
,  // measure 52
0100
1000
0001
0100
,  // measure 53
0002
0000
0033
0000
0100
0001
1000
0020
,  // measure 54
1000
0100
0001
0100
,  // measure 55
1030
0100
0010
0001
;

//---------------dance-single - ----------------
#NOTES:
     dance-single:
     :
     Beginner:
     1:
     0.115466,0.166102,0.022246,0.103814,0.000000,109.000000,106.000000,3.000000,14.000000,0.000000,0.000000,0.115466,0.166102,0.022246,0.103814,0.000000,109.000000,106.000000,3.000000,14.000000,0.000000,0.000000:
// measure 0
0000
0000
0000
0000
,  // measure 1
0000
0000
0000
0000
,  // measure 2
0000
0000
0000
0000
,  // measure 3
0000
0000
0000
0000
,  // measure 4
1000
0000
0000
0000
,  // measure 5
1000
0000
0000
0000
,  // measure 6
0100
0000
0000
0000
,  // measure 7
0100
0000
0000
0000
,  // measure 8
0010
0000
0010
0000
,  // measure 9
0010
0000
0010
0000
,  // measure 10
0001
0000
0001
0000
,  // measure 11
0001
0000
0001
0000
,  // measure 12
1000
1000
0000
0001
,  // measure 13
0000
1000
0000
0001
,  // measure 14
0000
0100
0000
0010
,  // measure 15
0000
0100
0000
0010
,  // measure 16
0000
1000
0000
0010
,  // measure 17
0000
0100
0000
0001
,  // measure 18
0000
1000
0000
0001
,  // measure 19
0000
0100
0000
0010
,  // measure 20
0020
0000
0030
0000
,  // measure 21
2000
0000
3000
0000
,  // measure 22
0002
0000
0003
0000
,  // measure 23
0200
0000
0300
0000
,  // measure 24
0010
0010
0010
0000
,  // measure 25
0100
0100
0100
0000
,  // measure 26
0001
0001
0001
0000
,  // measure 27
1000
0000
1000
0000
,  // measure 28
0100
0100
0100
0000
,  // measure 29
0010
0010
0010
0000
,  // measure 30
0001
0001
0001
0000
,  // measure 31
2000
0000
3000
0000
,  // measure 32
2000
0000
0000
0000
,  // measure 33
3000
0000
0001
0001
,  // measure 34
0002
0000
0000
0000
,  // measure 35
0003
0000
0100
0000
,  // measure 36
0010
0000
0010
0010
,  // measure 37
0010
0000
1000
1000
,  // measure 38
1000
0000
0001
0001
,  // measure 39
0001
0000
1001
0000
,  // measure 40
1000
0000
0100
0100
,  // measure 41
0100
0000
0010
0010
,  // measure 42
0010
0000
0001
0000
,  // measure 43
2002
0000
3003
0000
,  // measure 44
0100
0100
0100
0000
,  // measure 45
0010
0010
0010
0000
,  // measure 46
1000
1000
1000
0000
,  // measure 47
0001
0001
0001
0000
,  // measure 48
1000
1000
1000
0000
,  // measure 49
0100
0100
0100
0000
,  // measure 50
0010
0010
0010
0000
,  // measure 51
0002
0000
0003
0000
,  // measure 52
2000
0000
0000
0000
,  // measure 53
3000
0000
0010
0010
,  // measure 54
0020
0000
0000
0000
,  // measure 55
0030
0000
0220
0000
,  // measure 56
0330
0000
0000
0000
;

//---------------dance-single - ----------------
#NOTES:
     dance-single:
     :
     Challenge:
     9:
     0.592162,0.643645,0.000000,0.155721,0.789725,559.000000,559.000000,0.000000,21.000000,0.000000,0.000000,0.592162,0.643645,0.000000,0.155721,0.789725,559.000000,559.000000,0.000000,21.000000,0.000000,0.000000:
// measure 0
0000
0000
0000
0000
,  // measure 1
0000
0000
0000
0000
,  // measure 2
0000
0000
0000
0000
,  // measure 3
0000
0000
0000
0000
,  // measure 4
0100
0000
0000
0000
0100
0000
0000
0100
0001
0100
0001
0000
0100
0000
0010
0000
,  // measure 5
1000
0000
0000
0000
1000
0000
0000
1000
0010
1000
0010
0000
1000
0000
0100
0000
,  // measure 6
0010
0000
0000
0000
0010
0000
0000
0010
0001
0010
0001
0000
0010
0000
0100
0000
,  // measure 7
1000
0000
0000
0000
1000
0000
0000
1000
0100
1000
0100
0000
1000
0000
0001
0000
,  // measure 8
1000
0001
1000
0000
0100
0000
0010
0001
0010
0100
1000
0000
0001
0000
0100
0000
,  // measure 9
0010
1000
0010
0000
0100
0000
0001
0100
0001
1000
0010
0000
1000
0000
0100
0000
,  // measure 10
0010
0001
0010
0000
0100
0000
1000
0010
1000
0100
0010
0000
0100
0000
1000
0000
,  // measure 11
0001
0100
0001
0000
1000
0000
0100
0010
0100
1000
0001
0000
1000
0000
0001
0000
,  // measure 12
1000
0000
0010
0000
0100
0000
0010
0000
1000
0100
1000
0000
0001
0000
1000
0000
,  // measure 13
0100
0000
0010
0000
0001
0000
0010
0000
0100
1000
0100
0000
0010
0000
0001
0000
,  // measure 14
1000
0000
0010
0000
0100
0000
0010
0000
0001
0010
0001
0000
0010
0000
1000
0000
,  // measure 15
0001
0000
0100
0000
0010
0000
0100
0000
1000
0100
1000
0000
0100
0000
0001
0000
,  // measure 16
1000
0000
0100
0000
1000
0000
0010
0000
0100
0001
0010
0000
0100
0000
0010
0000
,  // measure 17
0001
0000
0100
0000
0010
0000
1000
0000
0100
0010
0001
0000
0100
0000
0001
0000
,  // measure 18
0010
0000
0100
0000
1000
0000
0010
0000
0001
0010
1000
0000
0001
0000
0010
0000
,  // measure 19
0100
0000
0010
0000
0001
0000
1000
0000
0100
0001
0100
0000
1000
0000
0001
0000
,  // measure 20
0020
0032
0203
2300
3002
0023
2030
0000
,  // measure 21
0001
0000
0000
0000
3100
0000
0010
0001
0020
0000
0230
0000
2300
0000
3002
0000
,  // measure 22
0203
0320
0032
0023
2030
0000
3002
0000
,  // measure 23
0200
0000
0000
0000
0303
0000
0000
0000
0010
0000
1000
0010
0000
0010
0000
0000
,  // measure 24
1000
0100
1000
0100
0010
0100
0010
0100
0010
0000
0001
0100
0000
0010
0000
1000
,  // measure 25
0001
0010
0001
0010
0100
0010
0100
0010
0100
0000
1000
0001
0000
0010
0000
0001
,  // measure 26
0100
0010
0100
0010
1000
0010
1000
0010
0100
0000
0001
1000
0000
0010
0000
1000
,  // measure 27
0001
0000
0001
0010
0000
0100
0000
0100
0010
0000
0010
0001
0000
1000
0000
1000
,  // measure 28
0001
0100
0001
0100
0010
1000
0010
1000
0100
0000
0010
0001
0000
1000
0000
1000
,  // measure 29
0001
0010
0001
0010
0100
1000
0100
1000
0010
0000
0010
0100
0000
0010
0000
0010
,  // measure 30
1000
0001
1000
0001
0100
0010
0100
0010
1000
0000
1000
0001
0000
1000
0000
1000
,  // measure 31
0010
0000
0000
0010
1000
0000
0001
0000
0100
0000
0010
1000
0010
0100
0002
0000
,  // measure 32
0013
0001
0010
0100
1000
0010
0100
0001
1000
0100
1000
0001
0010
0001
0100
0000
,  // measure 33
0010
1000
0100
1000
0001
0010
0100
1000
0001
0010
0001
1000
0001
0010
0100
0000
,  // measure 34
1000
0100
0010
0100
1000
0010
0100
0001
0010
0001
0100
0010
0100
0001
1000
0000
,  // measure 35
0100
0010
0100
1000
0010
0100
0010
0001
0010
1000
0001
0100
0010
1000
0100
0000
,  // measure 36
1000
0000
0001
0000
1000
0000
0100
1000
0000
0100
0000
0100
1000
0000
0100
0000
,  // measure 37
0010
0000
0001
0000
0010
0000
0001
1000
0000
0001
0000
0001
1000
0000
0001
0000
,  // measure 38
0100
0000
1000
0000
0100
0000
1000
0100
0000
0001
0000
0100
0001
0000
0100
0000
,  // measure 39
0001
0000
0010
0000
0001
0000
0010
1000
0000
0010
0000
1000
0010
0000
0001
0000
,  // measure 40
1000
0000
0001
0000
0100
0000
0010
1000
0000
0001
0000
0001
1000
0000
0010
0000
,  // measure 41
0100
0000
0001
0000
0010
0000
0100
0010
0000
0001
0000
0001
1000
0000
0100
0000
,  // measure 42
0010
0000
0001
0000
0100
0000
0010
1000
0000
0001
0000
0001
1000
0000
0100
2000
,  // measure 43
0000
0000
0000
0000
0000
0000
0000
0000
3001
0000
1000
0001
0000
1000
0000
0000
,  // measure 44
0001
0010
0001
0010
0100
0010
0100
0010
0100
0000
1000
0010
0000
0100
0000
0001
,  // measure 45
1000
0100
1000
0100
0010
0100
0010
0100
0010
0000
0001
1000
0000
0100
0000
1000
,  // measure 46
0010
0100
0010
0100
0001
0100
0001
0100
0010
0000
1000
0001
0000
0100
0000
0001
,  // measure 47
1000
0000
1000
0100
0000
0010
0000
0010
0001
0000
0001
1000
0000
0001
0000
0001
,  // measure 48
1000
0010
1000
0010
0100
0001
0100
0001
0010
0000
0100
1000
0000
0001
0000
0001
,  // measure 49
1000
0100
1000
0100
0010
0001
0010
0001
0100
0000
0100
0010
0000
0100
0000
0100
,  // measure 50
0001
1000
0001
1000
0010
0100
0010
0100
0001
0000
0001
1000
0000
0001
0000
0001
,  // measure 51
0100
0000
0000
0100
0001
0000
1000
0000
0010
0000
0100
0001
0100
0010
2000
0000
,  // measure 52
3100
1000
0100
0010
0001
0100
0010
1000
0001
0010
0001
1000
0100
1000
0010
0000
,  // measure 53
0100
0001
0010
0001
1000
0100
0010
0001
1000
0100
1000
0001
1000
0100
0010
0000
,  // measure 54
0001
0010
0100
0010
0001
0100
0010
1000
0100
1000
0010
0100
0010
1000
0001
0000
,  // measure 55
0010
0100
0010
0001
0100
0010
0100
1000
0100
0001
1000
0010
0100
0001
0100
0000
,  // measure 56
0010
0000
0000
0000
;
