#VERSION:0.83;
#TITLE:Sara;
#SUBTITLE:;
#ARTIST:BoA;
#TITLETRANSLIT:;
#SUBTITLETRANSLIT:;
#ARTISTTRANSLIT:;
#GENRE:;
#ORIGIN:;
#CREDIT:;
#BANNER:Sara.png;
#BACKGROUND:Sara-bg.png;
#PREVIEWVID:;
#JACKET:;
#CDIMAGE:;
#DISCIMAGE:;
#LYRICSPATH:;
#CDTITLE:CDTitle.png;
#MUSIC:Sara.ogg;
#OFFSET:0.000000;
#SAMPLESTART:54.480000;
#SAMPLELENGTH:20.600000;
#SELECTABLE:YES;
#BPMS:0.000=92.500;
#STOPS:;
#DELAYS:;
#WARPS:;
#TIMESIGNATURES:0.000=4=4;
#TICKCOUNTS:0.000=4;
#COMBOS:0.000=1;
#SPEEDS:0.000=1.000=0.000=0;
#SCROLLS:0.000=1.000;
#FAKES:;
#LABELS:0.000=Song Start;
#BGCHANGES:;
#KEYSOUNDS:;
#ATTACKS:
;

//---------------dance-single - ----------------
#NOTEDATA:;
#CHARTNAME:;
#STEPSTYPE:dance-single;
#DESCRIPTION:;
#CHARTSTYLE:;
#DIFFICULTY:Hard;
#METER:9;
#RADARVALUES:0.526047,0.609686,0.191124,0.624339,0.675305,289.000000,274.000000,15.000000,49.000000,1.000000,0.000000,0.000000,0.000000,0.000000,0.526047,0.609686,0.191124,0.624339,0.675305,289.000000,274.000000,15.000000,49.000000,1.000000,0.000000,0.000000,0.000000,0.000000;
#CREDIT:DDRDAIKENKAI;
#NOTES:
0000
0000
0000
0000
,
0000
0000
0000
0000
,
0000
0000
0000
0000
,
0000
0000
0000
0000
,
2000
0000
3010
1000
0100
0000
0010
0100
0000
0000
0010
0100
2000
0000
3020
0000
,
0230
0000
0310
0100
0000
0001
0000
1000
0001
1000
0001
0000
0001
0000
0010
0000
,
0100
0000
1000
0010
0000
0100
0000
0001
1000
0001
1000
0000
1000
0000
0001
0000
,
0010
0000
0001
2000
0000
0000
3001
0200
0000
0000
0310
2000
0000
0000
3001
0020
,
0000
0000
0000
0000
0031
0000
0200
0000
0000
0000
0301
0000
0100
0000
0001
0000
0100
0000
0000
0000
0010
0000
1000
0000
0001
0000
1000
0100
1000
0000
0001
0000
,
0010
0001
1000
0001
0100
0010
0000
1000
0001
0010
0001
0000
0001
1000
0100
1000
,
0010
0100
0010
0100
0001
1000
0000
1000
0001
0010
0001
0000
0001
0100
0001
0010
,
0100
1000
0100
2000
0000
0000
3100
0010
0000
0200
0000
0000
1300
0100
1000
0002
,
0100
0000
0000
0000
0203
0000
0000
0000
0000
0000
0301
0000
0000
0000
0001
0000
0100
0000
0000
0000
0010
0000
0100
0000
0010
0000
1000
0001
1000
0001
1000
0000
,
0002
0000
1000
0000
1003
0010
0000
0100
0020
0000
0230
0000
0320
0000
2030
0000
,
0001
0000
3001
0000
0100
0001
0000
1000
0002
0000
0203
0000
0320
0000
0032
0000
,
0010
0000
0013
0000
0100
0010
0000
0100
0002
0000
2003
0000
3200
0000
0302
0000
,
0100
0000
0000
0000
0103
0000
0000
0000
1000
0000
0001
0000
0000
0000
0100
0000
0020
0000
0000
0000
0230
0000
0000
0000
0320
0000
0030
1000
0001
0000
1000
0001
,
2000
0001
3001
0000
1000
0001
0100
0001
1000
0010
2000
0000
3200
0000
1300
0010
,
1000
0010
1000
0000
0001
0010
0001
1000
0100
1000
0001
0000
2001
3001
0100
0000
,
0001
0010
0001
0000
0001
0010
0001
0100
0010
0100
0001
1000
0100
0010
0001
0000
,
1001
0000
0000
0000
1010
0000
0000
0000
0000
0000
0011
0000
0001
0000
0010
0000
0100
0000
0000
0000
1100
0000
0000
0000
1001
0000
1000
0001
1000
0000
0010
0100
,
0020
0000
0130
0000
0100
0010
0000
0100
0002
0000
1003
0000
1002
0000
1000
0000
,
2003
0000
3001
0000
0010
0100
0000
0010
0200
0000
1300
0000
1020
0000
1000
0000
,
2030
0000
3001
0000
0100
0010
0000
0100
0002
0000
1003
0000
1020
0000
1030
0000
,
0001
0000
0000
0000
1001
0000
0000
0000
0000
0000
1000
0000
0000
0000
1000
0000
0010
0000
0000
0000
0100
0000
0000
0000
0010
0000
1000
0100
1000
0000
0001
0010
,
0002
0000
0103
0000
0010
1000
0000
0001
0100
0000
0001
0000
1002
0000
1000
0000
,
2003
0000
3001
0000
0100
0010
0000
0100
0002
0000
1003
0000
1200
0000
1000
0000
,
2300
0000
3010
0000
0010
1000
0000
0100
2000
0000
3001
0000
0011
0000
0001
0000
,
1000
0000
1001
0000
0000
1100
0000
0100
0010
0001
0010
0001
1000
0100
0001
0100
,
M000
0000
0000
0000
;

//---------------dance-single - ----------------
#NOTEDATA:;
#CHARTNAME:;
#STEPSTYPE:dance-single;
#DESCRIPTION:;
#CHARTSTYLE:;
#DIFFICULTY:Medium;
#METER:5;
#RADARVALUES:0.271214,0.294331,0.000000,0.229349,0.000000,149.000000,149.000000,0.000000,18.000000,0.000000,0.000000,0.000000,0.000000,0.000000,0.271214,0.294331,0.000000,0.229349,0.000000,149.000000,149.000000,0.000000,18.000000,0.000000,0.000000,0.000000,0.000000,0.000000;
#CREDIT:DDRDAIKENKAI;
#NOTES:
0000
0000
0000
0000
,
0000
0000
0000
0000
,
0000
0000
0000
0000
,
0000
0000
0000
0000
,
0000
0000
0000
0000
0000
0000
1000
0010
,
0100
0001
0010
0100
1000
0000
0001
0010
,
0100
1000
0010
0100
0001
0000
1000
0100
,
1000
0010
0100
0001
0010
0001
0100
0010
,
1000
0100
1000
0001
1000
0000
1000
0001
,
1000
0001
0100
0010
0100
0000
0010
1000
,
0010
0100
0001
0010
0100
0000
0100
1000
,
0010
1000
0100
0010
0001
0100
0010
2000
,
0002
0000
3003
0000
0001
0010
0100
2000
,
0000
0001
3001
0000
1000
0100
0010
0002
,
0000
1000
1003
0000
0001
1000
0010
0200
,
0000
0010
0310
0000
0010
0100
0001
2000
,
0000
0001
3001
0000
1000
0010
0100
0020
,
0000
0130
0001
0000
0010
0100
1000
0020
,
0000
1030
0100
0000
0010
0001
0100
0010
,
0000
1000
0100
1000
0010
0100
0010
1000
,
0002
1000
1003
0000
2000
0001
3001
0000
,
2000
0000
3001
0000
0010
0001
0100
0000
,
0020
0000
1030
0000
0100
1000
0001
0000
,
0200
0000
0310
0000
0100
0001
0010
0000
,
0002
0000
1003
0000
0100
1000
0001
0010
,
0200
0000
1300
0000
0010
0100
0010
0000
,
0200
0000
0301
0000
0010
0001
0100
0000
,
0020
0000
1030
0000
0001
0100
0001
0000
,
2000
0000
3010
0000
0100
0010
1000
0001
;

//---------------dance-single - ----------------
#NOTEDATA:;
#CHARTNAME:;
#STEPSTYPE:dance-single;
#DESCRIPTION:;
#CHARTSTYLE:;
#DIFFICULTY:Easy;
#METER:2;
#RADARVALUES:0.165641,0.258144,0.076450,0.356765,0.000000,91.000000,85.000000,6.000000,28.000000,0.000000,0.000000,0.000000,0.000000,0.000000,0.165641,0.258144,0.076450,0.356765,0.000000,91.000000,85.000000,6.000000,28.000000,0.000000,0.000000,0.000000,0.000000,0.000000;
#CREDIT:DDRDAIKENKAI;
#NOTES:
// measure 0
0000
0000
0000
0000
,  // measure 1
0000
0000
0000
0000
,  // measure 2
0000
0000
0000
0000
,  // measure 3
0000
0000
0000
0000
,  // measure 4
0000
0000
0000
0000
0000
0000
1000
0001
,  // measure 5
2000
3000
0002
0003
,  // measure 6
0200
0300
0020
0030
,  // measure 7
2000
3000
0200
0300
,  // measure 8
0020
0000
0030
0000
0002
0000
1003
0100
,  // measure 9
1000
0000
0010
0000
0100
0000
0001
0010
,  // measure 10
0001
0000
1000
0000
0100
0000
1000
0010
,  // measure 11
1000
0000
1000
0001
1000
0000
0100
2000
,  // measure 12
0002
0000
3003
0000
0010
0001
0010
0000
,  // measure 13
0001
0000
0101
0000
0100
0010
0100
0000
,  // measure 14
0010
0000
1010
0000
1000
0100
1000
0000
,  // measure 15
0001
0000
1001
0000
0001
0100
0001
0000
,  // measure 16
1000
0000
1001
0000
1000
0010
1000
0000
,  // measure 17
0100
0000
0110
0000
0100
1000
0100
0000
,  // measure 18
0010
0000
0011
0000
0001
0100
0001
0000
,  // measure 19
0010
0000
0100
0000
1000
0010
1000
0000
,  // measure 20
0200
0000
2000
3300
,  // measure 21
0020
0000
0200
0330
,  // measure 22
0002
0000
0020
0033
,  // measure 23
0002
0000
2000
3003
,  // measure 24
2000
0000
0002
3003
,  // measure 25
0200
0000
0020
0330
,  // measure 26
0020
0000
2000
3030
,  // measure 27
2000
0000
0002
3003
,  // measure 28
0002
0000
0000
0000
0000
0000
0000
0000
0000
0000
0000
0000
0000
0000
0000
0000
0000
0000
0000
0000
0000
0000
0000
0000
0000
0000
0000
0000
0000
0000
0000
0000
0000
0000
0000
0000
0000
0000
0000
0000
0000
0000
0000
0000
0000
0000
0000
0000
0000
0000
0000
0000
0000
0000
0000
0000
0000
0000
0000
0000
0000
0000
0000
0000
0000
0000
0000
0000
0000
0000
0000
0000
0000
0000
0000
0000
0000
0000
0000
0000
0000
0000
0000
0000
0000
0000
0000
0000
0000
0000
0000
0000
0000
0000
0000
0000
2000
0000
0000
0000
0000
0000
0000
0000
0000
0000
0000
0000
0000
0000
0000
0000
0000
0000
0000
0000
0000
0000
0000
0000
0000
0000
0000
0000
0000
0000
0000
0000
0000
0000
0000
0000
0000
0000
0000
0000
0000
0000
0000
0000
0000
0000
0000
0000
0000
0000
0000
0000
0000
0000
0000
0000
0000
0000
0000
0000
0000
0000
0000
0000
0000
0000
0000
0000
0000
0000
0000
0000
0000
0000
0000
0000
0000
0000
0000
0000
0000
0000
0000
0000
0000
3003
0000
0000
0000
0000
0000
0000
0000
0000
0000
0000
;
