#TITLE:Sara;
#SUBTITLE:(Super Euro Version);
#ARTIST:BoA;
#TITLETRANSLIT:;
#SUBTITLETRANSLIT:;
#ARTISTTRANSLIT:;
#GENRE:;
#CREDIT:;
#BANNER:Sara (Super Euro Version).png;
#BACKGROUND:Sara (Super Euro Version)-bg.png;
#LYRICSPATH:;
#CDTITLE:CDTitle.png;
#MUSIC:Sara (Super Euro Version).ogg;
#OFFSET:-4.890000;
#SAMPLESTART:69.318001;
#SAMPLELENGTH:12.900000;
#SELECTABLE:YES;
#BPMS:0.000000=149.000000
;
#STOPS:
;
#BGCHANGES:;
#KEYSOUNDS:;
#ATTACKS:;

//---------------dance-single - ----------------
#NOTES:
     dance-single:
     :
     Challenge:
     10:
     0.769797,0.910246,0.394046,0.265981,0.758538,547.000000,507.000000,40.000000,27.000000,0.000000,0.000000,0.769797,0.910246,0.394046,0.265981,0.758538,547.000000,507.000000,40.000000,27.000000,0.000000,0.000000:
// measure 0
1010
0000
1001
0000
1000
0001
0100
0010
0100
0001
1000
0010
1000
0001
0100
0010
,  // measure 1
0100
0000
0101
0000
0001
1000
0010
0100
0001
0000
0101
0000
0110
0000
1010
0000
,  // measure 2
0010
1000
0010
0100
0001
0010
0001
0100
0010
1000
0100
0020
0000
0031
0010
0100
,  // measure 3
1000
0010
0100
0001
0010
0001
0100
0010
1000
0100
1000
0000
0001
0010
0001
1000
,  // measure 4
0100
1000
0001
0000
1000
0010
0000
0010
1000
0000
0100
0010
0001
0000
0100
0010
,  // measure 5
1000
0100
1000
0000
0001
0010
0000
0001
0100
0000
0010
1000
0010
0000
0100
0000
,  // measure 6
0001
0010
0001
1000
0100
1000
0001
0100
0001
1000
0010
1000
0001
1000
0010
0100
,  // measure 7
0001
0010
0100
1000
0010
1000
0100
0010
0001
1000
0001
1000
0001
1000
0001
1000
,  // measure 8
0100
0000
0010
0001
0000
0100
0000
1000
0000
0000
0000
0000
0100
0000
0001
0000
,  // measure 9
0010
0000
0100
1000
0000
0010
0000
0001
0000
0000
0000
0000
0010
0000
0100
0000
,  // measure 10
0001
0000
0010
0001
0000
0100
0000
0010
1000
0000
0100
0000
0010
0000
0001
0000
,  // measure 11
0010
0000
0100
1000
0000
0001
0100
0010
1000
0000
0000
0000
1010
0000
1010
0000
,  // measure 12
0110
0010
0100
0001
1000
0000
0010
1000
,  // measure 13
0100
0000
0001
0100
0000
1000
0000
0001
0000
0000
0000
0000
0010
0000
0001
0000
,  // measure 14
0100
0000
0010
1000
0000
0000
0100
0010
0000
0100
0000
0000
1000
0000
0001
0200
,  // measure 15
0000
0001
0301
0000
0001
1000
0100
1000
,  // measure 16
0001
0100
0010
0000
0010
1000
0001
0100
,  // measure 17
1000
0100
0001
0000
0010
0001
0100
1000
,  // measure 18
0010
1000
0100
0000
1000
0100
0001
0010
,  // measure 19
0001
0100
0010
0000
0010
0001
1000
0001
,  // measure 20
1000
0100
0001
0000
0010
0001
0100
0010
,  // measure 21
0100
1000
0001
0000
1000
0010
1000
0001
,  // measure 22
0000
0000
0010
0000
0100
1000
0000
0100
0000
0010
0000
0001
0100
0000
0010
0000
,  // measure 23
0110
0000
0000
1010
0000
0000
1001
0000
0001
0000
1000
0000
0010
0000
0100
0010
,  // measure 24
0100
0000
0010
1000
0000
0100
0000
1000
0000
0000
0000
0000
0010
0000
0100
0000
,  // measure 25
0001
0000
0010
0100
0000
1000
0000
0001
0000
0000
0000
0000
0010
0000
0001
0000
,  // measure 26
1000
0000
0010
2000
0000
0000
3010
0200
0000
0000
0301
0020
0000
0000
0031
0000
,  // measure 27
1000
0000
1000
0010
0000
1000
0100
1000
0100
0000
1000
0010
1000
0001
1000
0001
,  // measure 28
1000
0000
0001
0000
0100
0010
0100
0010
1000
0000
0000
0000
0010
0000
0100
0000
,  // measure 29
0010
0000
1000
0100
0000
1000
0000
0001
0000
0000
0000
0000
0010
0000
0001
0000
,  // measure 30
0100
0000
0010
1000
0000
0000
1000
0001
0000
0000
0001
1000
0000
0000
2000
0020
,  // measure 31
0000
0000
3030
0000
1000
0100
1000
0020
,  // measure 32
0100
0130
0110
0000
0010
1000
0001
0200
,  // measure 33
0001
0301
0101
0000
0001
0100
1000
0200
,  // measure 34
0001
0301
1001
0000
1000
0100
0001
0200
,  // measure 35
1000
1300
1001
0000
0010
0100
0001
0020
,  // measure 36
0001
0031
0011
0000
0100
0010
1000
0200
,  // measure 37
1000
1300
1100
0000
0010
0001
0100
1000
,  // measure 38
0000
0000
0100
0000
0001
0010
0000
0100
0000
1000
0000
0010
1000
0000
0100
0000
,  // measure 39
0110
0000
0000
0010
0001
0000
0011
0000
1001
0000
1010
0000
1001
0000
1000
0001
,  // measure 40
2000
0000
3010
1000
0001
0100
0110
0000
,  // measure 41
1020
0000
1030
0001
0100
0010
1000
0000
,  // measure 42
0012
1003
2010
3002
,  // measure 43
0023
0000
2030
0000
3200
0000
0301
1000
,  // measure 44
0200
0000
0310
0001
0100
1000
2100
0000
,  // measure 45
3020
0000
1030
0100
0001
0010
0011
0000
,  // measure 46
2001
3010
1002
0103
,  // measure 47
1001
0000
0000
0000
0000
0000
0000
0000
0110
0000
0000
0000
0000
0000
0000
0000
0010
1000
0010
0000
0100
0000
0001
0000
1000
0000
0000
0000
1001
0000
0000
0000
,  // measure 48
0101
0000
1001
0000
0001
1000
0010
0100
0010
1000
0001
0100
0001
1000
0010
0100
,  // measure 49
0010
0000
1010
0000
1000
0001
0100
0010
1000
0000
1010
0000
0110
0000
0101
0000
,  // measure 50
0100
0001
0100
0010
1000
0100
1000
0010
0100
0001
0010
0200
0000
1300
0100
0010
,  // measure 51
0001
0100
0010
1000
0100
1000
0010
0100
0001
0010
0001
0000
1000
0100
1000
0001
,  // measure 52
0010
0001
1000
0000
0001
0100
0000
0100
0001
0000
0010
0100
1000
0000
0010
0100
,  // measure 53
0001
0010
0001
0000
1000
0100
0000
1000
0010
0000
0100
0001
0100
0000
0010
0000
,  // measure 54
1000
0100
1000
0001
0010
0001
1000
0010
1000
0001
0100
0001
1000
0001
0100
0010
,  // measure 55
1000
0100
0010
0001
0100
0001
0010
0100
1000
0001
1000
0001
1000
0001
1000
0001
,  // measure 56
0010
0000
0000
0000
;

//---------------dance-single - ----------------
#NOTES:
     dance-single:
     :
     Hard:
     8:
     0.558701,0.496498,0.137916,0.256130,0.019702,397.000000,383.000000,14.000000,26.000000,0.000000,0.000000,0.558701,0.496498,0.137916,0.256130,0.019702,397.000000,383.000000,14.000000,26.000000,0.000000,0.000000:
// measure 0
1000
0010
0100
0001
0010
0001
0100
0010
,  // measure 1
1000
0100
0010
0001
0100
0001
0010
0100
,  // measure 2
1000
0010
1000
0010
0001
0010
0001
0010
,  // measure 3
0001
0100
0001
0100
1000
0100
1000
0100
,  // measure 4
0010
0000
0001
0000
0100
0000
0000
0010
1000
0000
0100
0000
1000
0000
0010
0000
,  // measure 5
0100
0000
0001
0000
0010
0000
0000
0001
0100
0000
0010
0000
0100
0000
0001
0000
,  // measure 6
0010
1000
0010
1000
0100
1000
0100
1000
,  // measure 7
0100
0001
0100
0001
0010
0001
0010
0001
,  // measure 8
0100
0000
0010
1000
0100
0000
0010
0001
,  // measure 9
0010
0100
1000
0010
0100
0000
0001
0010
,  // measure 10
0001
0100
0001
0100
0010
1000
0010
1000
,  // measure 11
0001
0010
0001
1000
0100
0000
0100
1000
,  // measure 12
0100
0010
0100
1000
0010
0000
0010
0001
,  // measure 13
0010
0100
0010
1000
0100
0000
0100
0010
,  // measure 14
0001
1000
0010
0100
0001
0010
0100
1000
,  // measure 15
0002
0000
1003
0000
1000
0100
1000
0002
,  // measure 16
0000
0103
0010
0000
0010
0100
0001
0020
,  // measure 17
0000
0130
1000
0000
0100
1000
0010
2000
,  // measure 18
0000
3001
0010
0000
0001
0100
0001
0200
,  // measure 19
0000
0310
1000
0000
0010
1000
0100
0020
,  // measure 20
0000
0031
1000
0000
0001
0010
0100
2000
,  // measure 21
0000
3010
0100
0000
0010
1000
0100
1000
,  // measure 22
0000
0010
0100
0000
0010
1000
0100
0000
,  // measure 23
0010
0001
0100
0000
0010
1000
0100
0010
,  // measure 24
0001
0100
0001
0010
0100
0000
1000
0010
,  // measure 25
0100
0001
0010
0001
0100
0000
0001
1000
,  // measure 26
0100
0010
0100
0010
0001
0100
0001
0100
,  // measure 27
0001
0010
0100
1000
0010
0000
1000
0100
,  // measure 28
1000
0010
0100
0001
0010
0000
0010
0001
,  // measure 29
0100
0010
1000
0100
1000
0000
1000
0001
,  // measure 30
0010
0100
1000
0010
0100
0001
0010
0001
,  // measure 31
0200
0000
0310
0000
0010
1000
0001
0200
,  // measure 32
0000
0310
0110
0000
0010
1000
0100
2000
,  // measure 33
0000
3001
1001
0000
0001
0010
0100
2000
,  // measure 34
0000
3010
0110
0000
0010
0100
0001
0020
,  // measure 35
0000
0031
0101
0000
0100
0010
0100
0002
,  // measure 36
0000
1003
1100
0000
0010
0001
0100
2000
,  // measure 37
0000
3100
0101
0000
0010
0100
1000
0010
,  // measure 38
0000
1000
0100
0000
0010
0001
0100
0000
,  // measure 39
0010
1000
0100
0000
0010
0001
0100
0010
,  // measure 40
2000
0000
3010
0100
0001
0010
0011
0000
,  // measure 41
0200
0000
1300
0010
0100
0010
1010
0000
,  // measure 42
0200
0302
0023
0230
,  // measure 43
2300
0000
3200
0000
0320
0000
0031
0100
,  // measure 44
0020
0000
1030
0100
1000
0010
0110
0000
,  // measure 45
0200
0000
0301
0010
0001
1000
1001
0000
,  // measure 46
2000
0000
3001
0100
0010
0100
0110
0000
,  // measure 47
1010
0000
1000
0010
0110
0000
0001
1001
,  // measure 48
1000
0100
1000
0010
0100
0001
0100
0010
,  // measure 49
1000
0100
0010
0001
0100
0001
0010
0100
,  // measure 50
1000
0010
1000
0010
0001
0010
0001
0010
,  // measure 51
0001
0100
0001
0100
1000
0100
1000
0100
,  // measure 52
0010
0000
0001
0000
0100
0000
0000
0010
1000
0000
0100
0000
1000
0000
0010
0000
,  // measure 53
0100
0000
0001
0000
0010
0000
0000
0001
0100
0000
0010
0000
1000
0000
0100
0000
,  // measure 54
0010
0001
0010
0001
0100
0001
0100
0001
,  // measure 55
0100
1000
0100
1000
0010
1000
0010
1000
,  // measure 56
0001
0000
0000
0000
;

//---------------dance-single - ----------------
#NOTES:
     dance-single:
     :
     Medium:
     6:
     0.402490,0.386165,0.137916,0.571367,0.000000,286.000000,272.000000,14.000000,58.000000,0.000000,0.000000,0.402490,0.386165,0.137916,0.571367,0.000000,286.000000,272.000000,14.000000,58.000000,0.000000,0.000000:
// measure 0
1000
0001
1000
0000
0001
0100
0001
0000
,  // measure 1
0100
0010
0100
0000
0010
1000
0010
0000
,  // measure 2
2000
3200
2300
3020
,  // measure 3
0230
0000
0302
0000
0203
0000
0310
1000
,  // measure 4
0010
0000
1000
0000
0001
0100
0001
0000
,  // measure 5
1000
0000
0010
0000
1000
0100
1000
0000
,  // measure 6
0020
0230
0302
0023
,  // measure 7
0032
0000
0203
0000
0310
1000
0010
1000
,  // measure 8
0100
0000
0010
0000
0001
0000
1000
0100
,  // measure 9
1000
0000
0010
0000
0100
0000
0001
0010
,  // measure 10
0001
0001
1000
1000
,  // measure 11
0010
0000
0100
0000
0010
0000
0100
0001
,  // measure 12
0100
0000
0010
0000
1000
0000
0010
0100
,  // measure 13
0010
0000
1000
0000
0100
0000
1000
0001
,  // measure 14
1000
0000
0010
0100
0010
0000
0100
0001
,  // measure 15
2000
0000
3000
0000
0001
0010
0001
0000
,  // measure 16
1000
0000
1100
0000
0010
0100
0010
0000
,  // measure 17
1000
0000
1001
0000
0001
0010
0001
0000
,  // measure 18
0100
0000
0110
0000
0010
1000
0010
0000
,  // measure 19
1000
0000
1001
0000
0001
0010
0001
0000
,  // measure 20
0100
0000
0110
0000
0001
0010
0001
0000
,  // measure 21
0010
0000
0110
0000
0100
1000
0100
0000
,  // measure 22
1000
1000
0001
0001
,  // measure 23
1001
0110
2002
3003
,  // measure 24
0001
0010
0001
0000
1000
0000
0001
0100
,  // measure 25
0001
0000
1000
0000
0010
0000
0100
0001
,  // measure 26
0100
0010
1000
0100
,  // measure 27
0010
0000
0100
0000
1000
0000
0010
0100
,  // measure 28
0010
0000
0100
0000
0010
0000
1000
0100
,  // measure 29
1000
0000
0010
0000
0100
0000
0001
0010
,  // measure 30
0001
0000
0001
1000
0001
0000
0001
1000
,  // measure 31
0200
0000
0300
0000
1000
0010
0100
0002
,  // measure 32
0000
1000
1003
0000
0001
0100
0010
2000
,  // measure 33
0000
0001
3001
0000
0010
0100
0010
0200
,  // measure 34
0000
0010
0310
0000
0100
1000
0100
2000
,  // measure 35
0000
0010
3010
0000
0100
0001
0100
0002
,  // measure 36
0000
1000
1003
0000
0010
0100
0010
0200
,  // measure 37
0000
0001
0301
0000
0010
0001
0100
0001
,  // measure 38
0000
0010
0100
0000
1000
0000
0010
0000
,  // measure 39
0200
0302
2000
3003
,  // measure 40
1002
1000
2000
3003
,  // measure 41
0210
0010
0020
0330
,  // measure 42
0020
2030
3200
2300
,  // measure 43
3020
0230
0302
1000
,  // measure 44
2003
0001
0002
3003
,  // measure 45
0002
0100
0200
0303
,  // measure 46
0020
1000
2030
3100
,  // measure 47
1100
0011
2002
3003
,  // measure 48
0010
0100
0010
0000
1000
0100
1000
0000
,  // measure 49
0001
0010
0001
0000
0100
0001
0100
0000
,  // measure 50
0020
2030
3200
0320
,  // measure 51
0230
0000
2300
0000
3020
0000
0130
0001
,  // measure 52
0100
0001
0100
0000
0010
1000
0010
0000
,  // measure 53
1000
0001
1000
0000
0001
0010
0001
0000
,  // measure 54
2000
3002
0023
0032
,  // measure 55
0203
0000
0320
0000
0130
0001
1000
0001
,  // measure 56
1000
0000
0000
0000
;

//---------------dance-single - ----------------
#NOTES:
     dance-single:
     :
     Beginner:
     1:
     0.140731,0.165499,0.049256,0.216725,0.000000,100.000000,95.000000,5.000000,22.000000,0.000000,0.000000,0.140731,0.165499,0.049256,0.216725,0.000000,100.000000,95.000000,5.000000,22.000000,0.000000,0.000000:
// measure 0
1000
0000
1000
0000
,  // measure 1
0001
0000
0001
0000
,  // measure 2
2000
0000
3000
0000
,  // measure 3
0002
0000
0003
0000
,  // measure 4
0100
0000
0100
0000
,  // measure 5
0010
0000
0010
0000
,  // measure 6
0200
0000
0300
0000
,  // measure 7
0020
0000
0030
0000
,  // measure 8
1000
0000
1000
0000
,  // measure 9
0001
0000
0001
0000
,  // measure 10
1000
0000
0001
0000
,  // measure 11
1000
0000
0001
0000
,  // measure 12
0100
0000
0100
0000
,  // measure 13
0010
0000
0010
0000
,  // measure 14
0100
0000
0010
0000
,  // measure 15
0220
0000
0330
0000
,  // measure 16
1000
1000
0000
0000
,  // measure 17
0001
0001
0000
0000
,  // measure 18
0100
0100
0000
0000
,  // measure 19
0010
0010
0000
0000
,  // measure 20
0010
0010
0000
0000
,  // measure 21
0100
0100
0000
0000
,  // measure 22
0001
0000
1000
0000
,  // measure 23
2002
0000
3003
0000
,  // measure 24
0010
0000
0010
0000
,  // measure 25
0100
0000
0100
0000
,  // measure 26
0010
0000
0100
0000
,  // measure 27
0010
0000
0100
0000
,  // measure 28
0001
0000
0001
0000
,  // measure 29
1000
0000
1000
0000
,  // measure 30
0001
0000
1000
0000
,  // measure 31
2002
0000
3003
0000
,  // measure 32
0010
0010
0000
0000
,  // measure 33
0100
0100
0000
0000
,  // measure 34
0001
0001
0000
0000
,  // measure 35
1000
1000
0000
0000
,  // measure 36
1000
1000
0000
0000
,  // measure 37
0001
0001
0000
0000
,  // measure 38
0100
0000
0010
0000
,  // measure 39
0220
0000
0330
0000
,  // measure 40
2000
0000
3000
0000
,  // measure 41
0002
0000
0003
0000
,  // measure 42
1000
0000
0001
0000
,  // measure 43
2000
0000
3000
0000
,  // measure 44
0002
0000
0003
0000
,  // measure 45
2000
0000
3000
0000
,  // measure 46
0001
0000
1000
0000
,  // measure 47
0002
0000
0003
0000
,  // measure 48
0100
0000
0010
0000
,  // measure 49
0100
0000
0010
0000
,  // measure 50
0200
0000
0300
0000
,  // measure 51
0020
0000
0030
0000
,  // measure 52
1000
0000
0001
0000
,  // measure 53
1000
0000
0001
0000
,  // measure 54
2000
0000
3000
0000
,  // measure 55
0002
0000
0003
0000
,  // measure 56
1001
0000
0000
0000
;

//---------------dance-single - ----------------
#NOTES:
     dance-single:
     :
     Easy:
     4:
     0.311015,0.358582,0.177321,0.482706,0.000000,221.000000,203.000000,18.000000,49.000000,0.000000,0.000000,0.311015,0.358582,0.177321,0.482706,0.000000,221.000000,203.000000,18.000000,49.000000,0.000000,0.000000:
// measure 0
1000
1000
0001
0001
,  // measure 1
0100
0100
0010
0010
,  // measure 2
2000
3200
2300
3200
,  // measure 3
0320
0032
0023
0031
,  // measure 4
0100
0010
0100
0010
,  // measure 5
1000
0001
1000
0001
,  // measure 6
2000
3020
2030
3020
,  // measure 7
0230
0302
0103
0100
,  // measure 8
0001
1000
0001
1000
,  // measure 9
1000
0001
1000
0001
,  // measure 10
0001
0010
0001
0100
,  // measure 11
0010
1000
0100
1000
,  // measure 12
1000
0010
1000
0001
,  // measure 13
0001
0100
0001
1000
,  // measure 14
1000
0001
0100
0010
,  // measure 15
0220
0330
0010
0010
,  // measure 16
1000
1001
0001
0001
,  // measure 17
0100
0101
0001
0001
,  // measure 18
1000
1001
0001
0001
,  // measure 19
0010
0011
0001
1000
,  // measure 20
0100
1100
0100
0100
,  // measure 21
0010
0110
0010
0010
,  // measure 22
0001
1001
1000
1001
,  // measure 23
0210
0000
0020
0330
,  // measure 24
0010
1000
0001
0100
,  // measure 25
0100
0001
1000
0001
,  // measure 26
0001
0010
0001
0100
,  // measure 27
0010
1000
0100
1000
,  // measure 28
1000
0001
0010
0001
,  // measure 29
0001
1000
0010
0100
,  // measure 30
0100
0010
1000
0001
,  // measure 31
2002
3003
0001
0001
,  // measure 32
1000
1100
1000
1000
,  // measure 33
0001
0101
0001
0001
,  // measure 34
1000
1010
1000
1000
,  // measure 35
0001
0011
0010
0010
,  // measure 36
0100
0110
0100
0100
,  // measure 37
1000
1001
0001
0001
,  // measure 38
1000
0010
0100
0001
,  // measure 39
1002
0000
2000
3003
,  // measure 40
0002
0000
1003
0000
,  // measure 41
2000
0000
3001
0000
,  // measure 42
0020
0000
0230
0000
,  // measure 43
0320
0000
0032
0000
,  // measure 44
2003
0000
3001
0000
,  // measure 45
0002
0000
1003
0000
,  // measure 46
0200
0000
0320
0030
,  // measure 47
0020
0000
0032
0003
,  // measure 48
1000
1000
0001
0001
,  // measure 49
0100
0100
0010
0010
,  // measure 50
2000
3200
2300
3200
,  // measure 51
0320
0032
0023
0032
,  // measure 52
1003
1000
0001
0100
,  // measure 53
0010
0010
0100
0001
,  // measure 54
2000
3200
2300
3020
,  // measure 55
0230
0302
0023
0230
,  // measure 56
1300
0000
0000
0000
;
