#VERSION:0.83;
#TITLE:Look Who's Talking;
#SUBTITLE:;
#ARTIST:BoA;
#TITLETRANSLIT:;
#SUBTITLETRANSLIT:;
#ARTISTTRANSLIT:;
#GENRE:POP;
#ORIGIN:;
#CREDIT:;
#BANNER:Look Who's Talking.png;
#BACKGROUND:Look Who's Talking-bg.png;
#PREVIEWVID:;
#JACKET:Look Who's Talking-jacket.png;
#CDIMAGE:;
#DISCIMAGE:;
#LYRICSPATH:;
#CDTITLE:CDTitle.png;
#MUSIC:Look Who's Talking.ogg;
#OFFSET:0.000000;
#SAMPLESTART:50.900002;
#SAMPLELENGTH:16.600000;
#SELECTABLE:YES;
#BPMS:0.000=113.002;
#STOPS:163.000=0.531;
#DELAYS:;
#WARPS:;
#TIMESIGNATURES:0.000=4=4;
#TICKCOUNTS:0.000=4;
#COMBOS:0.000=1;
#SPEEDS:0.000=1.000=0.000=0;
#SCROLLS:0.000=1.000;
#FAKES:;
#LABELS:0.000=Song Start;
#BGCHANGES:28.000=Look Who's Talking.avi=1.000=1=0=1===CrossFade==,
223.000=Look Who's Talking-bg.png=1.000=0=0=1=====,
99999=-nosongbg-=1.000=0=0=0 // don't automatically add -songbackground-
;
#KEYSOUNDS:;
#ATTACKS:
;

//---------------dance-single - ----------------
#NOTEDATA:;
#CHARTNAME:;
#STEPSTYPE:dance-single;
#DESCRIPTION:;
#CHARTSTYLE:;
#DIFFICULTY:Hard;
#METER:7;
#RADARVALUES:0.458204,0.419096,0.342460,0.108585,0.154525,384.000000,343.000000,41.000000,13.000000,0.000000,0.000000,0.000000,0.000000,0.000000,0.458204,0.419096,0.342460,0.108585,0.154525,384.000000,343.000000,41.000000,13.000000,0.000000,0.000000,0.000000,0.000000,0.000000;
#CREDIT:DDRDAIKENKAI;
#NOTES:
// measure 0
0000
0000
0000
0000
,  // measure 1
0000
0000
0000
0000
,  // measure 2
0000
0000
0000
0000
,  // measure 3
0001
0000
0001
1000
0001
0000
0002
0000
0003
0000
0000
0000
0000
0000
0000
0000
,  // measure 4
0100
0000
0001
0000
1000
0000
0100
0000
0010
0000
0000
0001
1000
0000
0000
0000
,  // measure 5
0001
0000
1000
0000
0010
0000
0100
0000
0001
0000
0000
1000
0100
0000
0000
0000
,  // measure 6
0010
0000
0001
0000
0010
0000
0100
0000
1000
0000
0000
0001
0100
0000
0000
0000
,  // measure 7
0010
0100
0010
1000
0002
1000
1003
0000
,  // measure 8
1000
0000
0001
0000
0100
0000
0000
0010
1000
0000
1000
0100
0000
0000
0000
0000
,  // measure 9
0010
0000
0001
0000
0200
0000
0000
0000
0301
0010
0001
0010
0001
0000
0000
0000
,  // measure 10
1000
0000
0000
1000
0010
0000
0000
0000
0100
0000
0000
0100
0001
0000
1000
0000
,  // measure 11
0100
0000
0000
0100
0010
0000
0001
0000
2000
0000
0000
0100
0000
0000
3010
0000
,  // measure 12
0001
0000
0010
0000
1000
0000
0010
0000
0100
0000
0001
1000
0000
0000
0100
0000
,  // measure 13
0001
0000
0100
0000
1000
0000
0100
0000
0010
0000
0001
1000
0000
0000
0010
0000
,  // measure 14
0100
0000
0000
0100
0010
0000
0000
0000
1000
0000
0000
1000
0001
0000
1000
0000
,  // measure 15
0100
1000
0010
0001
0100
0001
0010
1000
,  // measure 16
0100
1000
0010
1000
0100
0001
0100
1000
,  // measure 17
0001
1000
0010
1000
0001
0010
0100
0010
,  // measure 18
0001
0000
0000
0100
0010
0000
0000
0000
1000
0000
0000
0100
0010
0000
0001
1000
,  // measure 19
0001
0000
0000
1000
0100
0000
0000
0000
1000
0000
0000
0001
0100
0000
0001
1000
,  // measure 20
0001
1000
0010
0001
0010
1000
0001
1000
,  // measure 21
0100
1000
0010
1000
0100
0010
0100
1000
,  // measure 22
0010
1000
0100
0010
0001
0000
0100
0000
,  // measure 23
0010
1000
0100
0010
0002
0000
1003
0000
,  // measure 24
0110
1001
0120
1030
,  // measure 25
0001
0010
1000
0010
0001
0010
0100
0000
,  // measure 26
1000
0010
0001
0010
1000
0010
0200
0000
,  // measure 27
0301
0011
1010
0011
,  // measure 28
1001
0000
0110
0000
2001
0000
3100
1000
,  // measure 29
0001
0000
0010
0001
0010
0000
0100
0000
1000
0000
0001
0000
0100
0000
0000
0000
,  // measure 30
0010
1000
0100
1000
0010
1000
0001
0100
,  // measure 31
0010
0110
1010
1001
,  // measure 32
1000
0001
0100
0010
0000
0100
0000
0001
,  // measure 33
0000
0010
1000
0010
0001
0000
0101
0000
,  // measure 34
0100
0010
1000
0100
0000
0010
0000
0100
,  // measure 35
0000
1000
1010
0000
1001
0000
0101
0000
,  // measure 36
1000
0000
0000
0001
0100
0000
0000
0000
0010
0000
0000
1000
0100
0000
1000
0001
,  // measure 37
1000
0000
0000
0001
0100
0000
0000
0000
0010
0000
0000
0100
0001
0000
0010
0100
,  // measure 38
0010
0000
0000
0100
1000
0000
0000
0000
0001
0000
0000
0100
0010
0000
1000
0001
,  // measure 39
1000
1010
0011
0101
,  // measure 40
1200
0000
0320
0000
0032
0000
0003
0001
,  // measure 41
1000
0001
0100
0010
1000
0000
1000
0001
,  // measure 42
1000
0010
0100
0001
2000
0000
3001
0000
,  // measure 43
0101
1100
0101
0110
,  // measure 44
1001
0000
0000
0000
0110
0000
0000
1000
0001
0000
0000
0000
1000
0000
0001
1000
,  // measure 45
0001
1000
0010
0100
0001
0000
1000
0010
,  // measure 46
0001
0010
0100
1000
0100
0001
1000
0000
,  // measure 47
1100
0101
1100
1001
,  // measure 48
0110
0000
0000
0000
1001
0000
0000
0100
0010
0000
0000
0000
0001
0000
0010
0000
,  // measure 49
0001
0100
0010
1000
0001
0000
1000
0100
,  // measure 50
1000
0010
0100
0001
2000
0000
3001
0000
,  // measure 51
0101
1100
0101
1001
,  // measure 52
0110
0000
0000
0000
1001
0000
0000
0010
0100
0000
0000
0000
0010
0000
1000
0001
,  // measure 53
1000
0001
0100
0010
1000
0000
0001
1000
,  // measure 54
0010
0100
0001
1000
0010
0100
0001
0000
,  // measure 55
0101
1100
0101
1000
;

//---------------dance-single - ----------------
#NOTEDATA:;
#CHARTNAME:;
#STEPSTYPE:dance-single;
#DESCRIPTION:;
#CHARTSTYLE:;
#DIFFICULTY:Medium;
#METER:5;
#RADARVALUES:0.311436,0.325963,0.158701,0.350813,0.000000,261.000000,242.000000,19.000000,42.000000,0.000000,0.000000,0.000000,0.000000,0.000000,0.311436,0.325963,0.158701,0.350813,0.000000,261.000000,242.000000,19.000000,42.000000,0.000000,0.000000,0.000000,0.000000,0.000000;
#CREDIT:DDRDAIKENKAI;
#NOTES:
// measure 0
0000
0000
0000
0000
,  // measure 1
0000
0000
0000
0000
,  // measure 2
0000
0000
0000
0000
,  // measure 3
0000
0000
0000
0000
,  // measure 4
0010
0000
1001
0000
0100
0001
1000
0000
,  // measure 5
0010
0000
1001
0000
0100
1000
0001
0000
,  // measure 6
0010
0000
1001
0000
0001
1000
0100
0000
,  // measure 7
0010
0000
1001
0000
0001
0001
0002
0000
,  // measure 8
1003
0100
1000
0000
0010
1000
0100
0000
,  // measure 9
1000
0001
1000
0000
0001
0001
0001
0000
,  // measure 10
0100
0010
0200
0000
0301
0000
0010
0000
,  // measure 11
0100
0010
0200
0000
1300
0000
0000
0000
,  // measure 12
0001
0001
0100
0000
1000
0100
0001
0000
,  // measure 13
1000
1000
0010
0000
0001
0010
1000
0000
,  // measure 14
0001
0001
0001
0000
1000
0000
0100
0000
,  // measure 15
1000
1000
1000
0000
2002
0000
3003
0000
,  // measure 16
0000
0100
0001
0100
0000
0100
0010
0100
,  // measure 17
0000
0100
1000
0100
0000
0100
0010
0100
,  // measure 18
0001
0000
0010
0000
0100
1000
0001
0000
,  // measure 19
0100
0000
0001
0000
1000
0010
0100
0000
,  // measure 20
0000
0001
0010
0001
0000
0001
1000
0001
,  // measure 21
0000
0001
0100
0001
0000
0001
0010
0001
,  // measure 22
1000
0000
0100
1000
0002
0000
0103
0000
,  // measure 23
0001
0000
1000
0001
0200
0000
0300
0000
,  // measure 24
0110
0100
2002
3003
,  // measure 25
0001
0000
1000
0000
0100
0010
0001
0000
,  // measure 26
0100
0000
0001
0000
0010
0100
1000
0000
,  // measure 27
0001
2000
3002
1003
,  // measure 28
1002
0103
0220
0330
,  // measure 29
0010
0000
1000
0000
0100
0010
0001
0000
,  // measure 30
0100
0000
0001
0000
0010
0100
1000
0000
,  // measure 31
0001
2000
3002
2003
,  // measure 32
3200
0001
0000
0010
,  // measure 33
0000
1000
1000
1300
,  // measure 34
0002
0100
0000
1000
,  // measure 35
0000
0010
0010
0010
,  // measure 36
0013
0000
0101
0000
0100
0001
0010
0000
,  // measure 37
0100
0000
1010
0000
0010
1000
0100
0000
,  // measure 38
1000
0000
0011
0000
0100
0001
1000
0000
,  // measure 39
0100
0002
0203
2300
,  // measure 40
3020
1000
2000
3030
,  // measure 41
0110
0000
0010
0001
0100
0000
0001
0000
,  // measure 42
0010
0000
0100
1000
0010
0000
1000
0000
,  // measure 43
0200
0320
0031
1002
,  // measure 44
0103
0220
0330
0100
,  // measure 45
0100
0000
0001
0010
0100
0000
1000
0000
,  // measure 46
1000
0000
0100
0010
0001
0000
1000
0000
,  // measure 47
0002
2003
3001
1002
,  // measure 48
0103
0000
0220
0000
0330
0000
0010
1000
,  // measure 49
0010
0000
0100
0001
1000
0000
0100
1000
,  // measure 50
0100
0000
0010
0100
1000
0000
0001
0000
,  // measure 51
0020
0230
1300
1002
,  // measure 52
0103
0220
0330
0010
,  // measure 53
1000
0001
1000
0001
1000
0000
0010
0000
,  // measure 54
0100
0001
0100
0001
0010
0000
0100
0000
,  // measure 55
2000
3020
0230
0301
;

//---------------dance-single - ----------------
#NOTEDATA:;
#CHARTNAME:;
#STEPSTYPE:dance-single;
#DESCRIPTION:;
#CHARTSTYLE:;
#DIFFICULTY:Challenge;
#METER:9;
#RADARVALUES:0.591847,0.768342,0.359165,0.576335,0.668215,496.000000,453.000000,43.000000,69.000000,32.000000,0.000000,0.000000,0.000000,0.000000,0.591847,0.768342,0.359165,0.576335,0.668215,496.000000,453.000000,43.000000,69.000000,32.000000,0.000000,0.000000,0.000000,0.000000;
#CREDIT:DDRDAIKENKAI;
#NOTES:
// measure 0
0000
0000
0000
0000
,  // measure 1
0000
0000
0000
0000
,  // measure 2
0001
0000
0001
1000
0001
0000
0002
0000
0003
0000
0000
0000
0000
0000
0000
0000
,  // measure 3
0001
0000
0001
1000
0001
0000
0002
0000
0003
0000
0000
0000
0000
0000
0000
0000
,  // measure 4
0110
0000
0000
0001
1000
0000
0000
0000
0100
0000
0000
1000
0001
0000
0100
0010
,  // measure 5
0100
0000
0000
0001
1000
0000
0000
0000
0100
0000
0000
1000
0001
0000
0100
0010
,  // measure 6
0100
0000
0000
0001
0010
0000
0000
0000
0100
0000
0000
1000
0010
0000
1000
0001
,  // measure 7
1000
0000
0000
0001
0100
0000
0001
0000
2001
0000
0001
0000
3002
0000
0000
0000
,  // measure 8
0103
0000
0000
0001
1000
0000
0000
0000
0100
0000
0000
0010
0001
0000
1000
0001
,  // measure 9
1000
0000
0000
0001
0100
0000
0000
0000
0010
0000
0000
1000
0100
0000
1000
0001
,  // measure 10
0100
0001
0100
0000
0101
0000
0000
0000
1010
0000
0000
1000
0100
0010
0001
0000
,  // measure 11
0010
0100
0010
0000
0110
0000
0000
0000
0200
0000
0000
0001
0000
0000
1300
0000
,  // measure 12
0001
0000
0000
0100
1000
0000
0000
0000
0100
0000
0000
0001
1000
0000
0100
0010
,  // measure 13
0100
0000
0000
1000
0010
0000
0000
0000
0001
0000
0000
0010
1000
0000
0001
1000
,  // measure 14
0100
1000
0100
0000
1100
0000
0000
0000
0011
0000
0000
0001
0100
0010
1000
0000
,  // measure 15
0100
1000
0010
1000
0100
0010
0100
1000
0010
0100
0001
0010
0100
0010
0001
1000
,  // measure 16
0010
0000
0000
1000
0001
0000
0100
0000
0010
0000
0000
1000
0001
0000
0100
0010
,  // measure 17
0100
0000
0000
0001
1000
0000
0010
0000
0100
0000
0000
0001
1000
0000
0010
0100
,  // measure 18
0001
0010
0001
0010
1000
0010
1000
0010
0100
0010
0100
0010
0001
0010
0001
0010
,  // measure 19
0001
1000
0001
1000
0010
1000
0010
1000
0100
0010
0100
0010
0001
1000
0001
1000
,  // measure 20
0010
0000
0000
1000
0100
0000
0001
0000
1000
0000
0000
0010
0001
0000
1000
0010
,  // measure 21
1000
0000
0000
0010
0100
0000
1000
0000
0100
0000
0000
0001
1000
0000
0100
0010
,  // measure 22
0100
0000
1000
0001
0100
0000
0001
0000
1000
0000
0000
0010
1000
0000
0010
0100
,  // measure 23
0010
0000
0100
0001
1000
0000
0001
0000
2002
0000
0000
0000
3003
0000
0000
0000
,  // measure 24
0210
0000
0000
0301
1000
0000
0000
0000
0110
0000
0000
1000
0001
0000
1000
0100
,  // measure 25
2000
0000
0000
3001
0100
0000
0000
0000
0010
0000
0000
1000
0100
0000
1000
0001
,  // measure 26
2000
0000
0000
3010
0100
0000
0000
0000
0001
0000
0000
0100
0010
0000
0100
0010
,  // measure 27
0200
0300
0022
0033
2002
3003
2020
3030
,  // measure 28
0120
0000
0000
1030
0001
0000
0000
0000
0110
0000
0000
0001
1000
0000
0100
0010
,  // measure 29
0200
0000
0000
1300
0001
0000
0000
0000
0100
0000
0000
0001
1000
0000
0010
1000
,  // measure 30
0020
0000
0000
0130
0001
0000
0000
0000
1000
0000
0000
0100
0010
0000
0001
1000
,  // measure 31
0200
0300
0022
0033
2002
3003
2010
0000
,  // measure 32
3MM1
0000
0010
000M
1M00
0000
00M1
M000
0M00
0000
0010
000M
1M00
0000
00M1
0M00
,  // measure 33
M000
0000
0010
000M
1M00
0000
00M1
M000
01M1
0000
0000
000M
11M0
0000
000M
0M00
,  // measure 34
M001
0000
0100
00M0
100M
0000
M001
00M0
M000
0000
0100
000M
10M0
0000
0M01
M000
,  // measure 35
00M0
0100
0202
0303
2200
3300
0102
0000
,  // measure 36
1003
0100
0010
0100
0001
0100
0010
0100
1000
0100
0001
0100
1000
0100
0010
0100
,  // measure 37
1000
0010
0100
0010
0001
0010
0100
0010
1000
0010
0001
0010
1000
0010
0100
0010
,  // measure 38
1000
0001
0100
0001
1000
0010
0100
0001
1000
0100
1000
0001
0100
0010
0100
0001
,  // measure 39
0010
0001
1000
0100
0020
0000
0000
0000
0032
0000
0000
0000
0203
0000
0000
0000
,  // measure 40
2300
0000
0001
0000
0002
0000
3003
0010
,  // measure 41
0110
0000
0000
0000
1001
0000
0000
1000
0001
0000
1000
0100
1000
0000
0000
1000
,  // measure 42
0001
0000
0000
0000
0100
0000
0000
0100
0001
0000
0010
0100
0020
0000
0030
0000
,  // measure 43
0022
0000
0033
0000
2002
0000
3003
0000
2020
0000
3030
0000
0120
0000
0000
1030
,  // measure 44
0001
0000
0000
0000
0210
0000
0000
0301
1000
0000
0100
1000
0200
0000
0000
1300
,  // measure 45
0001
0000
0000
0000
0010
0000
0000
0001
1000
0000
0010
1000
0020
0000
0000
0130
,  // measure 46
0001
0000
0000
0000
0010
0000
0000
0100
1000
0000
0010
1000
0020
0000
0030
0000
,  // measure 47
2020
0000
3030
0000
2002
0000
3003
0000
0201
0000
0301
0000
2001
0000
0000
3001
,  // measure 48
0100
0000
0000
0000
1002
0000
0000
1003
0100
0000
1000
0001
1000
0000
0001
1000
,  // measure 49
0100
0000
0100
0000
0010
0000
0100
0010
0001
0000
0100
0010
0100
0000
0010
1000
,  // measure 50
0010
0000
1000
0000
1000
0000
0001
1000
0010
0000
1000
0001
0100
0000
0010
0000
,  // measure 51
2020
0000
3030
0000
0220
0000
0330
0000
0202
0000
0303
0000
2001
0000
0000
3100
,  // measure 52
0010
0000
0000
0000
1002
0000
0000
0013
0100
0000
1000
0001
1000
0000
0001
0100
,  // measure 53
0010
0000
0100
0000
1000
0000
0100
0001
0100
0000
0001
0010
0001
0000
0001
1000
,  // measure 54
0100
0000
0100
0000
0010
0000
0010
0001
1000
0000
0001
1000
0001
0000
0000
0000
,  // measure 55
0022
0033
2020
3030
2200
3300
0001
0000
;

//---------------dance-single - ----------------
#NOTEDATA:;
#CHARTNAME:;
#STEPSTYPE:dance-single;
#DESCRIPTION:;
#CHARTSTYLE:;
#DIFFICULTY:Easy;
#METER:3;
#RADARVALUES:0.206431,0.232831,0.033411,0.467750,0.000000,173.000000,169.000000,4.000000,56.000000,0.000000,0.000000,0.000000,0.000000,0.000000,0.206431,0.232831,0.033411,0.467750,0.000000,173.000000,169.000000,4.000000,56.000000,0.000000,0.000000,0.000000,0.000000,0.000000;
#CREDIT:DDRDAIKENKAI;
#NOTES:
// measure 0
0000
0000
0000
0000
,  // measure 1
0000
0000
0000
0000
,  // measure 2
0000
0000
0000
0000
,  // measure 3
0000
0000
0000
0000
,  // measure 4
1001
0000
0100
0100
,  // measure 5
0001
0000
0010
0010
,  // measure 6
0001
0002
1003
2000
,  // measure 7
3001
1000
2002
3003
,  // measure 8
0002
0003
2000
3000
,  // measure 9
0200
0300
0010
0010
,  // measure 10
0001
0001
0002
0003
,  // measure 11
1000
2000
3000
0000
,  // measure 12
0001
0000
0100
0100
,  // measure 13
0010
0000
1000
1000
,  // measure 14
0001
0001
0001
0000
,  // measure 15
1000
1000
2002
3003
,  // measure 16
0001
0010
0100
1000
,  // measure 17
0001
0010
0100
1000
,  // measure 18
0002
0003
2000
3000
,  // measure 19
0020
0030
0200
0300
,  // measure 20
0001
0100
0010
1000
,  // measure 21
0001
0100
0010
1000
,  // measure 22
0010
0010
0020
0030
,  // measure 23
0010
0010
0020
0030
,  // measure 24
0120
0100
0200
0330
,  // measure 25
0001
0010
0100
0000
,  // measure 26
1000
0010
0100
0000
,  // measure 27
0001
2000
3002
2003
,  // measure 28
3002
1000
2000
3003
,  // measure 29
1000
0100
1000
0000
,  // measure 30
0010
0100
0010
0000
,  // measure 31
0100
0020
0230
0320
,  // measure 32
0230
0000
0000
0300
,  // measure 33
0002
0000
0000
0003
,  // measure 34
2000
0000
0000
3000
,  // measure 35
0200
0010
0010
0310
,  // measure 36
0020
0031
0010
0100
,  // measure 37
2000
3010
0100
0001
,  // measure 38
2000
3100
0010
0100
,  // measure 39
1000
0002
2003
3002
,  // measure 40
2003
0001
3001
0000
,  // measure 41
0001
0100
0100
0000
,  // measure 42
0001
0010
0010
0100
,  // measure 43
2000
3002
2003
3002
,  // measure 44
1000
2000
3003
0010
,  // measure 45
0010
0100
0100
0010
,  // measure 46
1000
0010
0010
1000
,  // measure 47
0002
2003
3002
0203
,  // measure 48
0010
0020
0330
0010
,  // measure 49
1000
0100
0100
0010
,  // measure 50
0001
0100
0100
0001
,  // measure 51
0020
0230
0320
0230
,  // measure 52
0010
0020
0330
0001
,  // measure 53
0010
0100
0100
0010
,  // measure 54
0001
0100
0010
1000
,  // measure 55
0002
2003
3002
1003
;

//---------------dance-single - ----------------
#NOTEDATA:;
#CHARTNAME:;
#STEPSTYPE:dance-single;
#DESCRIPTION:;
#CHARTSTYLE:;
#DIFFICULTY:Beginner;
#METER:1;
#RADARVALUES:0.159894,0.232831,0.033411,0.075174,0.000000,134.000000,130.000000,4.000000,9.000000,0.000000,0.000000,0.000000,0.000000,0.000000,0.159894,0.232831,0.033411,0.075174,0.000000,134.000000,130.000000,4.000000,9.000000,0.000000,0.000000,0.000000,0.000000,0.000000;
#CREDIT:DDRDAIKENKAI;
#NOTES:
// measure 0
0000
0000
0000
0000
,  // measure 1
0000
0000
0000
0000
,  // measure 2
0000
0000
0000
0000
,  // measure 3
0000
0000
0000
0000
,  // measure 4
1000
0000
0001
0000
,  // measure 5
1000
0000
0001
0000
,  // measure 6
0100
0000
0010
0000
,  // measure 7
0100
0000
0010
0000
,  // measure 8
1000
0000
1000
0000
,  // measure 9
0001
0000
0001
0000
,  // measure 10
0100
0200
0300
0000
,  // measure 11
0010
0020
0030
0000
,  // measure 12
0000
1000
0000
0100
,  // measure 13
0000
1000
0000
0001
,  // measure 14
0001
0002
0003
0000
,  // measure 15
0200
0000
0000
0300
,  // measure 16
0000
0100
0100
0100
,  // measure 17
0000
0001
0001
0001
,  // measure 18
0000
1000
0000
0100
,  // measure 19
0000
0010
0000
0001
,  // measure 20
0000
0010
0010
0010
,  // measure 21
0000
0100
0100
0100
,  // measure 22
0100
0000
1000
0000
,  // measure 23
0001
0000
1001
0000
,  // measure 24
0110
0110
0110
0000
,  // measure 25
0100
0000
0001
0000
,  // measure 26
1000
0000
0100
0000
,  // measure 27
0010
0010
0010
0010
,  // measure 28
0010
0010
0010
0000
,  // measure 29
0001
0000
1000
0000
,  // measure 30
0001
0001
0001
0000
,  // measure 31
0100
0100
0100
0100
,  // measure 32
0200
0000
0300
0000
,  // measure 33
0020
0000
0030
0000
,  // measure 34
2000
0000
3000
0000
,  // measure 35
0002
0000
0003
0000
,  // measure 36
1000
0000
0001
0000
,  // measure 37
1000
0000
0100
0000
,  // measure 38
0010
0000
0001
0000
,  // measure 39
1000
1000
1000
1000
,  // measure 40
2000
0000
3000
0000
,  // measure 41
0001
0001
0001
0000
,  // measure 42
0100
0100
0100
0000
,  // measure 43
0010
0010
0010
0010
,  // measure 44
0010
0010
0000
1000
,  // measure 45
1000
1000
0000
0001
,  // measure 46
0001
0001
0000
0100
,  // measure 47
0100
0100
0100
0100
,  // measure 48
0100
0100
0000
0010
,  // measure 49
0010
0010
0000
1000
,  // measure 50
1000
1000
0000
0001
,  // measure 51
0001
0001
0001
0001
,  // measure 52
0001
0001
0000
1000
,  // measure 53
1000
1000
0000
0100
,  // measure 54
0100
0100
0000
1000
,  // measure 55
1000
1000
1000
1000
;
