#VERSION:0.83;
#TITLE:Lady Galaxy;
#SUBTITLE:;
#ARTIST:BoA;
#TITLETRANSLIT:;
#SUBTITLETRANSLIT:;
#ARTISTTRANSLIT:;
#GENRE:J-POP;
#ORIGIN:;
#CREDIT:;
#BANNER:Lady Galaxy.png;
#BACKGROUND:Lady Galaxy-bg.png;
#PREVIEWVID:;
#JACKET:Lady Galaxy-jacket.png;
#CDIMAGE:;
#DISCIMAGE:;
#LYRICSPATH:;
#CDTITLE:CDTitle.png;
#MUSIC:Lady Galaxy.ogg;
#OFFSET:0.000000;
#SAMPLESTART:53.740002;
#SAMPLELENGTH:13.820000;
#SELECTABLE:YES;
#DISPLAYBPM:125.000000:250.000000;
#BPMS:0.000=125.000,
31.000=500.000,
32.000=125.000,
47.000=250.000,
48.000=125.000,
206.000=500.000,
214.000=125.000;
#STOPS:31.000=0.360,
47.000=0.240;
#DELAYS:;
#WARPS:;
#TIMESIGNATURES:0.000=4=4;
#TICKCOUNTS:0.000=4;
#COMBOS:0.000=1;
#SPEEDS:0.000=1.000=0.000=0;
#SCROLLS:0.000=1.000;
#FAKES:;
#LABELS:0.000=Song Start;
#BGCHANGES:;
#KEYSOUNDS:;
#ATTACKS:
;

//---------------dance-single - ----------------
#NOTEDATA:;
#CHARTNAME:;
#STEPSTYPE:dance-single;
#DESCRIPTION:;
#CHARTSTYLE:;
#DIFFICULTY:Challenge;
#METER:9;
#RADARVALUES:0.611932,0.736110,0.376255,0.270132,0.255661,444.000000,405.000000,39.000000,28.000000,0.000000,0.000000,0.000000,0.000000,0.000000,0.611932,0.736110,0.376255,0.270132,0.255661,444.000000,405.000000,39.000000,28.000000,0.000000,0.000000,0.000000,0.000000,0.000000;
#CREDIT:DDRDAIKENKAI;
#DISPLAYBPM:125.000000:250.000000;
#NOTES:
// measure 0
0000
0000
0000
0000
,  // measure 1
0000
0000
0000
0000
,  // measure 2
0000
0000
0000
0000
,  // measure 3
0000
0000
0000
0000
,  // measure 4
1001
0001
1000
0010
0100
0001
0010
0011
,  // measure 5
0001
0010
0100
0010
0001
0100
0010
0110
,  // measure 6
0010
1000
0001
1000
0010
0100
0001
0101
,  // measure 7
0001
0000
0100
0000
0010
0000
1000
0000
0100
0000
1000
0000
0010
1000
0010
1000
0010
0000
0100
0000
0001
0000
1000
0000
1001
0000
0000
0000
0000
0000
0000
0000
,  // measure 8
0101
0001
0010
0001
0100
0010
1000
1010
,  // measure 9
0010
1000
0100
0010
0100
1000
0100
0110
,  // measure 10
0100
0000
1000
0000
0010
0000
0100
0000
0001
0000
1000
0000
0001
0000
0001
1000
,  // measure 11
0001
1000
0100
0010
0001
0010
0100
1000
0001
0100
0010
1000
1001
0000
0000
0000
,  // measure 12
1002
1000
1000
1003
0001
2000
0001
3001
,  // measure 13
0000
2000
0010
3010
1000
0001
1000
1000
,  // measure 14
0000
0002
0010
0013
0001
1000
0100
0100
,  // measure 15
1000
0000
0100
0010
0001
0000
0100
0010
1000
0001
0100
0000
0001
1000
0001
0000
,  // measure 16
1001
0002
0013
0010
0002
0103
0000
2001
,  // measure 17
0000
3100
0010
0100
1000
0100
0010
0001
,  // measure 18
1000
0001
0010
0001
0100
0010
0100
0010
,  // measure 19
1000
0000
0010
0100
0001
0000
0100
0010
1000
0100
1000
0000
0001
0100
0001
0000
,  // measure 20
1002
0000
0103
1000
0100
0001
0010
0100
,  // measure 21
0020
0000
0031
0200
0000
0301
0101
0000
,  // measure 22
0210
0000
0310
1000
0100
0001
0100
1000
,  // measure 23
0001
0000
0010
0100
1000
0000
0100
0010
0001
0100
0010
0000
1000
0010
0100
0000
,  // measure 24
0102
0000
1003
0010
0100
0010
0001
0010
,  // measure 25
2000
0000
3001
0200
0000
0310
1010
0000
,  // measure 26
2100
3200
0320
0032
,  // measure 27
1003
0000
0001
0010
0001
0000
1000
0010
1000
0001
0100
0000
0001
1000
0100
0000
,  // measure 28
1100
0100
0010
0100
1000
0010
0100
0110
,  // measure 29
0010
0100
0001
0010
1000
0010
0001
0011
,  // measure 30
0001
0100
1000
0100
0001
1000
0100
1100
,  // measure 31
0100
0000
0010
0001
0100
0000
0010
1000
0100
1000
0010
0000
0100
0001
0100
0000
,  // measure 32
0101
0001
0010
1000
0010
0001
0100
0101
,  // measure 33
0001
0100
0010
1000
0010
0100
0001
0101
,  // measure 34
0001
1000
0100
1000
0001
0010
0001
0011
,  // measure 35
0001
0000
0010
0001
0100
0000
0001
0100
0010
1000
0010
0000
0100
0010
0100
0000
,  // measure 36
0101
0001
1000
0100
1000
0001
0010
0011
,  // measure 37
0001
0100
0010
1000
0010
1000
0100
1100
,  // measure 38
0100
0010
0100
1000
0001
0100
0001
1001
,  // measure 39
0001
0000
1000
0010
1000
0000
0001
0010
0001
1000
0100
0000
1000
0001
0100
0000
,  // measure 40
0101
0001
0010
0001
0100
0010
1000
1010
,  // measure 41
0010
1000
0100
0010
0100
1000
0001
1001
,  // measure 42
0001
0100
0010
0100
0001
1000
0010
0110
,  // measure 43
0010
0000
1000
0010
1000
0000
0010
0100
0010
0100
0001
0000
0100
0010
1000
0000
,  // measure 44
0002
0100
0000
0200
0000
0003
0300
0002
,  // measure 45
2000
0000
0000
0000
0000
0003
3000
0002
,  // measure 46
0200
0000
0000
0000
0000
0003
0300
1001
,  // measure 47
0001
0000
1000
0100
1000
0000
0001
0010
0001
1000
0100
0000
1000
0001
0100
0000
,  // measure 48
0101
0001
0010
0001
0100
0020
1000
1030
,  // measure 49
0010
1000
0100
0001
0200
1000
1000
1300
,  // measure 50
0100
0010
0100
1000
0100
0020
0001
0031
,  // measure 51
0010
0000
0010
0001
0100
0000
0010
1000
0200
0000
0000
0000
0000
0000
0000
0000
,  // measure 52
0000
0000
0000
0000
,  // measure 53
0000
0000
0000
0000
1300
0000
0101
0100
,  // measure 54
0000
0010
1010
0000
1001
0000
0000
0000
;

//---------------dance-single - ----------------
#NOTEDATA:;
#CHARTNAME:;
#STEPSTYPE:dance-single;
#DESCRIPTION:;
#CHARTSTYLE:;
#DIFFICULTY:Hard;
#METER:7;
#RADARVALUES:0.413467,0.473213,0.212247,0.318370,0.009648,300.000000,278.000000,22.000000,33.000000,0.000000,0.000000,4.000000,0.000000,0.000000,0.413467,0.473213,0.212247,0.318370,0.009648,300.000000,278.000000,22.000000,33.000000,0.000000,0.000000,4.000000,0.000000,0.000000;
#CREDIT:DDRDAIKENKAI;
#DISPLAYBPM:125.000000:250.000000;
#NOTES:
// measure 0
0000
0000
0000
0000
,  // measure 1
0000
0000
0000
0000
,  // measure 2
0000
0000
0000
0000
,  // measure 3
0000
0000
0000
0000
,  // measure 4
0000
1000
0001
0010
0100
1000
0000
1100
,  // measure 5
0000
1000
0100
0010
0001
0100
0000
0101
,  // measure 6
0000
0001
0100
0001
1000
0100
1000
0001
,  // measure 7
4000
0004
0000
0000
0000
0000
0000
0000
0000
0000
0000
0000
3003
0000
0000
0000
,  // measure 8
1001
0001
1000
0001
0100
0010
0000
0110
,  // measure 9
0000
0010
1000
0010
0100
0001
0100
0101
,  // measure 10
0000
0001
0010
0100
2000
0000
3100
0010
,  // measure 11
0400
0040
0000
0000
0000
0000
0000
0000
0000
0000
0000
0000
0330
0000
0000
0000
,  // measure 12
0102
0010
1000
0103
,  // measure 13
0020
0001
1000
0130
,  // measure 14
2000
0100
0010
3001
,  // measure 15
0200
1000
0010
0301
,  // measure 16
1000
0001
0100
0100
0001
1000
0000
1001
,  // measure 17
0000
0100
0001
0100
0010
0100
0000
0000
,  // measure 18
0000
0001
0100
0001
0010
0100
0000
0010
,  // measure 19
0001
1000
0100
1000
0001
0010
0100
1000
,  // measure 20
1100
0200
0320
0032
,  // measure 21
0203
0000
0000
0020
0000
0000
0330
0000
,  // measure 22
0000
0020
0230
0302
,  // measure 23
1003
0100
1000
0100
0010
0001
0100
0010
,  // measure 24
1020
2030
3020
0230
,  // measure 25
0302
0000
0000
0020
0000
0000
0033
0000
,  // measure 26
0000
0002
0203
0320
,  // measure 27
1030
0001
1000
0001
0100
0010
1000
0001
,  // measure 28
1001
0001
1000
0010
0100
0001
0000
0102
,  // measure 29
0000
0103
0100
0010
0100
0001
0000
1001
,  // measure 30
0000
1000
0001
1000
0200
0000
1300
1000
,  // measure 31
0001
0010
0001
1000
0001
0100
0010
1000
,  // measure 32
1010
0010
1000
0010
0100
0001
0000
0102
,  // measure 33
0000
0103
0100
0001
0010
0001
0000
0011
,  // measure 34
0000
0010
0010
0100
2000
0000
3100
0100
,  // measure 35
0010
0001
0100
0010
1000
0001
1000
0001
,  // measure 36
1001
0001
0100
0010
1000
0100
0000
1100
,  // measure 37
1000
0010
0100
0001
0100
0010
0000
0110
,  // measure 38
0100
0010
1000
0001
0020
0000
0031
0001
,  // measure 39
1000
0100
1000
0001
0010
0001
0100
0010
,  // measure 40
0110
0010
0100
0001
1000
0100
0000
0110
,  // measure 41
0000
0100
0010
0100
1000
0001
0100
0001
,  // measure 42
0000
1000
0010
1000
0200
0000
1300
0001
,  // measure 43
1000
0010
0100
1000
0100
0001
1000
0100
,  // measure 44
0020
0100
0000
0100
0000
0000
0030
0100
,  // measure 45
2000
0000
0000
0000
0000
0000
3000
0001
,  // measure 46
0200
0000
0000
0000
0000
0000
0300
0200
,  // measure 47
0301
0010
0010
0100
1000
0100
0010
0001
,  // measure 48
1001
0001
1000
0010
0100
0001
0100
0100
,  // measure 49
0000
0010
0100
0100
0001
0100
1000
1000
,  // measure 50
0000
0100
0001
0010
0100
1000
0100
0100
,  // measure 51
0000
1000
0100
0010
0002
0000
0000
0000
,  // measure 52
0000
0000
0000
0000
,  // measure 53
0000
0000
0000
0000
1003
0000
0001
0100
,  // measure 54
0000
0010
1000
0000
1001
0000
0000
0000
;

//---------------dance-single - ----------------
#NOTEDATA:;
#CHARTNAME:;
#STEPSTYPE:dance-single;
#DESCRIPTION:;
#CHARTSTYLE:;
#DIFFICULTY:Easy;
#METER:3;
#RADARVALUES:0.205356,0.262896,0.115771,0.221894,0.000000,149.000000,137.000000,12.000000,23.000000,0.000000,0.000000,0.000000,0.000000,0.000000,0.205356,0.262896,0.115771,0.221894,0.000000,149.000000,137.000000,12.000000,23.000000,0.000000,0.000000,0.000000,0.000000,0.000000;
#CREDIT:DDRDAIKENKAI;
#DISPLAYBPM:125.000000:250.000000;
#NOTES:
// measure 0
0000
0000
0000
0000
,  // measure 1
0000
0000
0000
0000
,  // measure 2
0000
0000
0000
0000
,  // measure 3
0000
0000
0000
0000
,  // measure 4
0000
1000
0001
0100
,  // measure 5
0000
0001
1000
0100
,  // measure 6
0000
1000
0001
1000
,  // measure 7
2002
0000
0000
3003
,  // measure 8
0010
0100
0010
0000
,  // measure 9
1000
0001
1000
0000
,  // measure 10
0001
0010
0001
0000
,  // measure 11
2002
0000
0000
3003
,  // measure 12
0200
0000
0000
0300
,  // measure 13
0002
0000
0000
0003
,  // measure 14
2000
0000
0000
3000
,  // measure 15
0200
0000
0000
0300
,  // measure 16
1000
0100
0010
0000
,  // measure 17
0010
0001
0010
0000
,  // measure 18
0001
0100
0001
0000
,  // measure 19
0001
1000
0100
0010
,  // measure 20
0110
0010
0100
1000
,  // measure 21
0002
0000
0000
0003
0000
0000
0000
0000
,  // measure 22
0000
1000
0010
0100
,  // measure 23
0002
0000
0000
0003
0000
0000
0000
0000
,  // measure 24
0000
1000
0100
0010
,  // measure 25
0002
0000
0000
0003
0000
0000
0000
0000
,  // measure 26
0000
0010
0100
1000
,  // measure 27
0001
1000
0001
0001
,  // measure 28
1001
0001
0100
0010
,  // measure 29
1000
0100
1000
0010
,  // measure 30
0100
0001
0010
0001
,  // measure 31
0200
0000
0000
0300
,  // measure 32
0001
0100
0010
1000
,  // measure 33
0010
0100
0001
1000
,  // measure 34
0100
0010
0001
0010
,  // measure 35
0002
0000
0000
0003
,  // measure 36
1000
0100
1000
0100
,  // measure 37
0100
0010
0100
0010
,  // measure 38
0010
0001
0010
0001
,  // measure 39
0001
1000
0001
1000
,  // measure 40
1001
1000
0001
1000
,  // measure 41
0100
1000
0100
1000
,  // measure 42
0010
0100
0010
0100
,  // measure 43
0001
0100
0001
0100
,  // measure 44
0202
0000
0000
0303
,  // measure 45
2020
0000
0000
3030
,  // measure 46
2200
0000
0000
3300
,  // measure 47
0022
0000
0000
0033
,  // measure 48
1001
1000
0100
1000
,  // measure 49
0001
0010
0001
1000
,  // measure 50
0010
1000
0001
0100
,  // measure 51
0001
1000
2002
0000
,  // measure 52
0000
0000
0000
0000
,  // measure 53
0000
0000
3003
1000
,  // measure 54
0000
0001
1001
0000
;

//---------------dance-single - ----------------
#NOTEDATA:;
#CHARTNAME:;
#STEPSTYPE:dance-single;
#DESCRIPTION:;
#CHARTSTYLE:;
#DIFFICULTY:Beginner;
#METER:1;
#RADARVALUES:0.125418,0.210317,0.067533,0.270132,0.000000,91.000000,84.000000,7.000000,28.000000,0.000000,0.000000,0.000000,0.000000,0.000000,0.125418,0.210317,0.067533,0.270132,0.000000,91.000000,84.000000,7.000000,28.000000,0.000000,0.000000,0.000000,0.000000,0.000000;
#CREDIT:DDRDAIKENKAI;
#DISPLAYBPM:125.000000:250.000000;
#NOTES:
// measure 0
0000
0000
0000
0000
,  // measure 1
0000
0000
0000
0000
,  // measure 2
0000
0000
0000
0000
,  // measure 3
0000
0000
0000
0000
,  // measure 4
0000
1000
0000
0001
,  // measure 5
0000
1000
0000
0010
,  // measure 6
0000
1000
1000
0000
,  // measure 7
2002
0000
0000
3003
,  // measure 8
0000
0001
0000
1000
,  // measure 9
0000
0010
0000
0100
,  // measure 10
0000
0010
0010
0000
,  // measure 11
0000
0000
0000
0000
,  // measure 12
0220
0000
0330
0000
,  // measure 13
2000
0000
3000
0000
,  // measure 14
0002
0000
0003
0000
,  // measure 15
0200
0000
0300
0000
,  // measure 16
0001
0001
0000
0000
,  // measure 17
0000
0001
0000
0100
,  // measure 18
0000
0010
0000
1000
,  // measure 19
1000
1000
1000
1000
,  // measure 20
0000
0001
0001
0001
,  // measure 21
0002
0000
0000
0003
0000
0000
0000
0000
,  // measure 22
0000
0100
0100
0100
,  // measure 23
0200
0000
0000
0300
0000
0000
0000
0000
,  // measure 24
0000
0010
0010
0010
,  // measure 25
0020
0000
0000
0030
0000
0000
0000
0000
,  // measure 26
0000
1000
1000
1000
,  // measure 27
2000
0000
0000
3000
,  // measure 28
0000
0100
0000
0010
,  // measure 29
0000
0100
0000
0010
,  // measure 30
0000
0001
0000
1000
,  // measure 31
1000
1000
1000
1000
,  // measure 32
0000
0001
0000
1000
,  // measure 33
0000
0001
0000
1000
,  // measure 34
0000
0010
0000
0100
,  // measure 35
0100
0100
0100
0100
,  // measure 36
0200
0000
0300
0000
,  // measure 37
0002
0000
0003
0000
,  // measure 38
2000
0000
3000
0000
,  // measure 39
0002
0000
0003
0000
,  // measure 40
0220
0000
0330
0000
,  // measure 41
0200
0000
0300
0000
,  // measure 42
0002
0000
0003
0000
,  // measure 43
2000
0000
3000
0000
,  // measure 44
2002
0000
3003
0000
,  // measure 45
0020
0000
0030
0000
,  // measure 46
2000
0000
3000
0000
,  // measure 47
2002
0000
3003
0000
,  // measure 48
0001
0000
0010
0000
,  // measure 49
0100
0000
1000
0000
,  // measure 50
0100
0000
0010
0000
,  // measure 51
0001
0000
2002
0000
,  // measure 52
0000
0000
0000
0000
,  // measure 53
0000
0000
3003
0000
,  // measure 54
0000
0000
1001
0000
;

//---------------dance-single - ----------------
#NOTEDATA:;
#CHARTNAME:;
#STEPSTYPE:dance-single;
#DESCRIPTION:;
#CHARTSTYLE:;
#DIFFICULTY:Medium;
#METER:5;
#RADARVALUES:0.294940,0.368055,0.144714,0.385903,0.000000,214.000000,199.000000,15.000000,40.000000,0.000000,0.000000,0.000000,0.000000,0.000000,0.294940,0.368055,0.144714,0.385903,0.000000,214.000000,199.000000,15.000000,40.000000,0.000000,0.000000,0.000000,0.000000,0.000000;
#CREDIT:DDRDAIKENKAI;
#DISPLAYBPM:125.000000:250.000000;
#NOTES:
// measure 0
0000
0000
0000
0000
,  // measure 1
0000
0000
0000
0000
,  // measure 2
0000
0000
0000
0000
,  // measure 3
0000
0000
0000
0000
,  // measure 4
0000
1000
0001
0000
1000
0100
0000
1000
,  // measure 5
0000
0100
0010
0000
0001
0010
0000
0001
,  // measure 6
0000
0001
0100
0000
0010
1000
1000
0002
,  // measure 7
2000
0000
0000
3003
,  // measure 8
0000
0001
0100
0000
0010
1000
0000
1001
,  // measure 9
0000
1000
0010
0000
0100
0001
0000
0101
,  // measure 10
0000
0001
0010
0000
0100
0000
1000
0100
,  // measure 11
0020
0032
0203
0310
,  // measure 12
0220
0000
0000
0330
,  // measure 13
2000
0000
0000
3000
,  // measure 14
0200
0000
0000
0300
,  // measure 15
0020
0000
0000
0030
,  // measure 16
0001
1000
0000
0001
1000
0100
0000
1100
,  // measure 17
0000
0100
0010
0000
0100
0010
0000
0001
,  // measure 18
0000
1000
0001
1000
0001
1000
0000
0100
,  // measure 19
1000
0100
1000
0000
0001
0010
0001
0000
,  // measure 20
1001
2000
3020
0230
,  // measure 21
0302
0000
0000
2000
0000
0000
3003
0000
,  // measure 22
0000
0002
0023
0230
,  // measure 23
2300
0000
0000
0200
0000
0000
3300
0000
,  // measure 24
0000
0020
0032
0203
,  // measure 25
0320
0000
0000
0200
0000
0000
0330
0000
,  // measure 26
0000
0020
2030
3002
,  // measure 27
1003
0000
0001
0000
0100
0010
0100
0000
,  // measure 28
0110
0000
0010
0000
1000
0001
0000
1000
,  // measure 29
0000
0001
0100
0000
0010
1000
0000
1010
,  // measure 30
0000
0010
0100
0000
0002
0000
1003
0100
,  // measure 31
1000
0100
0010
0001
,  // measure 32
0011
0000
0001
0010
0001
0010
0000
0001
,  // measure 33
0000
0100
0010
0000
1000
0100
0000
1100
,  // measure 34
0000
0100
1000
0000
0001
0000
0100
0010
,  // measure 35
0200
0302
2003
3000
,  // measure 36
1100
0000
0100
0000
0010
0001
0000
1000
,  // measure 37
0000
0001
0100
0000
0010
1000
0000
1010
,  // measure 38
0000
0010
0100
0000
0002
0000
1003
0100
,  // measure 39
1000
0100
0010
0001
,  // measure 40
1001
0000
0001
0000
1000
0010
0000
1010
,  // measure 41
0000
0010
0100
0000
0001
1000
0000
1001
,  // measure 42
0000
0001
0010
0000
0002
0000
1003
0100
,  // measure 43
1000
0001
1000
0000
0001
0100
0001
0000
,  // measure 44
0200
0000
0000
0301
,  // measure 45
2000
0000
0000
0000
0000
0000
3100
0020
,  // measure 46
0000
0000
0000
0000
0000
0000
0031
2000
,  // measure 47
0002
0000
0000
3003
,  // measure 48
0001
1000
0001
0000
0100
0010
0100
0000
,  // measure 49
0001
0010
0001
0000
0010
0100
0010
0000
,  // measure 50
0001
1000
0001
0000
1000
0100
1000
0000
,  // measure 51
0010
1000
0010
0000
0200
0000
0000
0000
,  // measure 52
0000
0000
0000
0000
,  // measure 53
0000
0000
0000
0000
0310
0000
0000
0100
,  // measure 54
0000
0001
0000
0000
1001
0000
0000
0000
;
