#TITLE:Kiss My Lips;
#SUBTITLE:;
#ARTIST:BoA;
#TITLETRANSLIT:;
#SUBTITLETRANSLIT:;
#ARTISTTRANSLIT:;
#GENRE:K-POP;
#CREDIT:;
#BANNER:Kiss My Lips.png;
#BACKGROUND:Kiss My Lips-bg.png;
#LYRICSPATH:;
#CDTITLE:CDTitle.png;
#MUSIC:Kiss My Lips.ogg;
#OFFSET:0.000000;
#SAMPLESTART:48.299999;
#SAMPLELENGTH:19.500000;
#SELECTABLE:YES;
#BPMS:0.000000=99.995003
;
#STOPS:
;
#BGCHANGES:14.500=Kiss My Lips.avi=1.000=0=0=1=====,
208.000=Kiss My Lips-bg.png=1.000=1=0=1===CrossFade==,
99999=-nosongbg-=1.000=0=0=0 // don't automatically add -songbackground-
;
#KEYSOUNDS:;
#ATTACKS:;

//---------------dance-single - ----------------
#NOTES:
     dance-single:
     :
     Hard:
     6:
     0.392107,0.489572,0.251667,0.424689,0.051120,349.000000,317.000000,32.000000,54.000000,0.000000,0.000000,0.392107,0.489572,0.251667,0.424689,0.051120,349.000000,317.000000,32.000000,54.000000,0.000000,0.000000:
// measure 0
0000
0000
0000
0000
,  // measure 1
0000
0000
0000
0000
,  // measure 2
0000
0000
0000
0000
,  // measure 3
0000
0000
0000
0000
,  // measure 4
1000
0100
0010
0001
0100
0000
0100
0001
,  // measure 5
0010
0100
1000
0010
1000
0001
1000
0001
,  // measure 6
0100
1000
0100
0001
1000
0000
0010
0001
,  // measure 7
0010
1000
0001
0000
0002
0013
0200
1300
,  // measure 8
0001
0010
0001
0100
0001
0000
1000
1000
,  // measure 9
0010
1000
0100
1000
0001
0010
0100
0010
,  // measure 10
0001
0100
1000
0100
0001
0000
1000
0010
,  // measure 11
0001
0010
1000
0000
0001
1000
1001
0000
,  // measure 12
0001
0010
0100
1000
1010
1001
0101
0000
,  // measure 13
0001
1000
0100
0010
0011
1001
1100
0000
,  // measure 14
1000
0001
0100
0010
0110
1010
0110
0000
,  // measure 15
0001
0001
1000
1000
0001
1000
1001
0001
,  // measure 16
1000
0100
0010
0001
0011
0110
1100
1000
,  // measure 17
0001
0010
0100
1000
1100
0110
0011
0000
,  // measure 18
2000
3200
0320
0031
,  // measure 19
1000
0100
0001
0100
2000
3010
0002
0013
,  // measure 20
2000
0000
0000
0000
3001
0000
0000
0001
0100
0000
0010
0000
1000
0000
0000
0000
,  // measure 21
0200
0320
0032
2003
,  // measure 22
3020
0000
0031
0010
1000
0001
0100
0000
,  // measure 23
0020
0000
0000
0000
1030
0000
0100
0000
0002
0000
0000
0000
0103
1000
0010
0100
,  // measure 24
0002
0000
0000
0000
1003
0000
0000
1000
0001
0000
0100
0000
0010
0000
0000
0000
,  // measure 25
2000
3002
0023
0230
,  // measure 26
2300
0000
3010
0000
0001
0010
1000
0100
,  // measure 27
0020
0000
0000
0000
0031
0000
0000
0000
0021
0000
0000
0000
0130
1000
0000
0000
,  // measure 28
1001
1000
0010
0100
0001
1000
0010
0100
,  // measure 29
0001
0000
0010
0000
0100
0000
1000
0000
0001
0000
0010
0000
0100
0010
0000
0000
,  // measure 30
0001
1000
0100
1000
0001
1000
0100
1000
,  // measure 31
0001
0000
0100
0000
0010
0000
0100
0000
0001
0000
0010
0000
0100
1000
0000
0000
,  // measure 32
0010
1000
0100
1000
0001
1000
0100
1000
,  // measure 33
0010
0000
0100
0000
0001
0000
0100
0000
1000
0000
0100
0000
0001
1000
0000
0000
,  // measure 34
0100
0010
0001
0010
0100
0010
0001
0001
,  // measure 35
1000
0010
0001
0010
2000
3100
0020
0031
,  // measure 36
0200
0000
0000
0000
0310
0000
0000
1000
0100
0000
0010
0000
0020
0000
0030
0000
,  // measure 37
0002
0023
0230
2300
,  // measure 38
3002
0000
0103
0010
1000
0001
1000
1000
,  // measure 39
0020
0000
0000
0000
0130
0000
0001
0000
0020
0000
0000
0000
0130
1000
0010
0100
,  // measure 40
0002
0000
0000
0000
0103
0000
0000
0010
1000
0000
0100
0000
0200
0000
0000
0000
,  // measure 41
0320
0000
0230
0000
2300
0000
3002
2000
,  // measure 42
0003
0200
3000
0020
0300
0200
0030
0002
,  // measure 43
0300
0200
0003
0000
2000
0000
3300
0000
,  // measure 44
0001
0010
0100
1000
1010
0110
0101
0000
,  // measure 45
0001
1000
1100
0000
1000
0001
0101
0000
,  // measure 46
0100
0001
1000
0010
0110
0101
1001
0000
,  // measure 47
0001
1000
1010
0000
1000
0001
0011
0000
,  // measure 48
0001
1000
0010
0100
0110
1010
0101
0000
,  // measure 49
0020
0000
2030
0000
3200
0000
0310
0001
,  // measure 50
1000
0000
0010
0000
0001
0000
0010
0000
2000
0000
0000
3002
0000
0000
0013
0000
,  // measure 51
0100
1000
0100
0001
0200
1300
0002
0103
;

//---------------dance-single - ----------------
#NOTES:
     dance-single:
     :
     Medium:
     5:
     0.289867,0.284895,0.015729,0.290990,0.000000,258.000000,256.000000,2.000000,37.000000,0.000000,0.000000,0.289867,0.284895,0.015729,0.290990,0.000000,258.000000,256.000000,2.000000,37.000000,0.000000,0.000000:
0000
0000
0000
0000
,
0000
0000
0000
0000
,
0000
0000
0000
0000
,
0000
0000
0000
0000
,
1000
0000
0001
0000
0100
0010
1000
0000
,
0010
1000
0200
0000
0010
0000
1300
0000
,
0001
0100
0001
0100
0010
0000
0010
0000
,
1000
0100
1000
0100
0010
0000
0001
0000
,
0200
0000
0301
0000
0010
0100
1000
0000
,
0010
0100
0010
0100
0001
0000
0100
0010
,
0100
0010
1000
0000
0001
0000
0010
0000
,
0100
0000
1000
0000
0001
1000
0001
0000
,
1000
0000
0100
0000
1000
1000
1000
0000
,
0001
0000
0100
0000
0001
0001
0001
0000
,
1000
0000
0010
0000
0100
0100
0100
0000
,
0010
1000
0001
0100
0010
0000
1001
0000
,
0001
0000
0010
0000
0100
1000
0001
0000
,
1000
0000
0010
0000
0100
0001
1000
0000
,
0020
0000
0100
0130
,
0010
1000
0001
0100
0010
1000
0001
0100
,
0020
0000
1030
0000
0100
0010
0001
0000
,
0200
0302
0023
0230
,
1300
0000
0001
1000
0001
0100
0010
0000
,
0200
0000
0302
0000
0000
1000
1003
0000
,
0200
0000
1300
0000
0001
0010
0100
0000
,
1000
0001
2000
0000
3020
0000
0100
0130
,
0000
0001
1000
0000
0001
0010
0100
0000
,
1000
0010
0100
0000
0002
0000
0013
0010
,
0001
0100
0010
0000
1000
1000
0001
0000
,
0001
0000
1000
0000
0010
0000
1000
1000
,
0001
0100
0010
0000
1000
1000
0001
0000
,
1000
0000
0010
0000
0100
0000
0001
0001
,
1000
0001
0100
0000
0010
0010
0100
0000
,
0010
0000
1000
0000
0100
0000
0010
0010
,
0001
1000
0002
0000
1000
0000
1003
0000
,
0010
1000
0010
1000
0200
0000
0310
0000
,
0002
0000
1003
0000
0001
1000
0100
0000
,
1000
0001
0100
0000
0010
0100
0000
0020
,
0000
2030
0000
3200
0000
0310
0001
0020
,
0000
0230
0000
2300
0000
3001
0001
1000
,
0200
0000
2300
0000
3001
0100
0010
0000
,
0200
0302
0203
0320
,
2030
0000
3001
0000
1000
0100
0010
0001
,
0200
0310
0220
0330
,
0010
1000
0010
0000
1000
0001
1000
0000
,
0001
1000
0100
0000
1000
1000
1000
0000
,
0001
0010
0100
0000
0010
0001
0010
0000
,
0001
1000
0010
0000
0100
0100
0100
0000
,
0010
1000
0100
0000
0010
0001
0100
0000
,
0002
0023
0230
1300
,
0001
0100
0010
1000
0001
0000
0001
0000
,
1000
0010
0100
0001
2000
0000
3001
0000
;

//---------------dance-single - ----------------
#NOTES:
     dance-single:
     :
     Easy:
     3:
     0.178639,0.183147,0.000000,0.243803,0.000000,159.000000,159.000000,0.000000,31.000000,0.000000,0.000000,0.178639,0.183147,0.000000,0.243803,0.000000,159.000000,159.000000,0.000000,31.000000,0.000000,0.000000:
0000
0000
0000
0000
,
0000
0000
0000
0000
,
0000
0000
0000
0000
,
0000
0000
0000
0000
,
1000
1000
0001
0000
,
0100
0100
0010
0000
,
0100
0001
1000
0000
,
0001
1000
0100
0000
,
0010
0010
0001
0000
,
0100
0100
0010
0000
,
1000
0010
0100
0000
,
0001
0100
0010
0000
,
1000
0001
1000
1000
,
0001
1000
0001
0001
,
0100
0010
0100
0100
,
0010
0010
0020
0030
,
0100
0001
0100
0100
,
0010
1000
0010
0010
,
1000
0000
0001
0000
,
1000
1000
1000
1000
,
0002
0003
0020
0030
,
0100
1000
0100
1000
,
0020
0030
0100
0100
,
0002
0003
1000
1000
,
0200
0300
0020
0030
,
0001
1000
0010
0100
,
0002
0003
1000
1000
,
2000
0000
0002
3003
,
0001
0010
0100
1000
,
0001
0010
0100
1000
,
0010
0100
0001
1000
,
0010
0100
0001
1000
,
0100
0010
0001
1000
,
0100
0010
0001
1000
,
0010
1000
0001
0100
,
0010
0010
0100
0100
,
0002
0000
0203
0000
,
0320
2030
3200
0320
,
0032
0000
1000
1000
,
2003
0000
0200
3300
,
0020
0000
0230
0000
,
2300
3020
0230
0302
,
0203
0000
0010
0010
,
0320
0000
0200
0330
,
0010
0010
1000
1000
,
0001
0001
0002
0000
0000
0000
0103
0000
,
0010
0010
0100
0100
,
0001
0001
0002
0000
0000
0000
1003
0000
,
0100
0100
0010
0010
,
0002
0000
0000
0003
,
1000
0100
1000
1000
,
0001
0100
0001
0001
;
