#VERSION:0.83;
#TITLE:I want you back;
#SUBTITLE:;
#ARTIST:BoA;
#TITLETRANSLIT:;
#SUBTITLETRANSLIT:;
#ARTISTTRANSLIT:;
#GENRE:K-Pop;
#ORIGIN:;
#CREDIT:;
#BANNER:I want you back.png;
#BACKGROUND:I want you back-bg.png;
#PREVIEWVID:;
#JACKET:I want you back-jacket.png;
#CDIMAGE:;
#DISCIMAGE:;
#LYRICSPATH:;
#CDTITLE:CDTitle.png;
#MUSIC:I want you back.ogg;
#OFFSET:-0.000000;
#SAMPLESTART:67.045097;
#SAMPLELENGTH:16.410263;
#SELECTABLE:YES;
#BPMS:0.000=117.000;
#STOPS:;
#DELAYS:;
#WARPS:;
#TIMESIGNATURES:0.000=4=4;
#TICKCOUNTS:0.000=4;
#COMBOS:0.000=1;
#SPEEDS:0.000=1.000=0.000=0;
#SCROLLS:0.000=1.000;
#FAKES:;
#LABELS:0.000=Song Start;
#BGCHANGES:;
#KEYSOUNDS:;
#ATTACKS:
;

//---------------dance-single - Classic 8 | Modern 12----------------
#NOTEDATA:;
#CHARTNAME:;
#STEPSTYPE:dance-single;
#DESCRIPTION:Classic 8 | Modern 12;
#CHARTSTYLE:;
#DIFFICULTY:Hard;
#METER:8;
#RADARVALUES:0.423855,0.549743,0.151291,0.571544,0.420253,353.000000,335.000000,18.000000,68.000000,0.000000,0.000000,0.000000,0.000000,0.000000,0.423855,0.549743,0.151291,0.571544,0.420253,353.000000,335.000000,18.000000,68.000000,0.000000,0.000000,0.000000,0.000000,0.000000;
#CREDIT:DDRDAIKENKAI;
#NOTES:
// measure 0
0000
0000
0000
0000
,  // measure 1
0000
0000
0000
0000
,  // measure 2
0000
0000
0000
0000
,  // measure 3
0000
0000
0000
0000
,  // measure 4
0000
0000
0000
0000
,  // measure 5
0000
0000
0000
0000
,  // measure 6
0000
0000
0000
0000
,  // measure 7
0000
0000
0000
0000
,  // measure 8
0000
0000
0000
0000
,  // measure 9
0001
1000
1200
0000
0010
0000
0001
0000
,  // measure 10
1300
0001
0100
0010
1000
0001
0100
0010
,  // measure 11
1000
0001
2000
0000
0010
0000
3100
0000
,  // measure 12
0020
0032
0203
0320
,  // measure 13
1030
0001
0200
0000
1000
0000
0301
0001
,  // measure 14
1000
0010
0100
0001
1000
0010
0100
0001
,  // measure 15
1000
0100
2000
0000
0001
0000
3100
0000
,  // measure 16
0020
0000
0000
0000
0032
0000
0000
0000
2003
0000
0000
0000
3010
0000
0000
0100
,  // measure 17
0000
0001
1000
0001
1000
0000
0100
0000
0020
0000
0000
0031
0000
0000
1000
0100
,  // measure 18
0000
0100
1000
0100
1000
0000
1000
0000
0002
0000
0000
1003
0000
0000
0000
0001
,  // measure 19
0000
0100
0000
0001
0100
0000
0010
0000
2000
0000
0000
3001
0000
0000
0000
0000
,  // measure 20
0010
0010
1000
1000
0100
0100
0001
0001
,  // measure 21
0000
1000
0100
1000
0100
0000
0010
0000
0002
0000
0000
1003
0000
0000
0010
0100
,  // measure 22
0000
0010
0100
0000
0001
0000
1000
0000
0200
0000
0000
0310
0000
0000
0000
0001
,  // measure 23
0000
1000
0000
0100
1000
0000
1000
0000
0020
0000
0000
0031
0000
0000
1000
0000
,  // measure 24
0200
0000
0000
0301
2000
0000
0000
3100
0020
0000
0000
0000
0031
1000
0000
0000
,  // measure 25
1002
0000
0000
0000
0103
0000
0000
0000
2001
0000
0000
0000
3100
0000
0000
0020
,  // measure 26
0000
0031
0010
0000
0100
0000
0001
0000
1000
0000
0010
0000
0100
0000
1000
0000
,  // measure 27
0002
0203
2300
3020
,  // measure 28
0032
0000
0000
1003
0020
0000
0000
1030
0200
0000
0000
0000
1300
0000
0001
0000
,  // measure 29
2001
0000
0000
0000
3010
0000
0000
0000
1002
0000
0000
0000
0103
0000
0000
0020
,  // measure 30
0000
1030
0001
0000
0100
0000
0010
0000
0001
0000
1000
0000
0100
0000
0001
0000
,  // measure 31
0020
2030
3100
0010
,  // measure 32
1020
0000
0000
0130
0002
0000
0000
1003
0200
0000
0000
0310
0001
0000
0001
2000
,  // measure 33
0000
3100
0010
0000
0010
0000
0010
0000
0001
0010
0001
0100
0000
0001
0000
0001
,  // measure 34
0000
0001
1000
0100
0010
0000
0010
0100
1000
0000
0000
0001
0100
0000
0100
0020
,  // measure 35
0000
1030
0001
0000
0001
0000
0001
0000
1000
0001
1000
0100
0000
1000
0000
1000
,  // measure 36
0000
1000
0010
0100
0001
0000
0001
0100
0010
0000
0000
1000
0001
0000
0001
0200
,  // measure 37
0000
0301
1000
0000
1000
0000
1000
0000
0010
0100
0010
1000
0000
0001
0000
0001
,  // measure 38
0000
0001
0010
0001
1000
0000
1000
0001
0100
0000
0000
0010
0100
0000
0100
0002
,  // measure 39
0000
1003
0100
0000
0100
0000
0100
0000
1000
0100
1000
0001
0000
0010
0000
0010
,  // measure 40
0000
0010
0001
0100
0010
0000
0010
0000
1000
0001
1000
0100
0000
1000
0010
0000
,  // measure 41
0110
0000
0000
0000
1001
0000
0000
0000
0011
0000
1100
0000
1001
0000
0000
0001
,  // measure 42
0000
1000
0010
0000
1000
0000
0001
0000
0101
0000
1001
0000
1010
0000
0000
0000
,  // measure 43
0010
0000
1000
0000
0100
0000
1000
0001
1000
0001
0000
0001
0010
0000
0000
0000
,  // measure 44
0100
1000
0000
1000
0001
0000
0000
0000
0100
0001
0000
0001
1000
0000
0000
0000
,  // measure 45
0010
0000
0000
0000
1001
0000
0000
0000
0110
0000
0001
0000
1000
0000
0000
0010
,  // measure 46
0000
1000
0100
0000
1000
0000
0001
0000
0010
0100
0000
1000
0000
0000
0000
0000
,  // measure 47
1010
0000
0000
0000
0101
0000
0000
0000
0100
0000
0010
1000
0000
0000
0010
0100
,  // measure 48
0002
0000
0000
0013
2000
0000
0000
3010
0100
1000
0000
0000
0100
1000
0000
0000
,  // measure 49
0020
0000
0000
0000
2030
0000
0000
0000
3200
0000
0000
0000
0320
0000
0000
0032
,  // measure 50
0000
0000
0000
0000
0003
1000
0001
0100
,  // measure 51
0020
2030
3200
2300
,  // measure 52
3002
0000
0000
1003
0020
0000
0000
1030
0200
0000
0000
0000
0310
0000
0001
0000
,  // measure 53
2000
0000
0000
0000
3020
0000
0000
0030
0200
0000
0000
0000
0302
0000
0000
0023
,  // measure 54
0000
0000
0000
0000
0030
0100
1000
0001
,  // measure 55
2000
3002
0103
0020
,  // measure 56
2030
0000
0000
3001
2000
0000
0000
3020
0200
0000
0000
0000
0030
0000
0300
0000
;

//---------------dance-single - Classic 5 | Modern 8----------------
#NOTEDATA:;
#CHARTNAME:;
#STEPSTYPE:dance-single;
#DESCRIPTION:Classic 5 | Modern 8;
#CHARTSTYLE:;
#DIFFICULTY:Medium;
#METER:5;
#RADARVALUES:0.321794,0.358528,0.117671,0.495898,0.046228,268.000000,254.000000,14.000000,59.000000,0.000000,0.000000,0.000000,0.000000,0.000000,0.321794,0.358528,0.117671,0.495898,0.046228,268.000000,254.000000,14.000000,59.000000,0.000000,0.000000,0.000000,0.000000,0.000000;
#CREDIT:DDRDAIKENKAI;
#NOTES:
// measure 0
0000
0000
0000
0000
,  // measure 1
0000
0000
0000
0000
,  // measure 2
0000
0000
0000
0000
,  // measure 3
0000
0000
0000
0000
,  // measure 4
0000
0000
0000
0000
,  // measure 5
0000
0000
0000
0000
,  // measure 6
0000
0000
0000
0000
,  // measure 7
0000
0000
0000
0000
,  // measure 8
0000
0000
0000
0000
,  // measure 9
1000
0100
2000
0000
0010
0000
3010
0000
,  // measure 10
0100
0010
0100
0000
0001
0010
0001
0000
,  // measure 11
1000
0010
2000
0000
0001
0000
3001
0000
,  // measure 12
0020
0032
0203
0320
,  // measure 13
1030
0100
2000
0000
0010
0000
3010
0000
,  // measure 14
0100
0001
0100
0000
0001
0010
0001
0000
,  // measure 15
0010
0100
0020
0000
0001
0000
0130
0000
,  // measure 16
2000
3020
0230
0302
,  // measure 17
1003
0010
1000
0010
0002
0000
0013
0000
,  // measure 18
1000
0100
1000
0100
0002
0000
0103
0000
,  // measure 19
0010
0001
0010
0001
0200
0000
0310
0000
,  // measure 20
1000
1000
0010
0010
0100
0100
0001
0001
,  // measure 21
0000
0100
0001
0100
0020
0000
1030
0000
,  // measure 22
0100
0010
0100
0010
0002
0000
1003
0000
,  // measure 23
0010
0100
0010
1000
0002
0000
0103
0010
,  // measure 24
0200
0302
0023
0130
,  // measure 25
0210
1300
0210
0302
,  // measure 26
1003
0100
1000
0100
1000
0000
0010
0000
,  // measure 27
0200
0302
0023
0230
,  // measure 28
1300
0000
0000
1000
0001
0000
0000
0001
0200
0000
0000
0000
0310
0000
1000
0000
,  // measure 29
1002
0013
2001
3200
,  // measure 30
0310
0001
0010
0001
1000
0000
1000
0100
,  // measure 31
0020
0032
0103
0020
,  // measure 32
1030
0000
0000
1000
0010
0000
0000
0010
0200
0000
0000
0301
1000
0000
0000
0000
,  // measure 33
0001
0000
0101
0000
0001
0010
0100
0000
,  // measure 34
1000
0000
1000
0010
0100
0000
0100
0010
,  // measure 35
1000
0000
1100
0000
0100
0010
0001
0000
,  // measure 36
1000
0000
0001
0010
0100
0000
0100
0010
,  // measure 37
0001
0000
0011
0000
0100
0010
1000
0000
,  // measure 38
0001
0000
1000
0010
0100
0000
0100
0010
,  // measure 39
1000
0000
1010
0000
0100
1000
0001
0000
,  // measure 40
0010
0000
0010
0001
1000
0000
1001
0000
,  // measure 41
0110
0000
0101
0000
0001
1000
0100
0000
,  // measure 42
0010
0100
1000
0000
0001
0001
0100
0000
,  // measure 43
0010
1000
0010
1000
0100
0100
0100
0000
,  // measure 44
0010
0001
0100
0000
0010
1000
0100
0000
,  // measure 45
0010
0000
1001
0000
0100
0010
1000
0000
,  // measure 46
0001
1000
0010
0100
0010
0010
1000
0000
,  // measure 47
0001
0101
1000
1100
,  // measure 48
0020
0032
0203
0310
,  // measure 49
2000
0000
0000
0000
3020
0000
0000
0000
0230
0000
0000
0000
0302
0000
0000
2000
,  // measure 50
0000
0000
0000
3003
0000
0010
0100
0010
,  // measure 51
0200
0302
0023
0230
,  // measure 52
1300
0000
0000
1000
0010
0000
0000
0010
0200
0000
0000
0000
0310
0000
1000
0000
,  // measure 53
0002
0000
0000
0000
0023
0000
0000
0000
0230
0000
0000
0000
0320
0000
0000
0002
,  // measure 54
0000
0000
0000
0000
0000
0000
0000
0033
0000
0000
0100
0000
0010
0000
0100
0000
,  // measure 55
0002
2003
3100
0020
,  // measure 56
0130
0000
0000
0100
1000
0000
0000
2000
0002
0000
0000
0000
0000
0000
3003
0000
;

//---------------dance-single - Classic 3 | Modern 5----------------
#NOTEDATA:;
#CHARTNAME:;
#STEPSTYPE:dance-single;
#DESCRIPTION:Classic 3 | Modern 5;
#CHARTSTYLE:;
#DIFFICULTY:Easy;
#METER:3;
#RADARVALUES:0.205324,0.238493,0.050430,0.344607,0.000000,171.000000,165.000000,6.000000,41.000000,0.000000,0.000000,0.000000,0.000000,0.000000,0.205324,0.238493,0.050430,0.344607,0.000000,171.000000,165.000000,6.000000,41.000000,0.000000,0.000000,0.000000,0.000000,0.000000;
#CREDIT:DDRDAIKENKAI;
#NOTES:
// measure 0
0000
0000
0000
0000
,  // measure 1
0000
0000
0000
0000
,  // measure 2
0000
0000
0000
0000
,  // measure 3
0000
0000
0000
0000
,  // measure 4
0000
0000
0000
0000
,  // measure 5
0000
0000
0000
0000
,  // measure 6
0000
0000
0000
0000
,  // measure 7
0000
0000
0000
0000
,  // measure 8
0000
0000
0000
0000
,  // measure 9
1000
2001
0001
3001
,  // measure 10
0100
0010
0100
0010
,  // measure 11
1000
2000
0000
3100
,  // measure 12
0010
0001
0010
0001
,  // measure 13
0100
0110
0010
0010
,  // measure 14
1000
0001
1000
0001
,  // measure 15
0100
0200
0000
0310
,  // measure 16
0200
0302
2003
3100
,  // measure 17
0010
0010
0002
0003
,  // measure 18
1000
1000
0200
0300
,  // measure 19
1000
1000
0020
0030
,  // measure 20
0100
0100
0001
0001
,  // measure 21
0010
0010
0200
0300
,  // measure 22
1000
1000
0002
0003
,  // measure 23
0100
0100
0020
0030
,  // measure 24
2000
3200
0320
0032
,  // measure 25
2003
0010
0001
0100
,  // measure 26
0002
0000
3003
1000
,  // measure 27
0002
0010
1000
0100
,  // measure 28
2003
3002
0200
0303
,  // measure 29
0020
1000
0100
0001
,  // measure 30
0200
0000
0330
0010
,  // measure 31
0200
1000
0010
0001
,  // measure 32
0320
2030
0200
3300
,  // measure 33
0010
0011
0001
0100
,  // measure 34
0010
1000
0100
0000
,  // measure 35
1000
1010
0010
0100
,  // measure 36
0001
0010
0100
0000
,  // measure 37
1000
1100
0100
0010
,  // measure 38
0001
1000
0010
0000
,  // measure 39
0100
0101
0001
1000
,  // measure 40
0100
1000
0001
0000
,  // measure 41
1000
1000
0100
0100
,  // measure 42
0010
0010
0001
0001
,  // measure 43
0100
0010
0100
0100
,  // measure 44
0001
0001
1000
1000
,  // measure 45
0010
0010
1000
1000
,  // measure 46
0100
0100
0001
0001
,  // measure 47
0100
1000
0010
0100
,  // measure 48
0020
2030
3002
0103
,  // measure 49
0002
0010
0010
0100
,  // measure 50
0200
0000
0303
0100
,  // measure 51
0020
1000
1030
0200
,  // measure 52
0020
0000
0330
0001
,  // measure 53
2000
0010
0010
0100
,  // measure 54
0200
0000
3300
1000
,  // measure 55
0002
0100
0103
0002
,  // measure 56
2000
0000
0000
3003
;
