#VERSION:0.83;
#TITLE:GAME;
#SUBTITLE:;
#ARTIST:BoA;
#TITLETRANSLIT:;
#SUBTITLETRANSLIT:;
#ARTISTTRANSLIT:;
#GENRE:K-POP;
#ORIGIN:;
#CREDIT:;
#BANNER:GAME.png;
#BACKGROUND:GAME-bg.png;
#PREVIEWVID:;
#JACKET:GAME-jacket.png;
#CDIMAGE:;
#DISCIMAGE:;
#LYRICSPATH:;
#CDTITLE:CDTitle.png;
#MUSIC:GAME.ogg;
#OFFSET:0.000000;
#SAMPLESTART:38.080002;
#SAMPLELENGTH:15.040000;
#SELECTABLE:YES;
#BPMS:0.000=126.000;
#STOPS:;
#DELAYS:;
#WARPS:;
#TIMESIGNATURES:0.000=4=4;
#TICKCOUNTS:0.000=4;
#COMBOS:0.000=1;
#SPEEDS:0.000=1.000=0.000=0;
#SCROLLS:0.000=1.000;
#FAKES:;
#LABELS:0.000=Song Start;
#BGCHANGES:-0.200=GAME.avi=1.000=0=0=0=StretchNoLoop====,
248.000=GAME-bg.png=1.000=0=0=1=====,
99999=-nosongbg-=1.000=0=0=0 // don't automatically add -songbackground-
;
#KEYSOUNDS:;
#ATTACKS:
;

//---------------dance-single - ----------------
#NOTEDATA:;
#CHARTNAME:;
#STEPSTYPE:dance-single;
#DESCRIPTION:;
#CHARTSTYLE:;
#DIFFICULTY:Hard;
#METER:8;
#RADARVALUES:0.485839,0.521916,0.252540,0.900726,0.223077,404.000000,374.000000,30.000000,107.000000,0.000000,0.000000,1.000000,0.000000,0.000000,0.485839,0.521916,0.252540,0.900726,0.223077,404.000000,374.000000,30.000000,107.000000,0.000000,0.000000,1.000000,0.000000,0.000000;
#CREDIT:DDRDAIKENKAI;
#NOTES:
// measure 0
0000
0000
0000
0000
,  // measure 1
0000
0000
0000
0000
,  // measure 2
0000
0000
0000
0000
,  // measure 3
0000
0000
0000
0000
,  // measure 4
2000
3000
0002
0003
0020
0000
0130
2000
,  // measure 5
0000
3002
0203
0300
0020
0000
0030
0000
,  // measure 6
1000
0100
1000
0010
1000
0100
0010
0001
,  // measure 7
0100
0002
0010
0023
0100
0230
1300
0001
,  // measure 8
2000
3000
0002
0003
0020
0000
0031
0200
,  // measure 9
0000
0320
2030
3000
0002
0000
0003
0000
,  // measure 10
1000
0100
1000
0010
0100
0001
0010
0001
,  // measure 11
0100
0020
1000
2030
3001
0100
0201
0000
,  // measure 12
0301
1000
0000
0001
0000
0000
1000
0000
0010
0100
0000
0000
0101
0000
0000
0000
,  // measure 13
0100
0000
0001
0100
0000
0000
0010
1000
0000
0010
0000
0000
1100
0000
0000
0000
,  // measure 14
0100
0010
0000
0001
0000
0100
0000
0000
0001
0010
0000
0100
0000
0000
0000
0000
,  // measure 15
1000
0001
0000
1000
0000
0020
0000
0000
0100
0000
0130
0000
0110
0000
0000
0000
,  // measure 16
0001
0010
0000
0001
0000
0000
0100
0000
0010
1000
0000
0000
1100
0000
0000
0000
,  // measure 17
1000
0000
0001
0000
0100
0000
0010
0000
0100
0000
0001
1000
0000
0000
0000
0000
,  // measure 18
0010
0100
0000
0010
0000
0100
0000
0000
0001
0010
0000
0100
0000
0000
0000
0000
,  // measure 19
1000
0100
0000
0010
0000
0001
0000
0000
0101
0000
1001
0000
0001
1000
0100
0000
,  // measure 20
2000
3020
0230
0301
0000
0002
0023
0230
,  // measure 21
2300
0000
3020
0000
0030
0000
1010
0000
0000
0000
0100
0000
0001
0000
0010
0002
,  // measure 22
0000
0000
0103
0000
2000
0000
0100
0000
3000
0000
0001
0000
0010
0000
0100
2000
,  // measure 23
0000
3010
0002
0000
0023
1000
2030
0000
,  // measure 24
3002
0203
0320
1000
0030
0200
0302
2003
,  // measure 25
3020
0000
0032
0000
0000
0000
1003
0000
0000
0000
0001
0000
0010
0000
0001
0200
,  // measure 26
0000
0000
0310
0000
2000
0000
0100
0000
3000
0000
1000
0000
0010
0000
0100
0020
,  // measure 27
0000
1030
0002
0100
0003
0001
0012
0000
,  // measure 28
1003
0000
0000
0002
0023
2030
3001
0000
,  // measure 29
1000
0010
0100
1000
0001
0000
2001
0000
,  // measure 30
3002
0003
0000
2000
3020
0032
1003
0000
,  // measure 31
0001
0010
1000
0001
0100
0000
0110
0000
,  // measure 32
0020
0000
0000
2030
0000
0000
3002
0000
0023
0000
0230
0000
1300
0001
0000
0000
,  // measure 33
0011
0000
0000
1010
0000
0001
0100
0010
,  // measure 34
1000
0100
1000
0001
0000
0000
0002
0000
0023
0000
0032
0000
0103
0000
0020
0000
,  // measure 35
0000
1030
0100
2000
0001
3001
1000
0000
,  // measure 36
0120
0000
2030
0000
3100
0001
0010
0002
,  // measure 37
0000
0000
0203
0000
1300
0010
0001
0010
,  // measure 38
0200
0000
0001
0302
0000
0000
0013
0200
,  // measure 39
0000
1000
0000
1300
,  // measure 40
0002
0023
2030
0001
3000
0200
2300
3002
,  // measure 41
0203
0000
0020
0000
0030
0000
0301
0000
0000
0000
1000
0000
0100
0000
1000
0002
,  // measure 42
0000
0000
2003
0000
3020
0000
0100
0000
0030
0000
0100
0000
0010
0000
0100
0002
,  // measure 43
0000
0013
0200
1000
0300
1000
2000
0001
,  // measure 44
0004
0000
0000
0000
,  // measure 45
0000
0000
0000
0000
3000
0000
0003
0000
1000
0001
0000
1000
0000
0001
1000
0000
,  // measure 46
1001
0001
0100
0000
0010
1000
0100
0001
,  // measure 47
0101
0000
0100
0000
1000
0000
1001
0000
0000
0000
0001
0000
0010
0000
0001
0100
,  // measure 48
0010
0000
1000
0000
1100
0000
0000
0000
0100
0000
1000
0000
0010
0000
0100
0001
,  // measure 49
0010
0001
0201
0000
0001
0001
0301
0000
,  // measure 50
0110
0010
1000
0000
0001
1000
0100
0010
,  // measure 51
0011
0000
0001
0000
0100
0000
1100
0000
0000
0000
0100
0000
0001
0000
0001
2000
,  // measure 52
0000
0000
3010
0000
1000
0000
1100
0000
0000
0000
1000
0000
0001
0000
0001
0020
,  // measure 53
0000
0031
0100
0110
0000
0010
2001
0000
,  // measure 54
3100
0000
0100
1000
0000
1000
0020
0000
0032
0000
0203
0000
1300
0000
0000
0000
,  // measure 55
1000
0100
0010
1000
0010
0001
1000
1001
,  // measure 56
0001
0000
0100
0010
0000
0010
2000
0000
3200
0000
0302
0000
1003
0000
0000
0000
,  // measure 57
0010
0001
0010
0001
0100
0010
0110
0000
,  // measure 58
0010
0000
1000
0200
0000
0000
2300
0000
3020
0000
0230
0000
0301
1000
0000
0000
,  // measure 59
1100
0000
0000
0101
0000
0000
1020
0000
0000
0000
1030
0000
1000
0000
0001
0000
,  // measure 60
0010
0100
0010
0001
0000
0000
0002
0000
0023
0000
0230
0000
0301
0000
0200
0000
,  // measure 61
0000
1300
0010
0002
0100
0103
0010
0000
,  // measure 62
0001
0000
0000
0000
;

//---------------dance-single - ----------------
#NOTEDATA:;
#CHARTNAME:;
#STEPSTYPE:dance-single;
#DESCRIPTION:;
#CHARTSTYLE:;
#DIFFICULTY:Medium;
#METER:5;
#RADARVALUES:0.349948,0.391437,0.033672,0.252540,0.000000,291.000000,287.000000,4.000000,30.000000,0.000000,0.000000,0.000000,0.000000,0.000000,0.349948,0.391437,0.033672,0.252540,0.000000,291.000000,287.000000,4.000000,30.000000,0.000000,0.000000,0.000000,0.000000,0.000000;
#CREDIT:DDRDAIKENKAI;
#NOTES:
// measure 0
0000
0000
0000
0000
,  // measure 1
0000
0000
0000
0000
,  // measure 2
0000
0000
0000
0000
,  // measure 3
0000
0000
0000
0000
,  // measure 4
0100
0000
0001
0000
1000
0000
0100
0010
,  // measure 5
0000
0001
1000
0000
0002
0000
0003
0000
,  // measure 6
0010
0000
0010
0000
0001
0100
0001
0100
,  // measure 7
0002
2000
0000
0000
0000
3003
0000
0000
,  // measure 8
0001
0000
0100
0000
0010
0000
1000
0100
,  // measure 9
0000
1000
0001
0000
2000
0000
3000
0000
,  // measure 10
0100
0000
0100
0000
1000
0010
1000
0010
,  // measure 11
2000
0002
0000
0000
0000
3003
0000
0000
,  // measure 12
1000
0100
1000
0000
0001
0010
0001
0000
,  // measure 13
0100
0010
0100
0000
0001
1000
0001
0000
,  // measure 14
0001
0010
0100
0000
1000
0100
0010
0000
,  // measure 15
0001
1000
0001
0000
0100
0100
0100
0000
,  // measure 16
0010
0010
1000
0000
0100
0010
0001
0000
,  // measure 17
0100
0100
0001
0000
0010
0100
1000
0000
,  // measure 18
0001
0010
0001
0000
0100
0010
0100
0000
,  // measure 19
0001
1000
0001
0000
1000
1000
1000
1000
,  // measure 20
0010
0100
0020
0000
0030
1000
0001
0100
,  // measure 21
0010
2000
0000
3000
0000
0001
0010
0000
,  // measure 22
0001
0100
0001
0000
0010
0100
1000
0000
,  // measure 23
0001
0100
0001
0000
1000
0001
1000
0000
,  // measure 24
0010
0100
0020
0000
0030
1000
0100
0010
,  // measure 25
0001
0200
0000
0300
0000
0010
1000
0000
,  // measure 26
0001
0010
0100
0000
1000
0001
0100
0000
,  // measure 27
0010
1000
0010
0000
1000
0001
2000
0000
,  // measure 28
3001
0000
0000
0001
0010
0100
2000
0000
,  // measure 29
3000
0001
0010
0001
0200
0000
0320
0000
,  // measure 30
2030
3000
0000
1000
0100
0010
0002
0000
,  // measure 31
0003
0010
0001
0010
0002
0000
2003
0000
,  // measure 32
3020
0030
0000
0100
0010
1000
0001
0000
,  // measure 33
0110
0000
0000
1001
0000
1000
0100
0000
,  // measure 34
0010
0000
0000
0001
1000
0100
1000
0000
,  // measure 35
1000
0001
0100
0010
1000
0000
1001
0000
,  // measure 36
0002
0000
0000
0000
0000
0000
0000
0203
,  // measure 37
0000
0000
0000
0000
0000
0310
1000
0010
,  // measure 38
2000
0000
0000
3002
0000
0000
2003
0200
,  // measure 39
0000
0000
0000
3300
,  // measure 40
0010
0100
2000
0000
0000
0000
3001
0000
,  // measure 41
0001
0100
0020
0000
0000
1000
1030
0000
,  // measure 42
0001
0010
0002
0000
0000
0100
0103
0000
,  // measure 43
0100
0001
2000
0000
0000
0001
0002
0000
,  // measure 44
0000
0000
0000
0000
,  // measure 45
0000
0000
0000
3003
,  // measure 46
0001
0010
0001
0000
0000
1000
0100
1000
,  // measure 47
0100
1000
0000
0001
0000
1000
0001
0000
,  // measure 48
1000
0010
0100
0000
0001
0010
0100
0000
,  // measure 49
0010
0010
0001
0000
1000
0010
0010
0000
,  // measure 50
1000
0100
1000
0000
0000
0010
0100
0001
,  // measure 51
0100
0010
0000
0100
0000
0010
0100
0000
,  // measure 52
0010
0100
0010
0000
0100
0001
1000
0000
,  // measure 53
0001
1000
0001
0000
1000
1000
1000
0000
,  // measure 54
0001
0000
1000
0001
0010
0100
1000
0000
,  // measure 55
0001
0100
0001
0100
0010
0000
1000
0000
,  // measure 56
0001
0000
0001
1000
0100
0010
0001
0000
,  // measure 57
1000
0010
1000
0010
0100
0000
0001
0000
,  // measure 58
1000
0000
0100
0010
0100
0010
0001
0000
,  // measure 59
1000
0000
0000
0001
0000
0100
0010
0100
,  // measure 60
0001
0000
0010
0100
0010
0100
1000
0000
,  // measure 61
0001
0010
0100
1000
0001
0000
1001
0000
,  // measure 62
0100
0000
0000
0000
;

//---------------dance-single - ----------------
#NOTEDATA:;
#CHARTNAME:;
#STEPSTYPE:dance-single;
#DESCRIPTION:;
#CHARTSTYLE:;
#DIFFICULTY:Easy;
#METER:3;
#RADARVALUES:0.205640,0.234862,0.058926,0.134688,0.000000,171.000000,164.000000,7.000000,16.000000,0.000000,0.000000,0.000000,0.000000,0.000000,0.205640,0.234862,0.058926,0.134688,0.000000,171.000000,164.000000,7.000000,16.000000,0.000000,0.000000,0.000000,0.000000,0.000000;
#CREDIT:DDRDAIKENKAI;
#NOTES:
// measure 0
0000
0000
0000
0000
,  // measure 1
0000
0000
0000
0000
,  // measure 2
0000
0000
0000
0000
,  // measure 3
0000
0000
0000
0000
,  // measure 4
1000
0001
0100
0010
,  // measure 5
0010
0100
0001
0000
,  // measure 6
1000
0100
1000
0001
,  // measure 7
1000
2002
0000
3003
,  // measure 8
0001
0100
0010
1000
,  // measure 9
0100
0010
0001
0000
,  // measure 10
1000
0001
0100
0001
,  // measure 11
0010
0220
0000
0330
,  // measure 12
1000
1000
0001
0001
,  // measure 13
0100
0100
0010
0010
,  // measure 14
1000
1000
0010
0010
,  // measure 15
1000
1000
0001
1000
,  // measure 16
0001
0001
0010
0010
,  // measure 17
0001
0001
0100
0100
,  // measure 18
0010
0010
1000
1000
,  // measure 19
0100
0010
0001
1000
,  // measure 20
0001
0100
0000
0010
,  // measure 21
1000
0100
0000
1000
,  // measure 22
0001
0001
0000
1000
,  // measure 23
0010
0010
0000
0100
,  // measure 24
0010
1000
0000
0001
,  // measure 25
1000
0010
0000
0100
,  // measure 26
0001
0001
0000
0010
,  // measure 27
1000
1000
0001
2002
,  // measure 28
3003
0001
0000
1000
,  // measure 29
0000
0010
0100
0010
,  // measure 30
1000
0001
0000
1000
,  // measure 31
0000
0001
0010
0001
,  // measure 32
0100
0010
0000
1000
,  // measure 33
0000
0100
0000
1000
,  // measure 34
0000
0010
0000
0100
,  // measure 35
0000
0001
0010
0100
,  // measure 36
2000
0000
0000
3000
,  // measure 37
0002
0000
0000
0003
,  // measure 38
0200
0000
0000
0300
,  // measure 39
0020
0000
0000
0030
,  // measure 40
2002
0000
0000
3003
,  // measure 41
0220
0000
0000
0330
,  // measure 42
0001
0000
0010
0000
,  // measure 43
0100
0000
2000
0000
,  // measure 44
0002
0000
0000
0000
,  // measure 45
0000
0000
0000
3003
,  // measure 46
1000
1000
0001
0001
,  // measure 47
0100
0010
0000
1000
,  // measure 48
0001
0001
0000
1000
,  // measure 49
0100
1000
0000
0010
,  // measure 50
0100
0001
0000
0100
,  // measure 51
0001
0010
0000
0001
,  // measure 52
0010
0100
0000
0010
,  // measure 53
0100
1000
0001
0001
,  // measure 54
1000
0000
0001
0000
,  // measure 55
0100
0010
1000
0001
,  // measure 56
1001
0000
0001
0000
,  // measure 57
1000
0010
0100
0001
,  // measure 58
1001
0000
0001
0000
,  // measure 59
1000
0000
0001
0000
,  // measure 60
0010
0000
0100
0000
,  // measure 61
1000
0100
0010
0001
,  // measure 62
1000
0000
0000
0000
;
