#VERSION:0.83;
#TITLE:Fox;
#SUBTITLE:;
#ARTIST:BoA;
#TITLETRANSLIT:;
#SUBTITLETRANSLIT:;
#ARTISTTRANSLIT:;
#GENRE:K-POP;
#ORIGIN:;
#CREDIT:;
#BANNER:Fox.png;
#BACKGROUND:Fox-bg.png;
#PREVIEWVID:;
#JACKET:Fox-jacket.png;
#CDIMAGE:;
#DISCIMAGE:;
#LYRICSPATH:;
#CDTITLE:CDtitle.png;
#MUSIC:Fox.ogg;
#OFFSET:-8.727000;
#SAMPLESTART:52.375000;
#SAMPLELENGTH:17.600000;
#SELECTABLE:YES;
#BPMS:0.000=110.000;
#STOPS:;
#DELAYS:;
#WARPS:;
#TIMESIGNATURES:0.000=4=4;
#TICKCOUNTS:0.000=4;
#COMBOS:0.000=1;
#SPEEDS:0.000=1.000=0.000=0;
#SCROLLS:0.000=1.000;
#FAKES:;
#LABELS:0.000=Song Start;
#BGCHANGES:15.188=Fox.avi=1.000=1=0=1===CrossFade==,
99999=-nosongbg-=1.000=0=0=0 // don't automatically add -songbackground-
;
#KEYSOUNDS:;
#ATTACKS:
;

//---------------dance-single - ----------------
#NOTEDATA:;
#CHARTNAME:;
#STEPSTYPE:dance-single;
#DESCRIPTION:;
#CHARTSTYLE:;
#DIFFICULTY:Hard;
#METER:7;
#RADARVALUES:0.430727,0.448188,0.193536,0.356514,0.147698,296.000000,277.000000,19.000000,35.000000,0.000000,0.000000,0.000000,0.000000,0.000000,0.430727,0.448188,0.193536,0.356514,0.147698,296.000000,277.000000,19.000000,35.000000,0.000000,0.000000,0.000000,0.000000,0.000000;
#CREDIT:DDRDAIKENKAI;
#NOTES:
// measure 0
2000
0000
0000
0100
0000
0000
3100
0000
0000
0010
0001
0010
,  // measure 1
0200
0000
1300
0001
0100
0000
0110
0000
,  // measure 2
1020
0000
0130
0002
0000
0013
0100
1000
,  // measure 3
0002
0000
1000
0000
1003
1001
1001
1000
,  // measure 4
0001
0000
0010
0000
0100
0000
1000
0000
0000
0000
0001
0010
0100
0000
1000
0000
,  // measure 5
0000
0000
1000
0000
0100
0000
0010
0000
0001
0000
0000
0000
1001
0000
0001
0010
,  // measure 6
0001
1000
0100
1000
0001
0100
0010
0100
,  // measure 7
0000
0010
1000
1000
0001
1000
2001
0000
,  // measure 8
3001
0000
0010
0001
0010
0000
0100
1000
0000
0000
0100
0000
1000
0000
0020
0000
,  // measure 9
0000
0032
0000
2003
0000
3100
0001
1000
,  // measure 10
0200
0000
0000
0310
0000
0000
0002
0000
0000
0000
1003
0000
1000
0000
0010
0000
,  // measure 11
1000
0100
1000
0001
1000
0100
0010
0001
,  // measure 12
0000
1000
0010
0001
0010
2000
0000
3001
,  // measure 13
1000
0100
0001
0100
2000
0000
3001
0001
,  // measure 14
0010
0000
0000
0100
1000
0000
0001
0000
0100
0000
0000
0010
1000
0000
0100
0000
,  // measure 15
0010
0000
1000
0000
0010
0000
0001
0000
2000
0000
0001
0000
3001
0000
0100
0010
,  // measure 16
0100
0001
1000
0010
2000
0000
3001
0001
,  // measure 17
0100
0000
0010
0000
0100
0000
0001
0000
2000
0000
0000
0000
3001
0000
0010
0100
,  // measure 18
0010
0000
0000
0001
0000
0000
2000
0000
0000
0000
3100
0000
0001
0000
0100
0000
,  // measure 19
1000
0000
1000
0100
0010
0000
0010
0001
0100
0000
0010
0000
0120
0000
1030
0000
,  // measure 20
0001
0000
0010
0100
1000
0000
0001
0010
0000
0100
0000
1000
0001
0000
0100
0000
,  // measure 21
0002
0000
0000
0000
2003
0000
0000
0000
3100
0000
0010
0000
0001
0100
0001
0000
,  // measure 22
0010
0100
0000
0001
0100
1000
0001
0010
,  // measure 23
0000
1100
0000
0011
0000
0001
2001
0001
,  // measure 24
3001
0100
1000
0100
0001
0010
0100
1000
,  // measure 25
0010
0000
0001
0000
1000
0000
0100
0000
0001
0000
1000
0000
0100
1000
0200
0000
,  // measure 26
0310
0000
0001
0000
1000
0000
0100
1000
0001
0000
0100
0010
0000
0000
1000
0000
,  // measure 27
0001
0010
1000
0100
0001
0010
1000
0100
,  // measure 28
0010
0000
1001
1000
0001
0010
0001
1000
,  // measure 29
0200
0000
0000
0000
0320
0000
0000
0000
0032
0000
1000
0000
1003
0100
2000
0000
,  // measure 30
0001
3001
0010
0010
0100
0100
1000
1010
,  // measure 31
0000
0000
0110
0000
0000
0000
0101
0000
0000
0000
1000
0000
0001
1000
0001
0000
,  // measure 32
0100
0000
0000
0000
0120
0000
0100
0000
0130
0000
0000
0000
0001
0010
0001
0000
,  // measure 33
0100
0000
2010
0010
3010
0000
1000
0100
,  // measure 34
0010
0000
0000
0001
1000
0000
0100
0000
0010
0000
0000
0001
1000
0000
2001
0000
,  // measure 35
0000
0010
0010
0100
0100
0001
3002
0000
,  // measure 36
2003
0000
0000
0100
0000
0000
3100
0000
0000
0010
0001
0010
,  // measure 37
0200
0000
1300
0001
0100
0000
0110
0000
,  // measure 38
1020
0000
0130
0002
0000
0013
0100
1000
,  // measure 39
0002
0000
0000
0000
,  // measure 40
0003
0000
0000
0000
;

//---------------dance-single - ----------------
#NOTEDATA:;
#CHARTNAME:;
#STEPSTYPE:dance-single;
#DESCRIPTION:;
#CHARTSTYLE:;
#DIFFICULTY:Medium;
#METER:5;
#RADARVALUES:0.302673,0.305583,0.010186,0.305583,0.000000,208.000000,207.000000,1.000000,30.000000,0.000000,0.000000,0.000000,0.000000,0.000000,0.302673,0.305583,0.010186,0.305583,0.000000,208.000000,207.000000,1.000000,30.000000,0.000000,0.000000,0.000000,0.000000,0.000000;
#CREDIT:DDRDAIKENKAI;
#NOTES:
// measure 0
2000
0000
0001
0000
3001
0000
0001
0010
,  // measure 1
0002
0000
0000
0023
0000
0000
0130
0000
,  // measure 2
2000
0000
0000
3020
0000
0130
0010
1000
,  // measure 3
0002
0000
1000
0000
1000
1000
1003
0000
,  // measure 4
0001
1000
0001
0000
0100
0000
0010
0000
,  // measure 5
1000
0100
1000
0100
2000
0000
3000
0000
,  // measure 6
0001
0010
0001
0000
0100
0010
0100
0000
,  // measure 7
0010
1000
0100
1000
,  // measure 8
0001
0010
0001
0000
0100
0010
0000
0200
,  // measure 9
0000
0302
0000
2000
3003
0000
0100
0100
,  // measure 10
0010
0001
0100
0001
,  // measure 11
0010
0100
0010
0100
1000
0001
1000
0001
,  // measure 12
0000
1000
0100
0000
1000
0001
0000
0100
,  // measure 13
0010
0000
0010
0100
0002
0000
0003
0010
,  // measure 14
0100
1000
0010
0001
,  // measure 15
0010
1000
0010
1000
0002
0000
2003
0000
,  // measure 16
3100
0010
0100
0010
0002
0000
1003
0000
,  // measure 17
0010
0100
0010
0100
0002
0000
1003
0000
,  // measure 18
0100
0100
0010
0010
,  // measure 19
0001
1000
0001
1000
0001
1000
0001
0000
,  // measure 20
0100
0010
1000
0000
0010
0100
0001
0000
,  // measure 21
0020
0000
0130
0000
1000
0001
1000
0000
,  // measure 22
0200
0000
0310
0000
0001
1000
0100
0000
,  // measure 23
2000
0000
3002
0000
0103
0010
0010
0000
,  // measure 24
0010
1000
0010
0000
1000
0100
1000
0000
,  // measure 25
0100
0001
0100
0000
0001
0010
0001
0000
,  // measure 26
0010
1000
0010
0000
1000
0100
1000
0000
,  // measure 27
0010
0100
0010
0100
0001
1000
0001
1000
,  // measure 28
0100
0000
1001
0000
0001
0010
1000
0000
,  // measure 29
0010
0000
0001
0000
1000
0100
0001
0000
,  // measure 30
0100
1000
0001
0000
0100
0001
1000
0000
,  // measure 31
0020
0000
2030
0000
3002
0000
0103
0100
,  // measure 32
0010
0000
0100
0100
0001
0000
1000
1000
,  // measure 33
0010
0000
1000
1000
0001
0000
1000
0100
,  // measure 34
0010
0000
0001
0000
0100
0000
0010
0020
,  // measure 35
0000
1000
1000
2030
0000
0100
0100
0200
,  // measure 36
3300
0000
0100
0000
0100
0000
0010
0001
,  // measure 37
0200
0000
0000
0320
0000
0000
0130
0000
,  // measure 38
0002
0000
0000
0023
0000
0130
1000
0001
,  // measure 39
2000
0000
0000
0000
,  // measure 40
3000
0000
0000
0000
;

//---------------dance-single - ----------------
#NOTEDATA:;
#CHARTNAME:;
#STEPSTYPE:dance-single;
#DESCRIPTION:;
#CHARTSTYLE:;
#DIFFICULTY:Easy;
#METER:3;
#RADARVALUES:0.192081,0.224094,0.040744,0.244466,0.000000,132.000000,128.000000,4.000000,24.000000,0.000000,0.000000,0.000000,0.000000,0.000000,0.192081,0.224094,0.040744,0.244466,0.000000,132.000000,128.000000,4.000000,24.000000,0.000000,0.000000,0.000000,0.000000,0.000000;
#CREDIT:DDRDAIKENKAI;
#NOTES:
// measure 0
2002
0000
3003
0001
,  // measure 1
0020
0000
0000
0030
0002
0000
0003
0000
,  // measure 2
0200
0000
0000
0300
0010
0000
1000
0000
,  // measure 3
0002
0000
0000
0003
,  // measure 4
1000
0001
0000
1000
,  // measure 5
0000
0010
0010
0000
,  // measure 6
0100
0100
0001
0001
,  // measure 7
1000
0001
1000
1000
,  // measure 8
0000
0100
0000
0010
,  // measure 9
0001
1000
0001
1000
,  // measure 10
1000
0000
0001
0000
,  // measure 11
0100
0100
0100
0100
,  // measure 12
0100
0010
1000
0000
,  // measure 13
1000
0001
1000
0000
,  // measure 14
0001
0001
0100
0100
,  // measure 15
0010
1000
0020
0030
,  // measure 16
1000
0100
2000
3000
,  // measure 17
0001
0100
0002
0003
,  // measure 18
0010
0100
0010
0100
,  // measure 19
1000
0001
1000
0001
,  // measure 20
0000
0100
0010
1000
,  // measure 21
0002
0000
0003
1000
,  // measure 22
0001
0001
1000
1000
,  // measure 23
0010
0010
0100
0100
,  // measure 24
0001
0010
0100
1000
,  // measure 25
0010
1000
0100
0010
,  // measure 26
0001
0100
0010
1000
,  // measure 27
0200
0302
0023
2030
,  // measure 28
3000
1001
0001
0001
,  // measure 29
0100
0100
0010
0010
,  // measure 30
1000
0100
1000
0010
,  // measure 31
0100
0000
0001
0000
0010
0000
0001
0001
,  // measure 32
0000
0000
1000
1000
0000
0000
0010
0010
,  // measure 33
0000
0000
0100
0100
0000
0000
0001
0000
,  // measure 34
2000
0000
3200
0000
0320
0000
0031
0002
,  // measure 35
0000
0100
0103
0110
,  // measure 36
2002
0000
3003
1000
,  // measure 37
0200
0000
0000
0300
2000
0000
3000
0000
,  // measure 38
0020
0000
0000
0030
0100
0000
0001
0000
,  // measure 39
2000
0000
0000
0000
,  // measure 40
3000
0000
0000
0000
;
