#TITLE:抱きしめる;
#SUBTITLE:;
#ARTIST:BoA;
#TITLETRANSLIT:DAKISHIMERU;
#SUBTITLETRANSLIT:;
#ARTISTTRANSLIT:;
#GENRE:J-POP;
#CREDIT:;
#BANNER:Dakishimeru.png;
#BACKGROUND:Dakishimeru-bg.png;
#LYRICSPATH:;
#CDTITLE:CDTitle.png;
#MUSIC:Dakishimeru.ogg;
#OFFSET:0.010000;
#SAMPLESTART:89.959999;
#SAMPLELENGTH:15.700000;
#SELECTABLE:YES;
#DISPLAYBPM:124.000000;
#BPMS:0.000000=123.995003
,15.000000=495.980011
,16.000000=123.995003
,166.000000=247.990005
,167.000000=495.980011
,168.000000=123.979996
,183.500000=61.989998
,184.000000=123.979996
;
#STOPS:15.000000=0.363000,
166.000000=0.242000,
167.000000=0.363000,
183.500000=0.726000
;
#BGCHANGES:6.000=dakishimeru.avi=1.000=1=0=0=StretchNoLoop==CrossFade==,
231.813=Dakishimeru-bg.png=1.000=0=0=1=====,
99999=-nosongbg-=1.000=0=0=0 // don't automatically add -songbackground-
;
#KEYSOUNDS:;
#ATTACKS:;

//---------------dance-single - ----------------
#NOTES:
     dance-single:
     :
     Challenge:
     10:
     0.712102,0.786931,0.613234,0.586952,0.608853,569.000000,499.000000,70.000000,67.000000,4.000000,0.000000,0.712102,0.786931,0.613234,0.586952,0.608853,569.000000,499.000000,70.000000,67.000000,4.000000,0.000000:
// measure 0
0000
0000
0000
0000
,  // measure 1
0000
0000
0000
0000
,  // measure 2
0000
0000
0000
0000
,  // measure 3
0000
0000
0000
0000
,  // measure 4
1000
0001
0100
0001
0100
0000
0010
0000
1000
0000
0001
0000
1001
0000
1000
0100
,  // measure 5
2000
0000
0000
0000
0000
0000
0000
0000
3002
0000
0000
0000
0000
0000
0000
0000
0023
0000
0000
0000
0000
0000
0000
0000
0130
0000
0000
0000
0000
1000
0000
0000
0000
0000
0000
0000
0000
0001
0000
0000
1000
0000
0000
0000
0000
0001
0000
0000
1000
0000
0000
0000
0000
0010
0000
0000
1000
0000
0000
0000
0000
0001
0000
0000
,  // measure 6
1000
0000
0000
0000
0010
0000
0000
0000
0100
0000
0000
0000
0010
0000
0000
0000
0100
0000
0000
0000
0000
0000
0000
0000
0010
0000
0000
0000
1000
0000
0000
0000
0010
0000
0000
0000
0000
0000
0000
0000
0010
0000
0000
0000
0000
1000
0000
0000
0000
0000
0000
0000
0000
0001
0000
0000
0100
0000
0000
0000
0000
0001
0000
0000
,  // measure 7
0200
0000
0000
0000
0000
0000
0000
0000
0302
0000
0000
0000
0000
0000
0000
0000
0023
0000
0000
0000
0000
0000
0000
0000
0031
0000
0000
0000
0000
0100
0000
0000
0000
0000
0000
0000
0000
0010
0000
0000
2000
0000
0000
0000
0000
0000
0000
0000
3001
0000
0000
0000
0000
0010
0000
0000
0002
0000
0000
0000
0000
0000
0000
0000
,  // measure 8
1003
0000
0000
0000
0010
0000
0000
0000
0100
0000
0000
0000
0001
0000
0000
0000
1000
0000
0000
0000
0100
0000
0000
0000
1000
0000
0000
0000
0100
0000
0000
0000
1000
0000
0000
0000
0001
0000
0000
0000
0010
0000
0000
0000
0002
0000
0000
0000
0000
0000
0000
0000
0000
0000
0000
0000
1003
0000
0000
0000
0000
0010
0000
0000
,  // measure 9
2000
0000
3200
0000
2300
0000
3010
0200
0000
0301
0020
0000
0031
0200
0000
0000
,  // measure 10
2300
0000
3100
0001
1000
0100
1200
1000
,  // measure 11
2300
0000
0000
0000
0000
0000
0000
0000
0000
0000
0000
0000
0000
0000
0000
0000
3010
0000
0000
0000
0000
0000
0000
0000
0100
0000
0000
0000
0000
0000
0000
0000
0001
0000
0000
0000
0000
0000
0000
0000
0010
0000
0000
0000
0000
0000
0000
0000
0110
0000
0000
0000
0000
0100
0000
0000
0010
0000
0000
0000
0000
0000
0000
0000
,  // measure 12
0010
0001
0010
0000
0001
0100
0001
0100
0010
0000
0001
0010
0000
0000
1000
0100
,  // measure 13
2000
0000
0000
0000
0000
0000
0000
0000
3200
0000
0000
0000
0000
0000
0000
0000
0320
0000
0000
0000
0000
0000
0000
0000
0130
0000
0000
0000
0010
0000
0000
0000
0000
0000
0000
0000
0000
0100
0000
0000
1000
0000
0000
0000
0000
0100
0000
0000
1000
0000
0000
0000
0000
0100
0000
0000
1000
0000
0000
0000
0000
0001
0000
0000
,  // measure 14
1000
0000
0000
0000
0000
0001
0000
0000
0100
0000
0000
0000
0000
0001
0000
0000
0100
0000
0000
0000
0000
0010
0000
0000
1000
0000
0000
0000
0000
0010
0000
0000
1000
0000
0000
0000
0000
0000
0000
0000
0001
0000
0000
0000
0000
0010
0000
0000
0000
0000
0000
0000
0000
0010
0000
0000
0001
0000
0000
0000
0100
0000
0000
0000
,  // measure 15
0002
0000
0000
0000
0000
0000
0000
0000
0023
0000
0000
0000
0000
0000
0000
0000
2030
0000
0000
0000
0000
0000
0000
0000
3010
0000
0000
0000
0100
0000
0000
0000
0000
0000
0000
0000
0000
1000
0000
0000
0002
0000
0000
0000
0000
0000
0000
0000
1003
0000
0000
0000
0000
0010
0000
0000
2000
0000
0000
0000
0000
0000
0000
0000
,  // measure 16
3001
1000
0100
1000
0100
1000
0001
1000
0001
0000
0100
0010
0000
0010
0100
0010
,  // measure 17
0200
0000
0302
0000
1003
0000
1000
0020
0000
0130
0002
0000
0013
0002
0000
0000
,  // measure 18
2003
0000
3001
0010
0100
1000
2100
0100
,  // measure 19
3200
0000
0000
0000
0000
0000
0000
0000
0000
0000
0000
0000
0000
0000
0000
0000
0310
0000
0000
0000
0000
0000
0000
0000
0001
0000
0000
0000
0000
0000
0000
0000
0100
0000
0000
0000
0000
0000
0000
0000
0010
0000
0000
0000
0000
0000
0000
0000
0110
0000
0000
0000
0000
0010
0000
0000
1000
0000
0000
0000
0000
0000
0000
0000
,  // measure 20
0001
0000
1001
0000
0000
0110
0000
0000
1010
0000
0000
0011
0000
0000
1100
0000
,  // measure 21
0100
0000
0110
0000
0000
0011
0000
0000
1100
0000
1100
0000
1100
0000
1100
0000
,  // measure 22
0002
0000
0000
0103
0010
0000
1000
0000
0100
0000
1000
0000
0110
0000
0000
0000
,  // measure 23
0020
0000
0000
0000
0000
0000
0000
0000
2030
0000
0000
0000
0000
0000
0000
0000
3002
0000
0000
0000
0000
0000
0000
0000
0023
0000
0000
0000
0000
0000
0000
0000
2030
0000
0000
0000
0000
0000
0000
0000
3002
0000
0000
0000
0000
0000
0000
0000
0103
0000
0000
0000
0000
1000
0000
0000
0100
0000
0000
0000
0000
0000
0000
0000
,  // measure 24
0001
0000
0101
0000
0000
0101
0000
0000
1100
0000
0000
1100
0000
0000
0110
0000
,  // measure 25
0010
0000
1010
0000
0000
1100
0000
0000
1001
0000
0101
0000
1001
0000
1100
0000
,  // measure 26
0010
0000
0110
0000
0100
0001
0000
0001
1000
0000
1000
0100
0000
0100
1000
0000
,  // measure 27
1100
0000
0000
1100
0000
0000
0011
0000
0000
0011
0000
0000
1001
0000
1001
0000
,  // measure 28
0120
0000
0000
1030
0100
0000
1000
0000
0010
0000
0100
0000
0102
0000
0000
0000
,  // measure 29
0013
0000
0000
0000
0000
0000
0000
0000
0100
0000
0000
0000
0000
0000
0000
0000
0010
0000
0000
0000
0000
0000
0000
0000
0001
0000
0000
0000
0000
0000
0000
0000
0100
0000
0000
0000
0000
0000
0000
0000
0001
0000
0000
0000
0000
0000
0000
0000
1000
0000
0000
0000
0000
0001
0000
0000
1000
0000
0000
0000
0000
0000
0000
0000
,  // measure 30
0001
0000
0120
0000
2030
0000
3001
0100
,  // measure 31
0010
1000
0100
0010
0011
0001
1001
1000
,  // measure 32
1020
0000
0000
0130
0001
0000
1000
0000
0100
0000
1000
0000
1002
0000
0000
0000
,  // measure 33
1003
0000
0000
0000
0000
0000
0000
0000
0010
0000
0000
0000
0000
0000
0000
0000
1000
0000
0000
0000
0000
0000
0000
0000
0100
0000
0000
0000
0000
0000
0000
0000
0001
0000
0000
0000
0000
0000
0000
0000
0100
0000
0000
0000
0000
0000
0000
0000
1000
0000
0000
0000
0000
0001
0000
0000
0100
0000
0000
0000
0000
0000
0000
0000
,  // measure 34
0010
0000
0120
0000
0230
0000
0301
0010
,  // measure 35
0100
1000
0100
0001
0020
0001
0032
0100
,  // measure 36
0203
1000
2300
0000
3010
0001
0010
1000
,  // measure 37
1100
0000
0001
0100
0000
0000
0011
0000
1000
0010
0000
0000
1001
0000
1001
0000
,  // measure 38
0001
0000
0000
0000
0000
1000
0000
0000
0001
0000
0000
0000
0000
1000
0000
0000
0001
0000
0000
0000
0000
0100
0000
0000
0001
0000
0000
0000
0000
0100
0000
0000
0001
0000
0000
0000
0000
1000
0000
0000
0010
0000
0000
0000
0000
0100
0000
0000
0002
0000
0000
0000
0000
0000
0000
0000
0000
0000
0000
0000
0000
0000
0000
0000
,  // measure 39
1003
0000
0000
0000
0000
0001
0000
0000
1000
0000
0000
0000
0000
0001
0000
0000
1000
0000
0000
0000
0000
0010
0000
0000
1000
0000
0000
0000
0000
0010
0000
0000
1000
0000
0000
0000
0000
0001
0000
0000
0100
0000
0000
0000
0000
0010
0000
0000
2000
0000
0000
0000
0000
0000
0000
0000
0000
0000
0000
0000
0000
0000
0000
0000
,  // measure 40
3010
0000
0000
0000
0000
0100
0000
0000
0001
0000
0000
0000
0000
0001
0000
0000
0010
0000
0000
0000
0000
0010
0000
0000
0001
0000
0000
0000
0000
0001
0000
0000
1000
0000
0000
0000
0000
1000
0000
0000
0010
0000
0000
0000
0000
0100
0000
0000
0020
0000
0000
0000
0000
0000
0000
0000
0000
0000
0000
0000
0000
0000
0000
0000
,  // measure 41
1030
0000
0000
0000
0000
1000
0000
0000
0001
0000
0000
0000
0000
0001
0000
0000
0010
0000
0000
0000
0000
0010
0000
0000
0100
0000
0000
0000
0000
0100
0000
0000
M000
0000
0000
0000
0000
0000
0000
0000
0000
0000
0000
0000
0000
0000
0000
0000
0011
0000
0000
0000
0000
0000
0000
0000
0000
0000
0000
0000
0000
0000
0000
0000
,  // measure 42
1000
0000
0000
0000
0000
0000
0000
0000
0000
0000
0000
0000
0000
0100
0000
0000
0010
0000
0000
0000
0000
0000
0000
0000
0011
0000
0000
0000
0000
0000
0000
0000
0001
0000
0000
0000
0000
0000
0000
0000
0100
0000
0000
0000
0000
0000
0000
0000
0110
0000
0000
0000
0000
0000
0000
0000
0010
0000
0000
0000
0000
0000
0000
0000
,  // measure 43
1001
0000
0000
0000
0000
0000
0000
0000
0000
0000
0000
0000
0000
1000
0000
0000
0100
0000
0000
0000
0000
0000
0000
0000
1100
0000
0000
0000
0000
0000
0000
0000
1000
0000
0000
0000
0000
0000
0000
0000
0010
0000
0000
0000
0000
0000
0000
0000
0110
0000
0000
0000
0000
0000
0000
0000
0010
0000
0000
0000
0000
0000
0000
0000
,  // measure 44
1001
0000
0000
0000
0000
0000
0000
0000
0000
0000
0000
0000
0000
1000
0000
0000
0001
0000
0000
0000
0000
0000
0000
0000
0011
0000
0000
0000
0000
0000
0000
0000
0001
0000
0000
0000
0000
0000
0000
0000
1000
0000
0000
0000
0000
0000
0000
0000
1100
0000
0000
0000
0000
0000
0000
0000
1000
0000
0000
0000
0000
0000
0000
0000
,  // measure 45
1010
0000
0000
0000
0000
0000
0000
0000
0000
0000
0000
0000
0000
0010
0000
0000
0100
0000
0000
0000
0000
0000
0000
0000
0101
0000
0000
0000
0000
0000
0000
0000
0001
0000
0000
0000
0000
0010
0000
0000
0100
0000
0000
0000
0000
0000
0000
0000
0110
0000
0000
0000
0000
0100
0000
0000
0010
000M
0000
0M00
0000
00M0
0000
0000
,  // measure 46
2000
0000
0000
3001
0100
0000
0010
0000
0001
0000
0010
0000
1020
0000
0000
0000
,  // measure 47
0130
0000
0000
0000
0000
0000
0000
0000
0001
0000
0000
0000
0000
0000
0000
0000
0010
0000
0000
0000
0000
0000
0000
0000
0100
0000
0000
0000
0000
0000
0000
0000
0001
0000
0000
0000
0000
0000
0000
0000
0100
0000
0000
0000
0000
0000
0000
0000
1000
0000
0000
0000
0000
0001
0000
0000
0100
0000
0000
0000
0000
0000
0000
0000
,  // measure 48
0010
0000
0000
0100
0020
0000
1000
0000
2030
0000
0001
0000
3001
0000
0010
0000
,  // measure 49
1000
0010
0001
0100
0110
0010
1010
1000
,  // measure 50
1002
0000
0000
1003
0100
0000
1000
0000
0010
0000
0100
0000
0102
0000
0000
0000
,  // measure 51
1003
0000
0000
0000
0000
0000
0000
0000
0100
0000
0000
0000
0000
0000
0000
0000
1000
0000
0000
0000
0000
0000
0000
0000
0010
0000
0000
0000
0000
0000
0000
0000
0100
0000
0000
0000
0000
0000
0000
0000
1000
0000
0000
0000
0000
0000
0000
0000
0100
0000
0000
0000
0000
0010
0000
0000
1000
0000
0000
0000
0000
0000
0000
0000
,  // measure 52
0100
0000
0000
1000
0020
0000
0100
0000
0230
0000
0001
0000
0301
0000
0010
0000
,  // measure 53
0100
0000
0000
0000
0000
0000
0000
0000
0001
0000
0000
0000
0000
0000
0000
0000
0100
0000
0000
0000
0000
0000
0000
0000
1000
0000
0000
0000
0000
0000
0000
0000
0020
0000
0000
0000
0000
0000
0000
0000
1000
0000
0000
0000
0000
0000
0000
0000
1030
0000
0000
0000
0000
0100
0000
0000
1000
0000
0000
0000
0000
0000
0000
0000
,  // measure 54
0200
0000
0000
0000
0000
0000
0000
0000
1300
0000
0000
0000
0000
0000
0000
0000
1000
0000
0000
0000
0000
0010
0000
0000
0100
0000
0000
0000
0000
0010
0000
0000
0100
0000
0000
0000
0000
0001
0000
0000
0100
0000
0000
0000
0000
0001
0000
0000
0100
0000
0000
0000
0000
0010
0000
0000
1000
0000
0000
0000
0000
0010
0000
0000
,  // measure 55
1010
0000
0010
0110
0000
0000
0110
0000
0100
0101
0000
0000
0011
0000
0011
0000
,  // measure 56
0001
0000
0000
0000
0000
1000
0000
0000
0010
0000
0000
0000
0000
1000
0000
0000
0010
0000
0000
0000
0000
0100
0000
0000
0001
0000
0000
0000
0000
0100
0000
0000
0001
0000
0000
0000
0000
0010
0000
0000
0100
0000
0000
0000
0000
1000
0000
0000
0002
0000
0000
0000
0000
0000
0000
0000
0000
0000
0000
0000
0000
0000
0000
0000
,  // measure 57
1003
0000
0000
0000
0000
0010
0000
0000
0100
0000
0000
0000
0000
0010
0000
0000
0100
0000
0000
0000
0000
0001
0000
0000
1000
0000
0000
0000
0000
0001
0000
0000
1000
0000
0000
0000
0000
0010
0000
0000
1000
0000
0000
0000
0000
0100
0000
0000
0010
0000
0000
0000
0000
0100
0000
0000
0001
0000
0000
0000
0000
0100
0000
0000
;

//---------------dance-single - ----------------
#NOTES:
     dance-single:
     :
     Beginner:
     1:
     0.118892,0.176305,0.035042,0.236533,0.000000,95.000000,91.000000,4.000000,27.000000,0.000000,0.000000,0.118892,0.176305,0.035042,0.236533,0.000000,95.000000,91.000000,4.000000,27.000000,0.000000,0.000000:
// measure 0
0000
0000
0000
0000
,  // measure 1
0000
0000
0000
0000
,  // measure 2
0000
0000
0000
0000
,  // measure 3
0000
0000
0000
0000
,  // measure 4
1000
0000
0001
0000
,  // measure 5
1000
0000
1000
0000
,  // measure 6
0001
0000
1000
0000
,  // measure 7
0001
0000
0001
0000
,  // measure 8
0100
0000
0010
0000
,  // measure 9
0100
0000
0100
0000
,  // measure 10
0020
0000
0030
0000
,  // measure 11
0200
0000
0300
0000
,  // measure 12
0001
0000
1000
0000
,  // measure 13
0001
0000
0001
0000
,  // measure 14
1000
0000
0001
0000
,  // measure 15
1000
0000
1000
0000
,  // measure 16
0010
0000
0100
0000
,  // measure 17
0010
0000
0010
0000
,  // measure 18
0200
0000
0300
0000
,  // measure 19
0020
0000
0030
0000
,  // measure 20
2000
0000
0000
0000
,  // measure 21
3000
0000
0000
0000
,  // measure 22
0002
0000
0000
0000
,  // measure 23
0003
0000
0000
0000
,  // measure 24
0200
0000
0000
0000
,  // measure 25
0300
0000
0000
0000
,  // measure 26
0020
0000
0030
0000
,  // measure 27
2002
0000
3003
0000
,  // measure 28
1000
1000
1000
0000
,  // measure 29
0001
0001
0001
0000
,  // measure 30
0000
1000
1000
0000
,  // measure 31
0100
0100
0100
0000
,  // measure 32
0001
0001
0001
0000
,  // measure 33
1000
1000
1000
0000
,  // measure 34
0000
0001
0001
0000
,  // measure 35
0100
0100
0100
0000
,  // measure 36
0020
0000
0030
0000
,  // measure 37
0220
0000
0330
0000
,  // measure 38
0020
0000
0030
0000
,  // measure 39
2000
0000
3000
0000
,  // measure 40
0002
0000
0003
0000
,  // measure 41
0200
0000
0300
0000
,  // measure 42
0020
0000
0030
0000
,  // measure 43
2000
0000
3000
0000
,  // measure 44
0002
0000
0003
0000
,  // measure 45
0200
0000
0300
0000
,  // measure 46
0100
0100
0100
0000
,  // measure 47
0010
0010
0010
0000
,  // measure 48
0000
1000
1000
0000
,  // measure 49
0001
0001
0001
0000
,  // measure 50
1000
1000
1000
0000
,  // measure 51
0010
0010
0010
0000
,  // measure 52
0000
0100
0100
0000
,  // measure 53
0001
0001
0001
0000
,  // measure 54
2002
0000
3003
0000
,  // measure 55
2002
0000
3003
0000
,  // measure 56
0200
0000
0300
0000
,  // measure 57
0200
0000
0300
0000
;

//---------------dance-single - ----------------
#NOTES:
     dance-single:
     :
     Easy:
     3:
     0.190228,0.226677,0.052563,0.411743,0.000000,152.000000,146.000000,6.000000,47.000000,0.000000,0.000000,0.190228,0.226677,0.052563,0.411743,0.000000,152.000000,146.000000,6.000000,47.000000,0.000000,0.000000:
// measure 0
0000
0000
0000
0000
,  // measure 1
0000
0000
0000
0000
,  // measure 2
0000
0000
0000
0000
,  // measure 3
0000
0000
0000
0000
,  // measure 4
1000
0001
1000
0001
,  // measure 5
0100
0100
0100
0000
,  // measure 6
0001
1000
0001
1000
,  // measure 7
0010
0010
0010
0000
,  // measure 8
1000
0100
1000
0100
,  // measure 9
0010
0001
0010
0001
,  // measure 10
2000
3000
0002
0003
,  // measure 11
2000
3000
0002
0003
,  // measure 12
0100
0010
0100
0010
,  // measure 13
1000
0001
1000
0000
,  // measure 14
0010
0100
0010
0100
,  // measure 15
0001
0001
0001
0000
,  // measure 16
1000
0100
0010
0001
,  // measure 17
1000
0001
1000
0000
,  // measure 18
0002
0003
2000
3000
,  // measure 19
0002
0003
2000
3000
,  // measure 20
0010
0200
0300
0002
,  // measure 21
0003
0020
0030
0001
,  // measure 22
0001
1000
0001
1000
,  // measure 23
0010
0010
0100
0100
,  // measure 24
0001
2000
3000
0200
,  // measure 25
0300
0020
0030
0001
,  // measure 26
0002
0003
2000
3000
,  // measure 27
0220
0000
0000
0330
,  // measure 28
1001
0001
1000
0001
,  // measure 29
0100
0010
1000
0001
,  // measure 30
0000
2000
0002
3003
,  // measure 31
0010
0100
1000
1000
,  // measure 32
0001
1000
0010
0010
,  // measure 33
0100
0001
1000
1000
,  // measure 34
0000
0020
0200
0330
,  // measure 35
0100
0010
1000
1000
,  // measure 36
0200
0000
0000
0300
,  // measure 37
0220
0000
0000
0330
,  // measure 38
0002
0003
2000
3000
,  // measure 39
0020
0030
0200
0300
,  // measure 40
0002
0003
2000
3000
,  // measure 41
0200
0300
2002
3003
,  // measure 42
2000
0000
0000
3000
,  // measure 43
0020
0000
0000
0030
,  // measure 44
0200
0000
0000
0300
,  // measure 45
0002
0000
0000
0000
0000
0000
0000
0003
,  // measure 46
1001
1000
0001
0001
,  // measure 47
0010
0001
0100
0010
,  // measure 48
0000
2000
0200
3300
,  // measure 49
0010
0001
1000
1000
,  // measure 50
0001
0001
0100
0100
,  // measure 51
0010
0100
0001
1000
,  // measure 52
0000
0002
0020
0033
,  // measure 53
0001
0100
0010
1000
,  // measure 54
0200
0000
0000
0300
,  // measure 55
2002
0000
0000
3003
,  // measure 56
0200
0000
0300
0000
,  // measure 57
2000
0000
3000
0000
;

//---------------dance-single - ----------------
#NOTES:
     dance-single:
     :
     Medium:
     5:
     0.299108,0.330003,0.070084,0.438024,0.000000,239.000000,231.000000,8.000000,50.000000,0.000000,0.000000,0.299108,0.330003,0.070084,0.438024,0.000000,239.000000,231.000000,8.000000,50.000000,0.000000,0.000000:
// measure 0
0000
0000
0000
0000
,  // measure 1
0000
0000
0000
0000
,  // measure 2
0000
0000
0000
0000
,  // measure 3
0000
0000
0000
0000
,  // measure 4
0010
0000
1000
0000
0001
0100
0001
0000
,  // measure 5
1000
0000
1000
0100
1000
0000
1001
0000
,  // measure 6
0001
0000
1000
0000
0010
0100
0010
0000
,  // measure 7
1000
0000
0100
0010
0100
0000
0110
0000
,  // measure 8
1000
0000
0001
0000
0100
0100
0100
0000
,  // measure 9
0010
0000
1000
1000
1000
0000
0001
0000
,  // measure 10
0020
0000
0031
0001
,  // measure 11
0200
0000
0320
0030
,  // measure 12
1000
0000
0100
0000
1000
0001
1000
0000
,  // measure 13
0010
0000
0100
0001
0100
0000
0101
0000
,  // measure 14
0001
0000
0010
0000
0100
1000
0100
0000
,  // measure 15
0010
0000
0001
1000
0001
0000
1001
0000
,  // measure 16
1000
0000
0010
0000
0100
0010
0100
0000
,  // measure 17
0001
0000
0010
0001
0010
0000
0001
0000
,  // measure 18
0020
0000
0130
0100
,  // measure 19
2000
0000
3001
0100
,  // measure 20
0000
0000
0110
0000
0010
0000
1000
0001
,  // measure 21
0000
0100
0000
0010
1000
0010
2000
0000
,  // measure 22
3001
0000
1000
0000
0001
0100
0001
0000
,  // measure 23
1000
0100
1000
0000
0001
0001
0001
0000
,  // measure 24
0000
0000
0020
0000
0031
0000
0100
0020
,  // measure 25
0000
1030
0000
0100
1000
0100
0000
2000
,  // measure 26
0002
0000
0000
3003
,  // measure 27
0220
0000
0000
0330
,  // measure 28
2000
0000
3002
0000
1003
0001
0100
0000
,  // measure 29
0001
0010
0001
0000
0100
0001
0100
0001
,  // measure 30
0000
0002
0020
0033
,  // measure 31
0100
1000
0100
1000
0001
0000
0001
0000
,  // measure 32
2000
0000
3002
0000
0103
0010
0100
0000
,  // measure 33
0010
1000
0010
0000
1000
0100
1000
0100
,  // measure 34
0000
0020
0002
0033
,  // measure 35
0001
0100
0001
0100
0020
0000
2030
0000
,  // measure 36
3200
0000
0000
0300
,  // measure 37
2002
0000
0000
3003
,  // measure 38
0002
0000
0103
0010
0100
0000
0001
0000
,  // measure 39
2000
0000
3100
0010
0100
0000
0000
0000
,  // measure 40
2000
0000
3001
0010
0001
0000
0100
0000
,  // measure 41
0020
0000
1030
0001
0000
0000
0000
0000
,  // measure 42
0200
0000
0000
0000
0310
1000
0100
1000
,  // measure 43
0002
0000
0000
0000
0103
0001
0010
0001
,  // measure 44
2000
0000
0000
0000
3010
0100
0010
0100
,  // measure 45
0002
0000
0000
0000
1003
0100
1000
0100
,  // measure 46
2000
0000
3002
0000
1003
0100
1000
0000
,  // measure 47
0010
0100
0010
0000
0100
0001
0100
0001
,  // measure 48
0000
0020
0200
0330
,  // measure 49
1000
0001
1000
0001
0010
0000
0010
0000
,  // measure 50
0002
0000
2003
0000
3010
0100
0010
0000
,  // measure 51
0100
0001
0100
0000
0001
1000
0001
1000
,  // measure 52
0000
0020
2000
3030
,  // measure 53
0001
0100
0001
0100
0020
0000
2030
0000
,  // measure 54
3200
0000
0000
0300
,  // measure 55
0220
0000
0000
0330
,  // measure 56
0020
0000
0031
0100
0020
0000
0030
0000
,  // measure 57
2000
0000
0000
0000
0000
0000
0000
0000
0000
0000
0000
0000
0000
0000
0000
0000
3001
0000
0000
0000
0000
0000
0000
0000
1000
0000
0000
0000
0000
0000
0000
0000
0200
0000
0000
0000
0000
0000
0000
0000
0000
0000
0000
0000
0000
0000
0000
0000
0000
0000
0000
0000
0000
0000
0000
0000
0000
0000
0000
0000
0000
0300
0000
0000
;

//---------------dance-single - ----------------
#NOTES:
     dance-single:
     :
     Hard:
     7:
     0.501850,0.556509,0.376701,0.604473,0.166449,401.000000,358.000000,43.000000,69.000000,0.000000,0.000000,0.501850,0.556509,0.376701,0.604473,0.166449,401.000000,358.000000,43.000000,69.000000,0.000000,0.000000:
// measure 0
0000
0000
0000
0000
,  // measure 1
0000
0000
0000
0000
,  // measure 2
0000
0000
0000
0000
,  // measure 3
0000
0000
0000
1001
,  // measure 4
1000
0000
0001
0000
0100
0000
0010
0000
1000
0000
0100
1000
0000
0000
0001
0000
,  // measure 5
0001
0000
1000
0000
0010
0000
0100
0001
0000
0000
1000
0000
1001
0000
0000
0000
,  // measure 6
0001
0000
0010
0000
0001
0000
0100
0000
0010
0000
0100
0001
0000
0000
1000
0000
,  // measure 7
0100
0000
1000
0000
0010
0000
0100
0010
0000
0000
1000
0000
1001
0000
0000
0000
,  // measure 8
0001
0000
0010
0000
0001
0000
0010
0000
0100
0000
1000
0100
0000
0000
1000
0000
,  // measure 9
0010
0000
1000
0000
0001
0000
0100
0001
0000
0000
2000
0000
0000
3200
0000
0000
,  // measure 10
0320
0000
0031
0010
0200
0000
1300
0001
,  // measure 11
0200
0000
0310
1000
0100
0000
1100
0000
,  // measure 12
0001
0000
0100
0000
0001
0000
0100
0000
0010
0000
1000
0100
0000
0000
0010
0000
,  // measure 13
0001
0000
0010
0000
0100
0000
1000
0001
0000
0000
1000
0000
1001
0000
0000
0000
,  // measure 14
1000
0000
0010
0000
0100
0000
0010
0000
1000
0000
0100
1000
0000
0000
0001
0000
,  // measure 15
0100
0000
0010
0000
0100
0000
0001
0010
0000
0000
0100
0000
0110
0000
0000
0000
,  // measure 16
1000
0000
0100
0000
0010
0000
0001
0000
0100
0000
0010
1000
0000
0000
0001
0000
,  // measure 17
0010
0000
0100
0000
1000
0000
0010
0100
0000
0000
0002
0000
0000
2003
0000
0000
,  // measure 18
3200
0000
0310
0001
0200
0000
0301
0010
,  // measure 19
0200
0000
1300
0001
0100
0000
0101
0000
,  // measure 20
1000
0000
0200
0000
0000
2300
0000
0000
3020
0000
0000
0230
0000
0000
0301
0000
,  // measure 21
0010
0000
0200
0000
0000
2300
0000
0000
0100
0000
0100
0000
0100
0000
3100
0000
,  // measure 22
2100
0000
3002
0000
0103
0010
1000
0000
,  // measure 23
0001
0010
0001
0010
0100
1000
1000
1000
,  // measure 24
0001
0000
2000
0000
0000
3002
0000
0000
0203
0000
0000
0302
0000
0000
0013
0000
,  // measure 25
0100
0000
2000
0000
0000
3020
0000
0000
0100
0000
0100
0000
0100
0000
0130
0000
,  // measure 26
0001
0000
0200
0000
0300
0020
0000
0030
2000
0000
3000
0200
0000
0300
0010
0000
,  // measure 27
0011
0000
0000
0011
0000
0000
0101
0000
0000
0101
0000
0000
1001
0000
1001
0000
,  // measure 28
2010
0000
3002
0000
0103
0010
1020
0000
,  // measure 29
1030
0100
1000
0010
0100
0001
0010
0100
,  // measure 30
1000
0000
2100
0000
3002
0000
0013
0001
,  // measure 31
0100
0010
1000
0100
1100
1000
0002
1003
,  // measure 32
1020
0000
0230
0000
0301
0010
0200
0000
,  // measure 33
1300
0001
0100
1000
0100
0001
0010
0100
,  // measure 34
1000
0000
1200
0000
2300
0000
3010
0100
,  // measure 35
0001
0010
0001
0100
0020
0000
2030
0000
,  // measure 36
3200
0000
2300
0000
3001
0100
0010
1000
,  // measure 37
1001
0000
0000
1001
0000
0000
1100
0000
0000
1100
0000
0000
0110
0000
0110
0000
,  // measure 38
0020
0000
0000
0031
0100
0000
0010
0000
1000
0000
0001
0000
1002
0000
0000
0000
,  // measure 39
2003
0000
0000
3010
0100
0000
0001
0000
0010
0000
0001
0000
0100
0000
0000
0000
,  // measure 40
0020
0000
0000
1030
0001
0000
1000
0000
0100
0000
0010
0000
0210
0000
0000
0000
,  // measure 41
2300
0000
0000
3100
0010
0000
0001
0000
0000
0000
0000
0000
1001
0000
0000
0000
,  // measure 42
1000
0000
0000
1000
0001
0000
0100
0000
0010
0000
1000
0000
0100
0000
1000
0000
,  // measure 43
0001
0000
0000
0001
0010
0000
0100
0000
1000
0000
0010
0000
0100
0000
0001
0000
,  // measure 44
0010
0000
0000
0010
0001
0000
0100
0000
0010
0000
1000
0000
0100
0000
0100
0000
,  // measure 45
1000
0000
0000
1000
0001
0000
0010
0000
0001
0000
1000
0000
0010
0000
0110
0000
,  // measure 46
1020
0000
0230
0000
0301
0010
0200
0000
,  // measure 47
1300
0001
0100
1000
0100
0010
1000
0010
,  // measure 48
1000
0000
1020
0000
0230
0000
0301
0010
,  // measure 49
0001
0001
1000
1000
1010
0010
2000
3100
,  // measure 50
1200
0000
0320
0000
0031
1000
0200
0000
,  // measure 51
1300
0001
0100
0010
0100
0001
0010
0100
,  // measure 52
0010
0000
2001
0000
3200
0000
1300
0010
,  // measure 53
0100
0001
0010
0100
0020
0000
0032
0000
,  // measure 54
0203
0000
0320
0000
1030
0100
1000
0010
,  // measure 55
1010
0000
0000
1010
0000
0000
0110
0000
0000
0110
0000
0000
0101
0000
0101
0000
,  // measure 56
0002
0000
0000
0023
0000
0000
0130
0000
1000
0000
0001
0000
0201
0000
0000
0000
,  // measure 57
0320
0000
0000
2030
0000
0000
3100
0000
0010
0000
0001
0000
1001
0000
0000
0000
;
