#TITLE:Copy & Paste;
#SUBTITLE:;
#ARTIST:BoA;
#TITLETRANSLIT:;
#SUBTITLETRANSLIT:;
#ARTISTTRANSLIT:;
#GENRE:K-POP;
#CREDIT:;
#BANNER:Copy & Paste.png;
#BACKGROUND:Copy & Paste-bg.png;
#LYRICSPATH:;
#CDTITLE:CDtitle.png;
#MUSIC:Copy & Paste.ogg;
#OFFSET:-4.266000;
#SAMPLESTART:62.119999;
#SAMPLELENGTH:21.200001;
#SELECTABLE:YES;
#BPMS:0.000000=112.000000
;
#STOPS:
;
#BGCHANGES:11.938=Copy & Paste.avi=1.000=0=0=1=====,
176.000=Copy & Paste-bg.png=1.000=1=0=1===CrossFade==,
99999=-nosongbg-=1.000=0=0=0 // don't automatically add -songbackground-
;
#KEYSOUNDS:;
#ATTACKS:;

//---------------dance-single - ----------------
#NOTES:
     dance-single:
     :
     Challenge:
     10:
     0.603036,0.639085,0.268174,0.506550,0.635671,425.000000,398.000000,27.000000,51.000000,0.000000,0.000000,0.603036,0.639085,0.268174,0.506550,0.635671,425.000000,398.000000,27.000000,51.000000,0.000000,0.000000:
// measure 0
0000
0000
0000
0000
,  // measure 1
0000
0000
0000
0000
,  // measure 2
0000
0000
0000
0000
,  // measure 3
1000
0000
0001
1000
0100
0000
1000
0001
0100
0000
0010
0000
0110
0000
0010
0100
,  // measure 4
0001
0000
0100
0010
1000
0000
0020
0000
0230
0000
0302
0000
0023
0000
0000
0000
,  // measure 5
0130
0000
1000
0010
0100
0000
0010
1000
0100
0000
1000
0000
1010
0000
0010
0100
,  // measure 6
0001
0000
0010
0001
0100
0000
0002
0000
0203
0000
0320
0000
0230
0000
0000
0000
,  // measure 7
0301
0000
1000
0001
0010
0000
0001
1000
0010
0000
0100
0000
0110
0000
0100
0010
,  // measure 8
1000
0000
0010
0100
0001
0000
0200
0000
0320
0000
2030
0000
3200
0000
0000
0000
,  // measure 9
0310
0000
0001
0100
0010
0000
0100
0001
0010
0000
0001
0000
0101
0000
0100
0010
,  // measure 10
1000
0000
0100
1000
0010
0000
2000
0000
3020
0000
0230
0000
0302
0000
0000
0000
,  // measure 11
1003
0001
0000
1000
0001
0000
0100
0000
0010
0000
0100
0000
0110
0000
0010
1000
,  // measure 12
0010
0000
0100
0000
0001
0010
0001
0010
0200
0000
1300
0000
1004
0000
1000
0000
,  // measure 13
1003
0000
0100
0010
0000
0100
0010
0100
1000
0000
0001
0100
0001
0000
2001
0000
,  // measure 14
3100
1000
0100
0000
1000
0000
0020
0000
0230
0000
0302
0000
1003
0000
0000
0000
,  // measure 15
0001
0010
0001
0010
0001
0100
0001
0000
2000
0000
3010
0001
0000
0000
0010
1000
,  // measure 16
0000
1000
0001
0010
0001
0010
0100
1000
0001
0000
1000
0000
4001
0000
0001
0000
,  // measure 17
3002
0000
0023
0000
2030
0000
3002
0000
0103
0000
0010
0001
0000
0000
0200
0000
,  // measure 18
0310
0000
0010
1000
0001
0000
0002
0000
0023
0000
0032
0000
0103
0000
0000
0000
,  // measure 19
1002
0000
0000
1003
0000
0001
0000
0010
0000
0100
0000
1000
0000
0001
0000
0000
,  // measure 20
1002
0000
0000
0003
1000
0001
0000
0100
0000
0010
0000
0200
0000
0000
0310
0000
,  // measure 21
0120
0000
0000
0000
0000
0000
0000
0000
0000
0000
0000
0000
1030
0000
0000
0000
0000
0000
0000
0000
0010
0000
0000
0000
0000
0000
0000
0000
0001
0000
0000
0000
0000
0000
0000
0000
0010
0000
0000
0000
0000
0000
0000
0100
0000
0000
0000
0000
0000
0000
0000
0000
0000
0001
0000
0000
0000
0000
0000
0000
0000
0010
0000
0000
,  // measure 22
0000
0000
0000
0000
0000
0010
0000
0000
0000
0000
0000
0000
0000
0000
1000
0000
0000
0000
0000
0000
0000
0010
0000
0000
0000
0000
0000
0000
0001
0000
0000
0000
0000
0000
0000
0000
0100
0000
0000
0000
0000
0000
0000
0000
0020
0000
0000
0000
0000
0000
0000
0000
1030
0000
0000
0000
0100
0000
0000
0000
1000
0000
0000
0000
,  // measure 23
0010
0000
1000
0001
0000
1000
0001
0000
0010
0000
0001
1000
0000
0001
0000
0000
,  // measure 24
1000
0000
0001
0010
0000
0100
0000
1000
0000
0100
0000
0010
0000
0001
0000
0000
,  // measure 25
1000
0000
0001
0010
0000
0010
0000
0001
0000
0100
0000
0000
0110
0000
0010
0000
,  // measure 26
1001
0000
1000
0001
0100
0000
0010
1000
0100
0000
1000
0010
0000
0100
0010
0100
,  // measure 27
0010
0000
0010
1000
0100
0000
0100
1000
0010
0000
1000
0000
1002
0000
0000
1003
,  // measure 28
0001
0000
0001
0010
0100
0000
0200
0000
0320
0000
0032
0000
0203
0000
0320
0000
,  // measure 29
2030
0000
3010
0100
0001
0000
0001
0100
0010
0000
0100
0000
0210
0000
0000
0310
,  // measure 30
1000
0000
1000
0001
0010
0000
0001
0010
0001
0000
0001
0000
1000
0000
0100
0000
,  // measure 31
1000
0000
1000
0010
0100
0000
0100
0010
1000
0000
0001
0000
1002
0000
0000
1003
,  // measure 32
0100
0000
1000
0000
0010
0100
0010
0100
0010
0000
0002
0000
0023
0000
1030
0000
,  // measure 33
1010
0000
1000
0100
0010
0000
0100
0010
0001
0000
0001
0010
0100
0000
0010
0100
,  // measure 34
1000
0000
1000
0001
0010
0000
0010
0001
0100
0000
0010
0100
0010
0000
1000
0000
,  // measure 35
1001
0000
0001
1000
1100
0000
1000
0001
0011
0000
0001
1000
1010
0000
1000
0001
,  // measure 36
2002
0000
0003
0001
0010
0010
0010
3001
,  // measure 37
1000
0000
0001
0100
0010
0000
0100
0010
1000
0000
0001
0000
1001
0000
0001
1000
,  // measure 38
0100
0000
1000
0001
0010
0000
0100
0000
0010
0000
0001
0000
4001
0000
0001
0000
,  // measure 39
3001
0000
0010
0100
1000
0000
0010
0100
0001
0000
1000
0000
1001
0000
0001
1000
,  // measure 40
0001
0000
0100
0010
1000
0010
0000
0010
0100
0001
0000
0001
1000
0001
0000
0001
,  // measure 41
0010
0000
0100
1000
0010
0000
0010
0100
0001
0000
0001
0000
1001
0000
0001
1000
,  // measure 42
0100
0000
0100
1000
0010
0000
0020
0000
0230
0000
0301
0000
0104
0000
0100
0000
,  // measure 43
0103
0000
0010
1000
0100
0000
1000
0100
0010
0000
0001
0000
0010
0100
0010
0100
,  // measure 44
2000
0000
0000
3000
0000
0000
0000
0000
;

//---------------dance-single - ----------------
#NOTES:
     dance-single:
     :
     Beginner:
     1:
     0.137634,0.262214,0.069527,0.089391,0.000000,97.000000,90.000000,7.000000,9.000000,0.000000,0.000000,0.137634,0.262214,0.069527,0.089391,0.000000,97.000000,90.000000,7.000000,9.000000,0.000000,0.000000:
// measure 0
0000
0000
0000
0000
,  // measure 1
0000
0000
0000
0000
,  // measure 2
0000
0000
0000
0000
,  // measure 3
0100
0000
0010
0000
,  // measure 4
0100
0000
0010
0010
,  // measure 5
0000
0000
1000
0000
,  // measure 6
0001
0000
1000
1000
,  // measure 7
0000
0000
0001
0000
,  // measure 8
1000
0000
0001
0001
,  // measure 9
0000
0000
0100
0000
,  // measure 10
0010
0000
0100
0100
,  // measure 11
0100
0000
0001
0000
,  // measure 12
1000
1000
1000
0000
,  // measure 13
0001
0000
1000
0000
,  // measure 14
0010
0010
0010
0000
,  // measure 15
0100
0000
0001
0000
,  // measure 16
1000
1000
1000
0000
,  // measure 17
0100
0000
0010
0000
,  // measure 18
0001
0001
0001
0000
,  // measure 19
2000
0000
3000
0000
,  // measure 20
0002
0000
0003
0000
,  // measure 21
0200
0000
0300
0000
,  // measure 22
0010
0010
0010
0010
,  // measure 23
0020
0000
0030
0000
,  // measure 24
0200
0000
0300
0000
,  // measure 25
0002
0000
0003
0000
,  // measure 26
1001
1001
1001
1001
,  // measure 27
1001
0000
0001
0000
,  // measure 28
1000
0000
0001
0001
,  // measure 29
0001
0000
0100
0000
,  // measure 30
0010
0000
0100
0100
,  // measure 31
0100
0000
0010
0000
,  // measure 32
0100
0000
0010
0010
,  // measure 33
0010
0000
1000
0000
,  // measure 34
0001
0000
1000
0000
,  // measure 35
0020
0000
0030
0000
,  // measure 36
0220
0000
0330
0000
,  // measure 37
0001
0000
1000
0000
,  // measure 38
0001
0000
1000
1000
,  // measure 39
1000
0000
0001
0000
,  // measure 40
1000
0000
0001
0001
,  // measure 41
0001
0000
0100
0000
,  // measure 42
0010
0000
0100
0100
,  // measure 43
0100
0000
0010
0000
,  // measure 44
0110
0000
0000
0000
;

//---------------dance-single - ----------------
#NOTES:
     dance-single:
     :
     Medium:
     5:
     0.354727,0.330561,0.059594,0.148985,0.000000,250.000000,244.000000,6.000000,15.000000,0.000000,0.000000,0.354727,0.330561,0.059594,0.148985,0.000000,250.000000,244.000000,6.000000,15.000000,0.000000,0.000000:
// measure 0
0000
0000
0000
0000
,  // measure 1
0000
0000
0000
0000
,  // measure 2
0000
0000
0000
0000
,  // measure 3
0100
0000
0001
0010
0100
0000
1000
0010
,  // measure 4
0100
0000
0001
1000
0100
0010
0001
0000
,  // measure 5
0100
0000
0010
1000
0100
0000
0010
0001
,  // measure 6
0100
0000
0001
1000
0010
0100
0001
0000
,  // measure 7
1000
0000
0001
0010
0100
0000
1000
0010
,  // measure 8
0100
0000
0001
0010
0100
1000
0001
0000
,  // measure 9
0100
0000
0010
1000
0100
0000
0010
0001
,  // measure 10
0100
0000
0010
1000
0100
0010
0002
0000
,  // measure 11
1003
0010
1000
0000
0001
0100
0001
0000
,  // measure 12
1000
0100
1000
1000
0100
0010
0001
0000
,  // measure 13
0100
0001
0010
0000
0100
1000
0001
0000
,  // measure 14
0100
0010
1000
1000
0001
0000
1001
0000
,  // measure 15
0001
0010
0001
0000
1000
0010
1000
0000
,  // measure 16
0001
1000
0001
1000
0010
0010
0100
0000
,  // measure 17
0001
0010
0100
0000
1000
0001
0100
0000
,  // measure 18
0010
1000
0100
0010
0002
0000
1003
0000
,  // measure 19
0001
0000
0010
0100
1000
0100
0010
0000
,  // measure 20
0001
0000
0100
0010
0001
0010
0100
0000
,  // measure 21
0001
0000
1000
0010
0100
0001
1000
0000
,  // measure 22
0001
0100
0010
1000
0001
0000
1001
0000
,  // measure 23
1000
0100
1000
0000
0001
0100
0001
0000
,  // measure 24
1000
0001
1000
0000
0010
0100
0010
0000
,  // measure 25
0100
0001
1000
0000
0100
1000
0001
0000
,  // measure 26
1001
1010
0011
1002
,  // measure 27
1003
0000
0100
0010
0001
0100
0010
0000
,  // measure 28
1000
0100
0010
0000
0100
1000
0010
0100
,  // measure 29
0002
0000
0013
0100
1000
0010
0100
0000
,  // measure 30
0001
0010
0100
0000
1000
0100
0010
0001
,  // measure 31
0200
0000
0310
0000
1000
0100
1000
0000
,  // measure 32
0010
0100
0001
0001
1000
0010
0100
0000
,  // measure 33
0001
0000
2000
0000
3020
0000
0130
0001
,  // measure 34
2000
0000
3200
0000
0310
0001
0100
0010
,  // measure 35
2000
3020
0032
0203
,  // measure 36
2300
0000
0000
0000
0000
0000
0000
3000
,  // measure 37
0001
0010
0001
0000
0100
0010
1000
0000
,  // measure 38
0100
1000
0010
0100
0001
0001
0001
0000
,  // measure 39
0010
0100
1000
0000
0100
0010
0001
0000
,  // measure 40
0100
0010
1000
1000
0001
0001
0001
0000
,  // measure 41
1000
0100
1000
0000
0001
0010
0001
0000
,  // measure 42
0100
0010
0100
0010
1000
1000
1000
0000
,  // measure 43
0001
0010
0100
0000
1000
0001
0100
0000
,  // measure 44
0002
0000
0000
0003
0000
0000
0000
0000
;

//---------------dance-single - ----------------
#NOTES:
     dance-single:
     :
     Hard:
     7:
     0.471078,0.484823,0.387362,0.168850,0.178782,332.000000,293.000000,39.000000,17.000000,0.000000,0.000000,0.471078,0.484823,0.387362,0.168850,0.178782,332.000000,293.000000,39.000000,17.000000,0.000000,0.000000:
// measure 0
0000
0000
0000
0000
,  // measure 1
0000
0000
0000
0000
,  // measure 2
0000
0000
0000
0000
,  // measure 3
0110
0000
0000
0010
1000
0000
0001
0000
0100
0000
0000
0000
1001
0000
0000
0001
,  // measure 4
0100
0000
0000
0010
1000
0000
0100
0000
0010
0000
0001
0000
1001
0000
0000
0000
,  // measure 5
0011
0000
0000
0001
0100
0000
0010
0000
1000
0000
0100
0000
1100
0000
0000
0100
,  // measure 6
0010
0000
0000
0010
0001
0000
0010
0000
0100
0000
1000
0000
1001
0000
0000
0000
,  // measure 7
0010
0000
0000
0100
0001
0000
1000
0000
0010
0000
0000
0000
1001
0000
0000
1000
,  // measure 8
0010
0000
0000
0100
0001
0000
0010
0000
0100
0000
1000
0000
1001
0000
0000
0000
,  // measure 9
1100
0000
0000
1000
0010
0000
0100
0000
0001
0000
0010
0000
0011
0000
0000
0010
,  // measure 10
0100
0000
0000
0100
1000
0000
0100
0000
0010
0000
0001
0000
2001
0000
0000
0000
,  // measure 11
3010
0000
1000
0000
0100
0000
0010
0000
0100
0000
1000
0001
0000
0000
0001
0000
,  // measure 12
1000
0000
0100
0000
0010
0000
0001
0000
0100
0000
0010
1000
0000
0000
0000
0000
,  // measure 13
0001
0000
0010
0000
0001
0000
0100
0000
0010
0000
1000
0001
0000
0000
1001
0000
,  // measure 14
1000
0001
0100
0010
1000
0001
1001
0000
,  // measure 15
0001
0000
0010
0000
0100
0000
1000
0000
0010
0000
0100
0001
0000
0000
1000
0000
,  // measure 16
0100
0000
0010
0000
0001
0000
0100
0000
0010
0000
1000
0001
0000
0000
0000
0000
,  // measure 17
1000
0000
0100
0000
1000
0000
0010
0000
0100
0000
0001
0010
0000
0000
0001
0000
,  // measure 18
0100
0010
1000
0100
0010
0001
1001
0000
,  // measure 19
0120
0000
1030
0100
0001
0010
1000
0000
,  // measure 20
0210
0000
0301
0010
1000
0100
0001
0000
,  // measure 21
2100
0000
3010
0100
0001
0010
0100
1000
,  // measure 22
0010
0010
1000
1000
0001
0100
0110
0000
,  // measure 23
1010
0010
0100
0000
0001
0010
0110
0000
,  // measure 24
0100
1000
0001
0100
0010
1000
1001
0000
,  // measure 25
0001
0010
0001
0100
0001
1000
1010
0000
,  // measure 26
1100
0110
0101
1002
,  // measure 27
1003
0000
0000
0001
0100
0000
0000
0010
1000
0000
1000
0000
1001
0000
0000
0001
,  // measure 28
0100
0100
0000
0010
1000
0100
0001
0100
,  // measure 29
0210
0000
0000
0310
0001
0000
0000
0001
0100
0000
0100
0000
0210
0000
0000
0310
,  // measure 30
1000
0000
1000
0000
0000
0000
0100
0010
0100
0000
0010
0000
0001
0000
0100
0000
,  // measure 31
0110
0000
0010
0000
0001
0000
0010
1000
0001
0000
1000
0000
0100
0000
0010
0001
,  // measure 32
1000
0000
1000
0000
0001
0010
0001
0000
1000
0000
0100
0000
0001
0000
0100
0000
,  // measure 33
0110
0000
0002
0000
0203
0000
1300
0010
,  // measure 34
0002
0000
0000
0000
2003
0000
0000
3001
1000
0000
0100
0000
0010
0000
0001
0000
,  // measure 35
1001
1000
1010
0010
0110
0100
0101
0001
,  // measure 36
2002
0000
0000
0000
0000
0000
0000
3003
,  // measure 37
0010
0000
0000
1000
0100
0000
0010
0000
0100
0000
1000
0000
1001
0000
0000
0001
,  // measure 38
0010
0100
0010
0001
0100
0010
2000
0000
,  // measure 39
3001
0000
0000
0010
0100
0000
1000
0000
0001
0000
0100
0000
0110
0000
0000
0010
,  // measure 40
1000
0100
0010
0001
1000
1000
1000
1000
,  // measure 41
0001
0000
0000
0010
0100
0000
1000
0000
0010
0000
0100
0000
0101
0000
0000
0001
,  // measure 42
0010
0001
0100
0010
1000
0100
0020
0000
,  // measure 43
0130
0000
0000
1000
0001
0000
0100
0000
0001
0000
1000
0000
0020
0000
0000
0000
,  // measure 44
0230
0000
0000
0300
0000
0000
0000
0000
;

//---------------dance-single - ----------------
#NOTES:
     dance-single:
     :
     Easy:
     3:
     0.200066,0.220374,0.039729,0.188715,0.000000,141.000000,137.000000,4.000000,19.000000,0.000000,0.000000,0.200066,0.220374,0.039729,0.188715,0.000000,141.000000,137.000000,4.000000,19.000000,0.000000,0.000000:
// measure 0
0000
0000
0000
0000
,  // measure 1
0000
0000
0000
0000
,  // measure 2
0000
0000
0000
0000
,  // measure 3
1000
0000
0001
0000
,  // measure 4
0100
0000
0010
0010
,  // measure 5
1000
0000
0100
0000
,  // measure 6
0010
0000
0001
0001
,  // measure 7
0100
0000
0001
0000
,  // measure 8
1000
0000
0010
0010
,  // measure 9
0010
0000
0100
0000
,  // measure 10
0001
0000
1000
1000
,  // measure 11
1000
0001
1000
1000
,  // measure 12
0010
0100
0001
0001
,  // measure 13
0010
0100
1000
1000
,  // measure 14
0001
0100
0220
0330
,  // measure 15
0100
0001
1000
1000
,  // measure 16
0100
1000
0001
0001
,  // measure 17
0010
0001
1000
1000
,  // measure 18
0010
1000
2002
3003
,  // measure 19
0001
1000
0200
0300
,  // measure 20
1000
0100
0020
0030
,  // measure 21
0001
0100
0010
0010
,  // measure 22
0100
0100
0001
0001
,  // measure 23
2000
3000
0002
0003
,  // measure 24
0100
0010
0200
0300
,  // measure 25
0010
0100
0010
0010
,  // measure 26
1000
0001
1000
1001
,  // measure 27
0001
0001
0002
0003
,  // measure 28
1000
1000
1000
0100
,  // measure 29
0010
0010
0020
0030
,  // measure 30
0100
0100
0100
1000
,  // measure 31
0001
0100
0001
0100
,  // measure 32
0001
1000
0001
1000
,  // measure 33
0200
0000
2300
0000
,  // measure 34
3020
0000
0230
0000
,  // measure 35
0302
1000
1000
1000
,  // measure 36
2000
0000
0000
3003
,  // measure 37
0001
0001
1000
1000
,  // measure 38
0001
0001
0100
0100
,  // measure 39
0010
0010
0100
0100
,  // measure 40
0010
0010
1000
1000
,  // measure 41
1000
0100
0010
0001
,  // measure 42
0001
0010
0100
1000
,  // measure 43
1000
0010
0100
0001
,  // measure 44
2002
0000
0000
3003
0000
0000
0000
0000
;
