#VERSION:0.83;
#TITLE:CAMO;
#SUBTITLE:;
#ARTIST:BoA;
#TITLETRANSLIT:;
#SUBTITLETRANSLIT:;
#ARTISTTRANSLIT:;
#GENRE:K-POP;
#ORIGIN:;
#CREDIT:;
#BANNER:CAMO.png;
#BACKGROUND:CAMO-bg.png;
#PREVIEWVID:;
#JACKET:CAMO-jacket.png;
#CDIMAGE:;
#DISCIMAGE:;
#LYRICSPATH:;
#CDTITLE:CDTitle.png;
#MUSIC:CAMO.ogg;
#OFFSET:-0.270000;
#SAMPLESTART:101.075790;
#SAMPLELENGTH:17.777779;
#SELECTABLE:YES;
#DISPLAYBPM:108.000000;
#BPMS:0.000=108.000,
80.000=107.000,
84.000=107.500,
88.000=108.000,
92.000=108.500,
96.000=108.250,
108.000=108.000,
111.000=107.500,
112.000=108.000,
183.000=100.000,
184.000=108.000;
#STOPS:;
#DELAYS:;
#WARPS:;
#TIMESIGNATURES:0.000=4=4;
#TICKCOUNTS:0.000=4;
#COMBOS:0.000=1;
#SPEEDS:0.000=1.000=0.000=0;
#SCROLLS:0.000=1.000;
#FAKES:;
#LABELS:0.000=Song Start;
#BGCHANGES:0.000=CAMO.avi=1.000=0=0=1=====,
224.000=CAMO-bg.png=1.000=1=0=1===CrossFade==,
99999=-nosongbg-=1.000=0=0=0 // don't automatically add -songbackground-
;
#KEYSOUNDS:;
#ATTACKS:
;

//---------------dance-single - ----------------
#NOTEDATA:;
#CHARTNAME:;
#STEPSTYPE:dance-single;
#DESCRIPTION:;
#CHARTSTYLE:;
#DIFFICULTY:Hard;
#METER:7;
#RADARVALUES:0.414854,0.502732,0.335675,0.265418,0.144418,372.000000,329.000000,43.000000,34.000000,0.000000,0.000000,0.000000,0.000000,0.000000,0.414854,0.502732,0.335675,0.265418,0.144418,372.000000,329.000000,43.000000,34.000000,0.000000,0.000000,0.000000,0.000000,0.000000;
#CREDIT:DDRDAIKENKAI;
#DISPLAYBPM:108.000000;
#NOTES:
// measure 0
0000
0000
0000
0000
,  // measure 1
0000
0000
0000
0000
,  // measure 2
0000
0000
0000
0000
,  // measure 3
0000
0000
0000
0000
,  // measure 4
1000
0000
0000
0000
0000
0000
0000
0000
0001
0000
0000
0000
0000
0000
0000
0000
0100
0000
0000
0000
0000
0000
0000
0000
0001
0000
0000
0000
0000
0000
0000
0000
1000
0000
0000
0000
0000
0000
0000
0000
0001
0000
0000
0000
0000
0000
0000
0000
0100
0000
0000
0000
0000
0000
0000
0000
0000
0000
0000
0000
0000
0010
0000
0000
,  // measure 5
1000
0000
0000
0000
0000
0000
0000
0000
0000
0000
0000
0000
0000
0000
0000
0000
1100
0000
0000
0000
0000
0000
0000
0000
0200
0000
0000
0000
0000
0000
0000
0000
0310
0000
0000
0000
0000
0000
0000
0000
0000
0000
0000
0000
0000
0000
0000
0000
0011
0000
0000
0000
0000
0000
0000
0000
0000
0000
0000
0000
0000
0010
0000
0000
,  // measure 6
0001
0000
0000
0000
0000
0000
0000
0000
0100
0000
0000
0000
0000
0000
0000
0000
0010
0000
0000
0000
0000
0000
0000
0000
0100
0000
0000
0000
0000
0000
0000
0000
0001
0000
0000
0000
0000
0000
0000
0000
0010
0000
0000
0000
0000
0000
0000
0000
0001
0000
0000
0000
0000
0000
0000
0000
0000
0000
0000
0000
0000
1000
0000
0000
,  // measure 7
0010
0000
0110
0010
0100
0001
1000
0100
,  // measure 8
1000
0000
0000
0000
0000
0000
0000
0000
0000
0000
0000
0000
0000
1000
0000
0000
0000
0000
0000
0000
0000
0000
0000
0000
1000
0000
0000
0000
0000
0000
0000
0000
0000
0000
0000
0000
0000
0000
0000
0000
0000
0000
0000
0000
0000
0000
0000
0000
1002
0000
0000
0000
0000
0000
0000
0000
0000
0000
0000
0000
0000
0000
0000
0000
,  // measure 9
0103
0000
0010
0000
1000
1000
0010
0100
,  // measure 10
0001
0000
0000
0000
0000
0000
0000
0000
0000
0000
0000
0000
0000
0001
0000
0000
0000
0000
0000
0000
0000
0000
0000
0000
0001
0000
0000
0000
0000
0000
0000
0000
0000
0000
0000
0000
0000
0000
0000
0000
0000
0000
0000
0000
0000
0000
0000
0000
0201
0000
0000
0000
0000
0000
0000
0000
0000
0000
0000
0000
0000
0000
0000
0000
,  // measure 11
0310
0000
1010
1000
0001
0000
0101
0200
,  // measure 12
0301
0010
0001
0100
0001
0010
0001
1000
,  // measure 13
0001
0000
1100
0000
0010
0000
0101
0001
,  // measure 14
1000
0010
0100
0010
1000
0010
0001
0010
,  // measure 15
1000
0000
1010
1000
0001
0010
0100
0010
,  // measure 16
0002
0000
0000
0000
0000
0000
0000
0000
0000
0000
0000
0000
0000
0000
0000
0000
1003
0000
0000
0000
0000
0000
0000
0000
0100
0000
0000
0000
0000
0000
0000
0000
0100
0000
0000
0000
0000
0000
0000
0000
0000
0000
0000
0000
0000
0000
0000
0000
1100
0000
0000
0000
0000
0000
0000
0000
0000
0000
0000
0000
0000
1000
0000
0000
,  // measure 17
0010
0000
0000
0000
0000
0000
0000
0000
0010
0000
0000
0000
0000
0000
0000
0000
0100
0000
0000
0000
0000
0000
0000
0000
0100
0000
0000
0000
0000
0000
0000
0000
0001
0000
0000
0000
0000
0000
0000
0000
0001
0000
0000
0000
0000
0000
0000
0000
1000
0000
0000
0000
0000
0000
0000
0000
0000
0000
0000
0000
0000
1000
0000
0000
,  // measure 18
0200
0000
0310
0100
0100
1000
0001
0000
,  // measure 19
0010
0000
0001
0100
0101
0000
1100
0000
,  // measure 20
1002
0000
1000
0000
1000
0003
1000
0001
1000
0002
0000
0000
0000
0000
0000
0000
,  // measure 21
2003
0000
0100
0000
0100
0000
3100
0010
0002
0000
0000
0000
0003
0000
0000
0000
,  // measure 22
0020
0000
0100
0000
0100
0000
0130
0010
0001
0020
0000
0000
0000
0000
0000
0000
,  // measure 23
0230
0000
0000
0000
0000
0000
0000
0000
0000
0000
0000
0000
0000
0000
0000
0000
0000
0000
0000
0000
0000
0000
0000
0000
1000
0000
0000
0000
0000
0000
0000
0000
0000
0000
0000
0000
0000
0000
0000
0000
0000
0000
0000
0000
0000
0000
0000
0000
1000
0000
0000
0000
0000
0000
0000
0000
0000
0000
0000
0000
0000
0000
0000
0000
0000
0000
0000
0000
0000
0000
0000
0000
1300
0000
0000
0000
0000
0000
0000
0000
0000
0000
0000
0000
0000
0001
0000
0000
0000
0000
0000
0000
0000
0000
0000
0000
0000
1000
0000
0000
0000
0000
0000
0000
0000
0000
0000
0000
0000
0000
0000
0000
0000
0000
0000
0000
0000
0000
0000
0000
0000
0000
0000
0000
0000
0000
0000
0000
0000
0000
0000
0000
0000
0000
0000
0000
0000
0000
0000
0000
0000
0000
0000
0000
1001
0000
0000
0000
0000
0000
0000
0000
0000
0000
0000
0000
0000
0000
0000
0000
0000
0000
0000
0000
0000
0000
0000
0000
0000
0000
0000
0000
0000
0000
0000
0000
0000
0000
0000
0000
0000
0000
0000
0000
0000
0000
0000
0000
0000
0000
0000
0000
,  // measure 24
1020
0230
0302
0023
,  // measure 25
1030
0000
0000
0000
0000
0000
0000
0000
0010
0000
0000
0000
0000
0000
0000
0000
0001
0000
0000
0000
0000
0000
0000
0000
0100
0000
0000
0000
0000
0000
0000
0000
0000
0000
1000
0000
0000
0000
0000
0000
0000
0000
0000
0000
0000
0000
0000
0000
0000
0100
0000
0000
0000
0000
0000
0000
0000
0000
0001
0000
0000
0000
0000
0000
,  // measure 26
1000
0010
0001
0100
1000
0010
1000
0100
,  // measure 27
1000
0010
1000
0010
0100
0010
0100
0010
0100
0001
0100
0001
0020
0000
0000
0000
,  // measure 28
0031
0010
1000
0010
0001
0000
1002
0000
,  // measure 29
0103
0000
0010
0000
0001
0000
0010
0000
1000
0000
0000
0000
1100
0000
0000
0001
,  // measure 30
0000
0011
0000
0001
0100
0000
0102
0000
,  // measure 31
1003
0000
0010
1000
0001
0010
0001
1000
,  // measure 32
0001
0010
0001
0100
0010
1000
0100
1000
,  // measure 33
0001
0100
0001
0010
0100
1000
0010
1000
,  // measure 34
0100
0001
0010
1000
0001
0000
1002
0000
,  // measure 35
0103
0000
0010
0000
0100
0000
0001
0000
1000
0000
0000
0000
1010
0000
0000
0001
,  // measure 36
0000
0000
0100
0000
0001
0000
1000
0000
0100
0000
0000
0000
1100
0000
0000
0001
,  // measure 37
0000
0011
0000
0010
0100
0000
0110
0000
,  // measure 38
1000
0000
0000
0000
0000
0000
0000
0000
0000
0000
0000
0000
0000
0000
0000
0000
0000
0000
0000
0000
0000
0000
1000
0000
0000
0000
0000
0000
0000
0000
0000
0000
0000
0000
0000
0000
0000
0000
0000
0000
0000
0000
0000
0000
0000
0000
0000
0000
0010
0000
0000
0000
0000
0000
0000
0000
0000
0000
0000
0000
0000
0000
0000
0000
0000
0000
0000
0000
0000
0000
0010
0000
0000
0000
0000
0000
0000
0000
0000
0000
0000
0000
0000
0000
0000
0000
0000
0000
0000
0000
0000
0000
0000
0000
0000
0000
0001
0000
0000
0000
0000
0000
0000
0000
0000
0000
0000
0000
0000
0000
0000
0000
0000
0000
0000
0000
0000
0000
0001
0000
0000
0000
0000
0000
0000
0000
0000
0000
0000
0000
0000
0000
0000
0000
0000
0000
0000
0000
0000
0000
0000
0000
0000
0000
0200
0000
0000
0000
0000
0000
0000
0000
0000
0000
0000
0000
0000
0000
0000
0000
0000
0000
0000
0000
0000
0000
0000
0000
0000
0000
0000
0000
0000
0000
0000
0000
0000
0000
0000
0000
0000
0000
0000
0000
0000
0000
0000
0000
0000
0000
0000
0000
,  // measure 39
1300
0000
0000
0000
0000
0000
0000
0000
0000
0000
0000
0000
0000
0000
0000
0000
0000
0000
0000
0000
0000
0000
0000
0000
0010
0000
0000
0000
0000
0000
0000
0000
0000
0000
0000
0000
0000
0000
0000
0000
0000
0000
0000
0000
0000
0000
0000
0000
1000
0000
0000
0000
0000
0000
0000
0000
0000
0000
0000
0000
0000
0000
0000
0000
0000
0000
0000
0000
0000
0000
0000
0000
0001
0000
0000
0000
0000
0000
0000
0000
0000
0000
0000
0000
0000
0000
0000
0000
0000
0000
0000
0000
0000
0000
0000
0000
1000
0000
0000
0000
0000
0000
0000
0000
0000
0000
0000
0000
0000
0000
0000
0000
0000
0000
0000
0000
0000
0000
0000
0000
0000
0100
0000
0000
0000
0000
0000
0000
0000
0000
0000
0000
0000
0000
0000
0000
0000
0000
0000
0000
0000
0000
0000
0000
0000
0000
0000
0010
0000
0000
0000
0000
0000
0000
0000
0000
0000
0000
0000
0000
0000
0000
0000
0000
0000
0000
0000
0000
0000
0000
0000
0000
0000
0000
0000
0000
0000
0100
0000
0000
0000
0000
0000
0000
0000
0000
0000
0000
0000
0000
0000
0000
,  // measure 40
0000
0000
2000
0000
0000
0000
3000
0000
0000
0000
0000
0000
0000
0000
0000
0001
0000
0000
0100
0000
0000
0020
0000
0000
,  // measure 41
0000
0230
0000
0302
0000
0000
0013
0100
,  // measure 42
0110
1000
0002
0103
,  // measure 43
0110
0001
2000
3010
,  // measure 44
0110
1010
0110
0101
,  // measure 45
1002
0000
0000
0000
0000
0000
0023
0000
0000
0000
0031
0000
1000
0001
1000
0000
,  // measure 46
1001
0001
0010
1000
0010
0000
0012
0000
,  // measure 47
0103
0000
0010
0000
0001
0000
0010
0000
1000
0000
0000
0000
0011
0000
0000
1000
,  // measure 48
0000
1100
0000
0001
0100
0000
0120
0000
,  // measure 49
2030
0000
3001
0001
0010
0100
1000
0001
,  // measure 50
1000
0100
1000
0010
0100
0001
0010
0001
,  // measure 51
1000
0010
1000
0100
0010
0001
0100
0001
,  // measure 52
1000
0010
0001
0010
1000
0000
1002
0000
,  // measure 53
1003
0000
0100
0000
0001
0000
0100
0000
1000
0000
0000
0000
1010
0000
0000
0001
,  // measure 54
0000
0000
0100
0000
0001
0000
1000
0000
0100
0000
0000
0000
1100
0000
0000
0001
,  // measure 55
0000
0011
0000
1000
0010
0000
0110
0000
,  // measure 56
1001
0000
0000
0000
;

//---------------dance-single - ----------------
#NOTEDATA:;
#CHARTNAME:;
#STEPSTYPE:dance-single;
#DESCRIPTION:;
#CHARTSTYLE:;
#DIFFICULTY:Medium;
#METER:4;
#RADARVALUES:0.292182,0.306011,0.054645,0.359094,0.000000,262.000000,255.000000,7.000000,46.000000,0.000000,0.000000,0.000000,0.000000,0.000000,0.292182,0.306011,0.054645,0.359094,0.000000,262.000000,255.000000,7.000000,46.000000,0.000000,0.000000,0.000000,0.000000,0.000000;
#CREDIT:DDRDAIKENKAI;
#DISPLAYBPM:108.000000;
#NOTES:
0000
0000
0000
0000
,
0000
0000
0000
0000
,
0000
0000
0000
0000
,
0000
0000
0000
0000
,
1000
0010
1000
0000
0001
0010
0001
0000
,
0200
0000
0000
0010
0310
0000
1000
0000
,
0001
1000
0100
0000
1000
0001
0100
0000
,
0020
0000
0030
0100
0100
0000
0001
0000
,
1000
1000
1000
0100
,
0010
0000
0100
0000
0010
0010
0010
0000
,
0001
0001
0001
0100
,
0010
0000
0100
0100
0100
0000
0020
0000
,
1030
0100
1000
0000
1000
0001
1000
0000
,
2000
3020
0230
0301
,
0001
0010
0001
0000
0001
1000
0001
0000
,
0002
0000
0013
0100
0200
0000
2300
0000
,
3020
0000
0100
0000
0130
0001
1000
0000
,
0200
0000
0010
0000
0310
0001
1000
0000
,
0002
0000
0010
0000
0103
0001
1000
0000
,
2000
0000
0010
0010
3020
0000
0130
0000
,
0120
0000
0000
0000
,
2030
0000
0000
0000
,
3200
0000
0000
0000
,
0302
0000
0000
0103
,
2000
3020
0230
0302
,
1003
0001
1000
0001
1000
0000
0010
0000
,
0100
0001
0100
0001
0100
0000
0001
0020
,
0000
0130
0000
2000
0000
3001
0000
0200
,
0000
0310
1000
0100
0010
0000
0002
0000
,
1003
0010
1000
0010
1000
0000
0001
0000
,
1000
0100
1000
0100
1000
0000
0020
0000
,
0130
0000
0001
1000
0001
1000
0001
2000
,
0000
3200
0000
0310
0001
0010
0100
2000
,
0000
3010
0000
0200
0000
0310
0000
2000
,
0000
3010
0100
0001
0010
0000
0002
0000
,
1003
0001
1000
0001
1000
0000
0010
0000
,
0100
0001
0100
0001
0100
0000
0010
0000
,
1000
0100
1000
0100
1000
0000
0001
0000
,
1000
0010
0001
0200
,
1300
0010
1000
0010
1000
0000
0001
0100
,
0002
1003
0000
1000
,
0100
0000
0010
0000
0001
0000
1000
0001
,
0100
0010
0100
0001
,
1000
0100
0010
0100
,
0110
1010
0110
0101
,
2001
0000
0000
3002
0000
0023
0000
0230
,
0000
1300
0010
0100
0001
0000
2000
0000
,
3100
0010
0100
0010
0001
0000
0100
0000
,
0010
0100
0010
1000
0001
0000
2000
0000
,
3001
0000
0010
0001
0010
0001
0010
0002
,
0000
1003
0000
0010
0100
0001
0100
0020
,
0000
1030
0000
0200
0000
0310
0000
0002
,
0000
0013
0100
1000
0010
0000
0200
0000
,
0301
0010
0001
0010
0001
0000
1000
0000
,
0010
0100
0010
0100
0010
0000
1000
0000
,
0100
0010
0100
0010
0001
0000
1000
0000
,
1001
0000
0000
0000
;

//---------------dance-single - ----------------
#NOTEDATA:;
#CHARTNAME:;
#STEPSTYPE:dance-single;
#DESCRIPTION:;
#CHARTSTYLE:;
#DIFFICULTY:Easy;
#METER:3;
#RADARVALUES:0.195160,0.218579,0.054645,0.163934,0.000000,175.000000,168.000000,7.000000,21.000000,0.000000,0.000000,0.000000,0.000000,0.000000,0.195160,0.218579,0.054645,0.163934,0.000000,175.000000,168.000000,7.000000,21.000000,0.000000,0.000000,0.000000,0.000000,0.000000;
#CREDIT:DDRDAIKENKAI;
#DISPLAYBPM:108.000000;
#NOTES:
0000
0000
0000
0000
,
0000
0000
0000
0000
,
0000
0000
0000
0000
,
0000
0000
0000
0000
,
1000
0001
1000
0001
,
0200
0000
0310
0000
,
1000
1000
0001
0001
,
0200
0000
0310
0010
,
1000
1000
1000
0100
,
0010
0000
0100
0010
,
0001
0001
0001
0100
,
0010
0000
0010
0000
,
0200
0010
0010
0010
,
0310
1000
0001
0000
,
2000
0001
0001
0001
,
3001
0010
0100
0100
,
0020
0001
0000
0031
,
0100
0100
0010
0100
,
0020
1000
0000
1000
,
1030
0000
0001
0001
,
1002
0000
0000
0000
,
0023
0000
0000
0000
,
0230
0000
0000
0000
,
2300
0000
0000
3001
,
1000
1000
0100
0100
,
0010
0010
0001
0001
,
1000
0001
1000
0001
,
0100
0100
0100
0200
,
0310
1000
0001
0020
,
0130
0100
0100
1000
,
0000
0001
0000
2000
,
3001
0100
0010
0010
,
1000
1000
0001
0100
,
0010
0010
0100
0001
,
1000
0001
1000
0002
,
1003
1000
1000
0001
,
0100
0000
0100
0001
,
1000
0000
1000
0100
,
1000
0010
0001
0100
,
2000
0001
0000
3001
,
0200
0001
0000
0301
,
0002
1000
0000
1003
,
1010
0000
0000
0000
,
0101
0000
0000
0000
,
0011
0010
0100
1000
,
2200
0000
0000
3300
,
1001
0001
0010
0100
,
1000
1000
1000
0001
,
0100
0100
0100
0020
,
1030
0001
1000
1000
,
0001
0010
0100
1000
,
0001
0100
0010
1000
,
0010
0100
0010
2000
,
3001
0000
0001
0001
,
1000
0100
0000
0010
,
0000
0001
0000
1000
,
1001
0000
0000
0000
;
