#TITLE:Beautiful Flowers;
#SUBTITLE:;
#ARTIST:BoA;
#TITLETRANSLIT:;
#SUBTITLETRANSLIT:;
#ARTISTTRANSLIT:;
#GENRE:J-POP;
#CREDIT:;
#BANNER:Beautiful Flowers.png;
#BACKGROUND:Beautiful Flowers-bg.png;
#LYRICSPATH:;
#CDTITLE:;
#MUSIC:Beautiful Flowers.ogg;
#OFFSET:-1.213000;
#SAMPLESTART:47.334999;
#SAMPLELENGTH:15.179999;
#SELECTABLE:YES;
#BPMS:0.000000=122.995003
;
#STOPS:
;
#BGCHANGES:;
#KEYSOUNDS:;
#ATTACKS:;

//---------------dance-single - ----------------
#NOTES:
     dance-single:
     :
     Hard:
     8:
     0.508530,0.531092,0.327330,0.294597,0.188215,435.000000,395.000000,40.000000,36.000000,0.000000,0.000000,0.508530,0.531092,0.327330,0.294597,0.188215,435.000000,395.000000,40.000000,36.000000,0.000000,0.000000:
// measure 0
0000
0000
0000
0000
,  // measure 1
0000
0000
0000
0000
,  // measure 2
0000
0000
0000
0000
,  // measure 3
0000
0000
0000
0000
,  // measure 4
1000
0100
1000
0100
0010
0001
0010
0001
,  // measure 5
0100
0000
0010
0000
0100
0000
0010
0000
1000
0000
0000
0001
0000
0000
0100
0000
,  // measure 6
0010
0000
0000
0000
1000
0000
0001
0010
0001
0000
1000
0000
0100
0000
1000
0000
,  // measure 7
0001
0010
0100
1000
0100
0010
0001
0000
,  // measure 8
1100
0000
0000
0000
0101
0000
0000
0000
0110
0000
0000
0100
0002
0000
1003
0000
,  // measure 9
1100
0000
0000
0000
0011
0000
0000
0000
1000
0000
0001
0100
0001
0100
0001
0000
,  // measure 10
1001
0000
0000
0000
1010
0000
0000
0000
0110
0000
0000
0100
0001
0000
1000
0000
,  // measure 11
1100
0000
0000
0000
0011
0000
0000
0000
1000
0000
0010
0100
0010
0100
0010
0000
,  // measure 12
1010
0000
0000
0000
1001
0000
0000
0000
0101
0000
0000
1000
0002
0000
0103
0000
,  // measure 13
0110
0000
0000
0000
1010
0000
0000
0000
1000
0000
0001
0010
0001
0010
0001
0000
,  // measure 14
1100
0000
0000
0000
0011
0000
0000
0000
0101
0000
0000
0010
1000
0000
0100
0000
,  // measure 15
0020
0000
0000
0000
0032
0000
0000
0000
2003
0000
3010
0100
0010
0100
0010
0000
,  // measure 16
0110
0000
0000
0000
1001
0000
1000
0000
1100
0000
0000
0001
0010
0000
0001
0000
,  // measure 17
0200
0000
0000
0000
0302
0000
0000
0000
1003
0000
0100
1000
0100
1000
0100
0000
,  // measure 18
1100
0000
0000
0000
0011
0000
0001
0000
0101
0000
0000
1000
0001
0000
0100
0000
,  // measure 19
0020
0000
0000
0000
0230
0000
0000
0000
0301
0000
1000
0001
1000
0001
1000
0000
,  // measure 20
1002
0000
1003
0001
0012
0000
0103
0120
,  // measure 21
0000
1030
0100
0010
0001
1000
0010
0100
,  // measure 22
0002
1000
1003
0100
2000
0010
3010
0200
,  // measure 23
0000
0010
0010
0320
0000
1000
1000
1030
,  // measure 24
0001
0010
1000
0010
0001
0100
1000
0100
,  // measure 25
0001
0000
0010
0000
0100
0000
1000
0000
0010
0000
0000
0100
0000
0000
0001
0000
,  // measure 26
1000
0100
0001
0100
1000
0010
0001
0010
,  // measure 27
1000
0100
0010
0001
0000
0001
1000
0010
,  // measure 28
1000
0100
1000
0010
0100
0001
0010
0001
,  // measure 29
1000
0000
0010
0000
0001
0000
0010
0000
1000
0000
0000
1000
0001
0000
0010
0000
,  // measure 30
1000
0010
0001
0100
1000
0100
0001
1000
,  // measure 31
1100
0100
0010
0011
0001
0001
0100
0100
,  // measure 32
0200
0000
0000
0301
1000
0000
0100
0000
2000
0000
0000
3001
0010
0000
0001
0000
,  // measure 33
0100
0000
0010
0000
0100
0000
0010
0000
1000
0000
0001
1000
0100
0000
1000
0001
,  // measure 34
1000
0001
0010
0100
0010
0001
0010
0100
,  // measure 35
2000
0000
0000
0000
0010
0000
0000
0000
3010
0000
0010
0100
0020
0000
0000
0000
,  // measure 36
1030
1000
1000
1000
0000
0001
0000
0001
,  // measure 37
0000
0000
0200
0000
0000
0000
0000
0000
0310
0000
0000
1000
0100
0000
0010
0000
,  // measure 38
0001
0001
0001
0001
0000
1000
0000
1000
,  // measure 39
0000
0010
0000
0110
0100
0001
0010
0100
,  // measure 40
1000
0000
0010
0000
0001
0000
0010
0000
1000
0100
1000
0000
0001
0010
0002
0000
,  // measure 41
1000
0000
1003
0000
0100
0000
0010
0001
0010
0000
0100
0010
0100
0000
1000
0100
,  // measure 42
1000
0100
0001
0100
1000
0001
0100
0102
,  // measure 43
0000
1003
1000
0010
0010
0100
0100
0002
,  // measure 44
0000
0013
0100
1200
0000
1300
0010
0002
,  // measure 45
0000
0000
0203
0000
0000
0000
2300
0000
0000
0000
3001
0000
1000
0100
1000
0100
,  // measure 46
0010
0000
0000
0000
0010
0000
0000
0004
,  // measure 47
1003
0000
0000
1000
0000
0000
1000
0000
0004
0000
0000
0000
0000
0000
0000
0000
,  // measure 48
0103
0000
0000
0100
0100
0000
0220
0330
,  // measure 49
1100
0000
1001
0000
0011
0000
0201
0000
0000
0000
0301
0000
1000
0001
1000
0001
,  // measure 50
1000
0010
0001
0010
1000
0100
0001
0100
,  // measure 51
1000
0000
0001
0000
0100
0000
0010
0000
1000
0000
0000
1000
0100
0000
0010
0000
,  // measure 52
0001
0100
0010
0100
1000
0100
0010
1000
,  // measure 53
1100
0000
0100
0000
1000
0000
1010
0000
0010
0000
0010
0000
0100
0000
0001
0010
,  // measure 54
0002
0000
0000
1003
0100
0000
1000
0000
0020
0000
0000
0130
0001
0000
1000
0000
,  // measure 55
0010
0000
0100
0000
0010
0000
0001
0000
0010
0000
1000
0100
0000
0000
1000
0001
,  // measure 56
0100
0010
0100
1000
0100
0010
0100
0001
,  // measure 57
0200
0000
0000
0000
0010
0000
0000
0000
0310
0000
1000
0001
1000
0100
0000
0000
,  // measure 58
2002
0000
0000
0000
,  // measure 59
3003
0000
0000
0000
;

//---------------dance-single - ----------------
#NOTES:
     dance-single:
     :
     Medium:
     5:
     0.319146,0.362108,0.049099,0.507361,0.053191,273.000000,267.000000,6.000000,62.000000,0.000000,0.000000,0.319146,0.362108,0.049099,0.507361,0.053191,273.000000,267.000000,6.000000,62.000000,0.000000,0.000000:
// measure 0
0000
0000
0000
0000
,  // measure 1
0000
0000
0000
0000
,  // measure 2
0000
0000
0000
0000
,  // measure 3
0000
0000
0000
0000
,  // measure 4
2000
0010
0010
0100
,  // measure 5
0100
0000
0000
0000
0001
0000
0000
0000
3002
0000
0000
0000
0020
0003
0000
0000
,  // measure 6
0230
0000
0000
0310
0001
0000
1000
0000
,  // measure 7
0010
0000
0100
0010
0000
0000
0110
0000
,  // measure 8
1000
0000
0000
0000
0001
0000
0000
0000
0100
0000
0000
0010
0000
0000
0100
0000
,  // measure 9
0002
0000
0010
0000
0013
0100
0010
0100
,  // measure 10
2000
0000
0000
0000
3010
0000
1000
0000
0001
0000
0000
0100
0000
0000
0020
0000
,  // measure 11
0000
0100
0130
0000
0001
0010
0001
0010
,  // measure 12
0002
0000
0000
0000
1003
0000
0010
0000
1000
0000
0000
0001
0000
0000
0200
0000
,  // measure 13
0000
0000
0300
0000
0010
1000
0100
0010
,  // measure 14
0002
0000
0000
0010
0023
0000
0000
0100
,  // measure 15
0230
0000
2300
0000
3002
0000
0103
0010
,  // measure 16
0120
0000
0000
0000
0000
0000
0130
0000
0100
0000
0000
0001
0000
0000
1000
0000
,  // measure 17
0020
0000
1000
0000
0100
0000
1030
0100
,  // measure 18
2000
0000
0000
0000
0000
0000
3001
0000
0001
0000
0000
0010
0000
0000
0010
0000
,  // measure 19
0200
0000
1000
0000
1300
0010
1000
0100
,  // measure 20
0020
0000
0001
0032
0000
0000
0000
0203
,  // measure 21
0000
0310
1000
0010
1000
0001
1000
0001
,  // measure 22
0020
0000
0000
0000
0230
0000
0000
2000
,  // measure 23
0000
0000
0000
3300
0000
0001
0001
0002
,  // measure 24
0000
1003
0100
0000
1000
0001
0100
0000
,  // measure 25
0001
0000
1000
0000
0100
0000
0000
0000
1000
0000
0000
0001
0000
0000
0100
0000
,  // measure 26
0010
0000
1000
0000
0001
0020
0000
0130
,  // measure 27
1000
0000
0010
0000
0100
0000
0002
0000
0000
0003
1000
0000
0100
0000
1000
0000
,  // measure 28
0001
1000
0010
0000
1000
0001
0010
0000
,  // measure 29
0001
0000
1000
0000
0010
0000
0000
0000
0100
0000
0000
0001
0000
0000
1000
0000
,  // measure 30
0100
0000
0010
0000
0100
2000
0000
3001
,  // measure 31
0010
0100
1000
0001
0000
0000
1000
0010
,  // measure 32
2000
0000
0000
3001
0000
0000
0001
0000
0200
0000
0000
0310
0000
0000
0020
0000
,  // measure 33
0000
1030
0100
2000
0000
3001
0010
0001
,  // measure 34
0200
0320
2030
3002
,  // measure 35
0200
0000
0000
0303
,  // measure 36
0010
0010
0010
0010
0000
1000
0000
1000
,  // measure 37
0000
0002
0000
0000
0013
0000
0210
0000
,  // measure 38
1300
1000
1000
1000
0000
0001
0000
1000
,  // measure 39
0000
0100
0000
0110
0000
0010
0000
0001
,  // measure 40
1000
0100
1000
0100
0000
0010
0000
0001
,  // measure 41
0000
0000
0100
0000
0010
0000
0100
0000
0001
0000
0000
0010
0000
0000
0100
0000
,  // measure 42
1000
0010
1000
0010
0000
0100
0000
0002
,  // measure 43
0000
1003
0100
0000
0010
0001
0010
0200
,  // measure 44
0000
0000
1300
0020
0000
0000
0130
0002
,  // measure 45
0000
0023
0000
0230
0000
1300
1000
2000
,  // measure 46
0000
0000
3002
0000
,  // measure 47
2003
0000
3020
0000
,  // measure 48
0230
0000
0310
0120
,  // measure 49
0130
0001
0010
1000
0000
0010
0001
0020
,  // measure 50
0000
0031
0100
0000
0010
1000
0100
0000
,  // measure 51
0010
0000
0001
0000
0100
0000
0000
0000
0010
0000
0000
1000
0000
0000
0100
0000
,  // measure 52
0010
0100
1000
0000
0010
0200
0000
0301
,  // measure 53
1000
0010
0100
0001
0000
0000
1000
0010
,  // measure 54
2000
0000
0000
3100
0000
0000
0100
0000
0020
0000
0000
0031
0000
0000
0001
0000
,  // measure 55
0100
0010
0100
0010
1000
0001
1000
0001
,  // measure 56
0020
0230
2300
3002
,  // measure 57
0200
0000
0000
0303
,  // measure 58
2002
0000
0000
0000
,  // measure 59
3003
0000
0000
0000
;

//---------------dance-single - ----------------
#NOTES:
     dance-single:
     :
     Easy:
     3:
     0.205750,0.241406,0.073649,0.384612,0.000000,176.000000,167.000000,9.000000,47.000000,0.000000,0.000000,0.205750,0.241406,0.073649,0.384612,0.000000,176.000000,167.000000,9.000000,47.000000,0.000000,0.000000:
0000
0000
0000
0000
,
0000
0000
0000
0000
,
0000
0000
0000
0000
,
0000
0000
0000
0000
,
2000
0000
0000
0000
,
3002
0000
0013
0100
,
2000
0000
3010
0100
,
0001
0000
0000
2002
0000
0000
3003
0000
,
1000
0100
0100
0010
,
0001
0000
0010
0100
,
0010
0001
0001
0100
,
0200
0000
0310
0010
,
1000
0010
0010
1000
,
0100
0000
0010
0001
,
0020
0030
0002
0003
,
2000
3020
0200
0330
,
0120
0000
1030
0001
,
2000
0000
3000
0100
,
0200
0000
1300
0001
,
0020
0030
0001
0001
,
0200
0000
0000
0000
0320
0000
0000
2030
,
0000
3010
1000
0001
,
0020
0000
0000
0000
0032
0000
0000
0200
,
0000
0000
0000
0303
0000
0000
0000
0000
,
2000
0000
3001
0010
,
0100
1000
0010
0010
,
0200
0000
0310
1000
,
0100
0000
0000
0110
0000
0000
0010
0000
,
0020
0000
0031
1000
,
0001
1000
0010
0100
,
0020
0000
1030
0001
,
0100
0000
0000
0110
0000
0000
0100
0000
,
0002
1000
2003
0010
,
3020
0200
0330
0110
,
0200
0302
0023
0230
,
2000
0000
0000
3300
,
1000
1000
0000
0010
,
0000
1000
1000
1001
,
0001
0001
0000
0100
,
0000
0010
1000
0100
,
0001
0001
0100
0100
,
1000
1000
0010
0010
,
0100
0001
1000
0010
,
1000
0001
0100
0010
,
0010
0000
0100
0000
0001
0000
0000
2000
,
0000
0000
0000
3000
0000
0000
0000
0000
,
1001
0000
0100
0000
,
0010
0010
0002
0000
,
0103
0000
0100
0120
,
1030
1000
1000
2000
0000
0000
3000
0000
,
0001
1000
0001
1000
,
0010
0100
0001
0001
,
1000
0001
1000
0001
,
0100
0010
1000
1000
,
0002
0010
0023
0100
,
0130
1000
0010
0100
,
0020
2030
3002
0023
,
0200
0000
0000
0330
,
2002
0000
0000
0000
,
3003
0000
0000
0000
;
