#TITLE:ADRENALINE;
#SUBTITLE:;
#ARTIST:BoA;
#TITLETRANSLIT:;
#SUBTITLETRANSLIT:;
#ARTISTTRANSLIT:;
#GENRE:K-POP;
#CREDIT:;
#BANNER:ADRENALINE.png;
#BACKGROUND:ADRENALINE-bg.png;
#LYRICSPATH:;
#CDTITLE:CDTitle.png;
#MUSIC:ADRENALINE.ogg;
#OFFSET:-1.778000;
#SAMPLESTART:37.320000;
#SAMPLELENGTH:14.400000;
#SELECTABLE:YES;
#BPMS:0.000000=135.000000
;
#STOPS:
;
#BGCHANGES:16.000=ADRENALINE.avi=1.000=1=0=1===CrossFade==,
275.500=ADRENALINE-bg.png=1.000=0=0=1=====,
99999=-nosongbg-=1.000=0=0=0 // don't automatically add -songbackground-
;
#KEYSOUNDS:;
#ATTACKS:;

//---------------dance-single - DDRDAIKENKAI----------------
#NOTES:
     dance-single:
     DDRDAIKENKAI:
     Challenge:
     9:
     0.642195,0.709883,0.198208,0.539126,1.185285,567.000000,542.000000,25.000000,68.000000,0.000000,0.000000,0.642195,0.709883,0.198208,0.539126,1.185285,567.000000,542.000000,25.000000,68.000000,0.000000,0.000000:
0000
0000
0000
0000
,
0000
0000
0000
0000
,
0000
0000
0000
0000
,
0000
0000
0000
0000
,
1100
0000
1000
0100
0000
0100
1000
0000
0001
0100
0000
0020
,
1000
0030
1000
0100
0000
2000
0010
3000
0010
0100
0000
0001
,
1000
0000
0000
1100
0000
1000
0001
0000
0001
0100
0000
0020
,
1000
0030
1000
0001
0000
1000
0100
1000
0100
1000
0001
1000
,
0001
0000
0001
0100
0000
0001
1000
0100
1000
0001
0010
0002
,
0000
0000
0103
0010
0000
1000
0100
0000
1000
0000
0000
0010
,
0100
0000
0001
1000
0000
0010
0100
0000
0001
1000
0000
0001
,
0100
0000
0001
1000
0000
0010
0100
0010
0100
0010
1000
0010
,
1020
0000
0000
1030
0000
1000
0100
0000
1000
0001
0000
0200
,
0001
0300
0001
0010
0000
0001
1000
0000
0010
1000
0000
1000
,
0001
0000
0000
1001
0000
0000
0101
0000
0001
0100
0000
0020
,
1000
0030
1000
0100
0000
1000
0001
0010
0001
0010
0100
0010
,
0100
0000
0000
1100
0000
0000
1000
0010
0100
0010
1000
0002
,
0000
0000
1003
0100
0000
0010
0001
0000
0011
0000
0000
0001
,
1000
0000
1000
0100
0000
0100
0001
0000
0001
0100
0000
0100
,
1000
0000
1000
0001
0000
0001
0100
0010
0100
0020
0000
0000
,
1030
0000
0001
0100
0000
0100
0010
0000
1000
0100
0000
0100
,
1000
0000
0001
0010
0000
0001
0100
0000
0010
0100
0000
0001
,
0000
0000
0001
0100
0000
0100
0001
0000
1000
0100
0000
1000
,
1010
0000
0000
0110
0000
0010
1000
0100
1000
0100
0010
0100
,
0010
0000
0001
0100
0000
0001
1000
0000
1000
0100
0000
1000
,
1001
0000
0000
0110
0000
0100
0101
0000
0000
0012
0000
1003
,
0001
0010
0001
1000
0001
1000
0100
1000
0100
1000
0010
1000
,
0010
0100
0010
1000
0010
1000
0001
0100
0001
0100
0001
0100
,
0102
0000
0013
0200
0000
1300
0020
0000
1030
0002
0000
1003
,
0100
0000
0000
0020
0000
0032
1000
0003
2000
0001
3000
0000
,
0201
0000
0301
0020
0000
0031
2000
0000
3010
2000
0000
3001
,
0100
0000
0000
0010
0000
0100
0001
1000
0001
1000
0001
1000
,
1200
0000
1300
0020
0000
1030
0002
0000
1003
0020
0000
1030
,
0100
0000
0000
0010
0000
0002
1000
0003
2000
0001
3000
0001
,
1000
0100
1000
0010
0100
0010
1000
0100
1000
0001
0100
0001
,
1000
0010
1000
0001
0010
0001
1000
0001
1000
0001
1000
0001
,
1000
0100
0010
0001
0010
0100
1000
0100
0010
0002
0000
0000
,
1003
0010
0100
0001
0100
0010
1000
0010
0100
0002
0000
0000
,
1003
0001
0010
0001
1000
0100
1000
0001
0100
0020
0000
0000
,
1030
0000
0001
0100
0000
0010
1000
0001
1000
0001
1000
0001
,
1000
0100
0010
1000
0010
0100
1000
0010
0001
0020
0000
0000
,
0130
0001
1000
0100
0001
0100
0010
0001
0100
0020
0000
0000
,
1030
0100
0001
1000
0010
0001
1000
0001
0010
0002
0000
0000
,
1003
0001
1000
0001
1000
0001
0100
0010
0100
0020
0000
0000
,
1030
0000
1000
0100
0000
1000
0010
0000
0010
1000
0000
0100
,
1000
0000
1000
0010
0000
1000
0001
0000
0001
0200
0000
1300
,
0000
0000
1000
0100
0000
0001
1000
0000
1000
0100
0000
0010
,
0011
0000
0000
0101
0000
0001
1000
0000
1000
0020
0000
0031
,
0000
0000
0001
0010
0000
1000
0001
0000
0100
1000
0000
0100
,
2200
3300
0000
0110
0000
0100
0202
0303
0000
1002
0000
2003
,
0002
0000
0000
0000
,
0000
0000
0000
3003
,
2001
0000
3001
0200
0000
0310
2000
0000
3100
0020
0000
0130
,
1000
0000
0000
0002
0000
2003
0010
3000
0020
0100
0030
0000
,
2010
0000
3001
0200
0000
1300
0200
0000
0301
0020
0000
0031
,
1000
0000
0000
0001
0000
1000
0001
0010
0001
1000
0010
0100
,
0120
0000
1030
0200
0000
1300
0020
0000
1030
0002
0000
1003
,
0100
0000
0000
0020
0000
0032
1000
0003
2000
0010
3000
0010
,
1000
0001
0010
0001
1000
0100
0010
0100
1000
0010
0100
0001
,
0010
0001
0100
0010
1000
0100
1000
0001
1000
0001
1000
0001
,
0010
0001
0100
1000
0100
0001
0010
0100
0010
0002
0000
0000
,
1003
0100
0010
0100
0001
0100
0010
0001
0100
0020
0000
0000
,
1030
0010
0100
1000
0100
0001
0010
0100
0010
0002
0000
0000
,
1003
0000
0001
1000
0000
1000
0010
0100
0010
0100
0010
0100
,
0001
0010
1000
0001
0100
0010
0001
0100
1000
0200
0000
0000
,
1300
0100
0001
1000
0010
0100
1000
0100
0001
2000
0000
0000
,
3001
0010
1000
0001
0100
1000
0001
0100
0001
0010
0100
1000
,
0002
0000
1000
1000
0000
1000
1003
0000
0001
0200
0000
0000
,
0300
0000
0000
0000
0000
0000
0000
0001
;

//---------------dance-single - ----------------
#NOTES:
     dance-single:
     :
     Easy:
     4:
     0.253707,0.245729,0.007928,0.087212,0.000000,224.000000,223.000000,1.000000,11.000000,0.000000,0.000000,0.253707,0.245729,0.007928,0.087212,0.000000,224.000000,223.000000,1.000000,11.000000,0.000000,0.000000:
// measure 0
0000
0000
0000
0000
,  // measure 1
0000
0000
0000
0000
,  // measure 2
0000
0000
0000
0000
,  // measure 3
0000
0000
0000
0000
,  // measure 4
1000
0000
1000
1000
,  // measure 5
0001
0001
0100
0100
,  // measure 6
0010
0000
0100
0100
,  // measure 7
0001
0001
0010
0010
,  // measure 8
0100
0000
1000
1000
,  // measure 9
0001
0001
1000
0001
,  // measure 10
1000
1000
0001
0001
,  // measure 11
0100
0100
0010
0010
,  // measure 12
0000
0100
0001
0001
,  // measure 13
0010
0010
0100
0100
,  // measure 14
1000
0000
0100
0100
,  // measure 15
1000
1000
0010
0010
,  // measure 16
0100
0000
0001
0001
,  // measure 17
0100
0100
0010
1000
,  // measure 18
0010
0010
0100
0100
,  // measure 19
0001
0001
1000
2000
,  // measure 20
3001
0010
0001
0010
,  // measure 21
0001
1000
0001
1000
,  // measure 22
0100
1000
0100
1000
,  // measure 23
0001
1000
0001
1000
,  // measure 24
0010
1000
0010
1000
,  // measure 25
0010
0100
0010
0100
,  // measure 26
0020
0000
0000
0030
,  // measure 27
0200
0000
0000
0300
,  // measure 28
0001
0001
0001
0001
,  // measure 29
0001
0010
0100
1000
,  // measure 30
0010
0010
0010
0010
,  // measure 31
0010
0100
0001
1000
,  // measure 32
0100
0100
0100
0100
,  // measure 33
0100
1000
0001
0010
,  // measure 34
0002
0000
0000
0003
,  // measure 35
2000
0000
0000
3000
,  // measure 36
1000
0100
0001
0100
,  // measure 37
1000
0010
0001
0010
,  // measure 38
1000
0100
0010
0001
,  // measure 39
0100
0100
0100
0100
,  // measure 40
0001
0010
1000
0010
,  // measure 41
0001
0100
1000
0100
,  // measure 42
0001
0010
0100
1000
,  // measure 43
0010
0010
0010
0010
,  // measure 44
1000
1000
0010
0010
,  // measure 45
0100
0100
0001
0001
,  // measure 46
0000
0001
1000
1000
,  // measure 47
0100
0100
1000
1000
,  // measure 48
0000
0001
0010
0010
,  // measure 49
0100
0100
1000
1000
,  // measure 50
2002
0000
0000
0000
,  // measure 51
0000
0000
0000
3003
,  // measure 52
0100
0010
0100
0010
,  // measure 53
0100
0001
1000
0100
,  // measure 54
0010
0100
0010
0100
,  // measure 55
0010
0100
1000
0001
,  // measure 56
0100
0010
0100
0010
,  // measure 57
0100
0001
1000
0100
,  // measure 58
2000
0000
0001
3000
,  // measure 59
0002
0000
1000
0003
,  // measure 60
0001
0100
1000
0100
,  // measure 61
0001
0010
1000
0010
,  // measure 62
0001
0100
0010
1000
,  // measure 63
0100
0100
0100
0100
,  // measure 64
1000
0010
0001
0010
,  // measure 65
1000
0100
0001
0100
,  // measure 66
1000
1000
1000
1000
,  // measure 67
0002
0000
0000
0000
,  // measure 68
0200
0000
0000
0000
0000
0000
0000
0303
;

//---------------dance-single - ----------------
#NOTES:
     dance-single:
     :
     Hard:
     8:
     0.481363,0.546064,0.253706,0.388488,0.654087,425.000000,393.000000,32.000000,49.000000,0.000000,0.000000,0.481363,0.546064,0.253706,0.388488,0.654087,425.000000,393.000000,32.000000,49.000000,0.000000,0.000000:
0000
0000
0000
0000
,
0000
0000
0000
0000
,
0000
0000
0000
0000
,
0000
0000
0000
0000
,
1000
0000
0000
0001
0000
0000
1000
0000
0000
0100
0000
1000
,
0001
0000
0000
0100
0000
0001
0010
0000
0000
0100
0000
0010
,
0001
0000
0000
0100
0000
0000
0010
0000
0000
1000
0000
0010
,
0100
0000
0000
0001
0000
1000
0100
0000
0100
1000
0000
1000
,
0001
0000
0000
0100
0000
0000
0001
0000
0100
0001
0000
0010
,
0000
0000
0010
0001
0000
0001
1000
0000
0001
0000
0000
1000
,
0100
0000
0100
1000
0000
1000
0100
0000
0100
1000
0000
1000
,
0010
0000
0010
1000
0000
1000
0010
0000
0010
2000
0000
0000
,
3001
0000
0000
0010
0000
0001
0100
0000
0010
1000
0000
0000
,
0001
0000
0001
1000
0000
0000
0100
0000
0100
1000
0000
0000
,
0002
0000
0000
1003
0000
0000
0001
0000
0001
0100
0000
0000
,
0010
0000
0010
1000
0000
1000
0100
0000
0100
1000
0000
0000
,
1001
0000
0000
0101
0000
0000
0001
0000
0010
0100
0000
2000
,
0000
0000
3001
0100
0000
0100
0010
0000
1000
0000
0000
0100
,
1000
0000
1000
0001
0000
0001
1000
0000
1000
0001
0000
0001
,
0100
0000
0100
0010
0000
0010
0100
0000
0100
0020
0000
0000
,
1030
0000
1000
0001
0000
0001
1000
0000
1000
0100
0000
0100
,
0001
0000
0001
0100
0000
0100
1000
0000
1000
0010
0000
1000
,
0000
0000
1000
0100
0000
0100
0010
0000
0010
0001
0000
0001
,
2000
0000
0000
3001
0000
0001
0100
0000
0100
0010
0000
1000
,
0000
0000
0100
1000
0000
1000
0010
0000
0010
0100
0000
0100
,
0002
0000
0000
0013
0000
0010
0200
0000
0000
2300
0000
3001
,
0200
0000
0000
0010
0000
0000
0001
0000
0000
0310
0000
0010
,
2000
0100
0002
3003
,
1001
1010
1100
1010
,
1100
0000
0000
2000
0000
3200
0000
0000
0301
0000
0000
0000
,
0101
1100
1001
0101
,
1001
0000
0000
0002
0000
0023
0000
0000
1030
0000
0000
0000
,
1010
0110
1100
0110
,
0011
0000
0000
0002
0000
2003
0000
0000
3001
0000
0000
0001
,
0200
0010
1000
0310
,
2000
0001
0001
3001
,
1000
0000
1000
0100
0000
0100
1000
0010
1000
0020
0000
0000
,
1030
0000
1000
0001
0000
0001
0100
0001
0100
0002
0000
0000
,
0013
0000
0010
0100
0000
0100
0010
0100
0010
0002
0000
0000
,
1003
0000
1000
0001
0000
1000
0100
0000
1000
0002
0000
0000
,
1003
0000
1000
0010
0000
0010
0001
0010
0100
0002
0000
0000
,
1003
0000
1000
0100
0000
0100
0001
0100
0010
0002
0000
0000
,
1003
0000
0001
1000
0000
0001
0100
0001
0010
0002
0000
0000
,
1003
0000
1000
0001
0000
0100
0010
0000
1000
0200
0000
0000
,
1300
0000
1000
0010
0000
1000
0001
0000
0001
1000
0000
0001
,
0100
0000
0100
0010
0000
1000
0010
0000
1000
0100
0000
1000
,
0000
0000
0001
0010
0000
0001
0100
0000
0100
0001
0000
0010
,
0002
0000
0000
0103
0000
0100
0010
0000
0010
0100
0000
0001
,
0000
0000
1000
0100
0000
0100
1000
0000
1000
0001
0000
0001
,
2000
0000
0000
3001
0000
0001
0200
0000
0000
0320
0000
0000
,
2000
0000
0000
0030
,
0002
0000
0000
3003
,
1001
1010
1100
1010
,
1100
0000
0000
0200
0000
2300
0000
0000
3001
0000
0000
0000
,
0011
1001
0101
1001
,
0101
0000
0000
0002
0000
2003
0000
0000
3100
0000
0000
0000
,
1100
1010
1100
0011
,
1100
0000
0000
0200
0000
0320
0000
0000
0032
0000
0000
1003
,
0100
0000
0100
0001
0000
0001
0100
0000
0100
1000
0000
1000
,
0010
0000
0010
0001
0000
0001
0010
0100
0010
0100
0010
0100
,
0001
0000
1000
0100
0000
1000
0010
0100
0010
0200
0000
0000
,
0301
0000
0010
0100
0000
0010
0001
1000
0001
2000
0000
0000
,
3100
0000
0010
0001
0000
1000
0010
0100
0010
0200
0000
0000
,
0301
0000
0001
0010
0000
0001
0100
0000
0010
2000
0000
0000
,
3100
0000
0010
0100
0000
0010
0001
0100
1000
0200
0000
0000
,
1300
0000
0100
0010
0000
1000
0010
0001
0010
0200
0000
0000
,
0301
0000
1000
0001
0000
1000
0001
0010
0100
2000
0000
0000
,
3002
0000
0000
0000
0000
0000
0000
0000
0010
0020
0000
0000
,
0033
0000
0000
0000
0000
0000
0000
1000
;

//---------------dance-single - ----------------
#NOTES:
     dance-single:
     :
     Medium:
     5:
     0.320531,0.350432,0.007928,0.507413,0.214065,283.000000,282.000000,1.000000,64.000000,0.000000,0.000000,0.320531,0.350432,0.007928,0.507413,0.214065,283.000000,282.000000,1.000000,64.000000,0.000000,0.000000:
// measure 0
0000
0000
0000
0000
,  // measure 1
0000
0000
0000
0000
,  // measure 2
0000
0000
0000
0000
,  // measure 3
0000
0000
0000
0000
,  // measure 4
0001
0001
1000
1000
,  // measure 5
0010
0010
0100
0100
,  // measure 6
0010
0010
1000
1000
,  // measure 7
0001
0001
1000
1000
,  // measure 8
0001
1000
0001
1000
,  // measure 9
0100
1000
0100
1000
,  // measure 10
0002
1003
2000
3001
,  // measure 11
0002
1003
2000
3002
,  // measure 12
1003
0100
0010
0001
,  // measure 13
0100
0000
0000
0010
0000
0000
1000
0000
0000
0001
0000
1000
,  // measure 14
0000
0001
0010
0001
,  // measure 15
0100
0000
0000
0010
0000
0000
1000
0000
0100
0000
0000
1000
,  // measure 16
0000
0000
0000
0001
0000
0000
0010
0000
0000
0100
0000
1000
,  // measure 17
0000
0000
0000
0001
0000
0000
0100
0000
0010
0000
0000
0000
,  // measure 18
1000
1000
0001
0001
,  // measure 19
0100
0100
0010
0020
,  // measure 20
1030
0000
0000
0100
0000
0000
0010
0000
0010
0100
0000
0000
,  // measure 21
1000
0000
0000
0001
0000
0000
0100
0000
0100
0010
0000
0000
,  // measure 22
0100
0000
0000
0001
0000
0000
1000
0000
1000
0001
0000
0000
,  // measure 23
0010
0000
0000
0100
0000
0000
1000
0000
1000
0001
0000
0000
,  // measure 24
0010
0000
0000
0001
0000
0000
0100
0000
0100
0010
0000
0000
,  // measure 25
2000
0000
0000
3010
0000
0010
0200
0000
0000
0302
0000
0000
,  // measure 26
2003
0100
0100
3100
,  // measure 27
0020
0001
0001
0031
,  // measure 28
0200
0320
0230
0320
,  // measure 29
0230
0000
0000
0301
0000
1000
0000
0000
0100
0000
0000
0000
,  // measure 30
0020
0230
0320
0230
,  // measure 31
0320
0000
0000
0130
0000
1000
0000
0000
0001
0000
0000
0000
,  // measure 32
0200
0302
0203
0302
,  // measure 33
0203
0000
0000
0301
0000
1000
0000
0000
0100
0000
0000
0100
,  // measure 34
2000
0010
0100
3100
,  // measure 35
0020
0001
0100
0130
,  // measure 36
1000
0000
0000
0010
0000
0000
0001
0000
0001
0010
0000
0000
,  // measure 37
1000
0000
0000
0100
0000
0000
0001
0000
0001
0100
0000
0000
,  // measure 38
1000
0000
0000
0010
0000
0000
0100
0000
0100
0001
0000
0000
,  // measure 39
1000
0000
0000
1000
0000
0001
1000
0000
0001
2000
0000
0000
,  // measure 40
3001
0000
0000
0100
0000
0000
1000
0000
1000
0100
0000
0000
,  // measure 41
0001
0000
0000
0010
0000
0000
1000
0000
1000
0010
0000
0000
,  // measure 42
0001
0000
0000
0001
0000
1000
0001
0000
1000
0002
0000
0000
,  // measure 43
1000
1000
1000
1003
,  // measure 44
0001
0000
0000
1000
0000
0000
0100
0000
0100
1000
0000
0000
,  // measure 45
0001
0000
0001
1000
0000
0000
0010
0000
0010
1000
0000
0001
,  // measure 46
0000
0000
0000
1000
0000
0000
0100
0000
0100
0010
0000
0000
,  // measure 47
0002
0000
0000
2003
0000
0000
3200
0000
0000
1300
0000
0010
,  // measure 48
0000
0000
0010
0100
0000
0000
0001
0000
0001
0100
0000
0000
,  // measure 49
0020
2030
3200
0320
,  // measure 50
0032
0000
0000
0000
,  // measure 51
2000
0000
0000
3003
,  // measure 52
1002
2003
3002
2003
,  // measure 53
3200
0000
0000
0310
0000
0001
0000
0000
0100
0000
0000
0000
,  // measure 54
0002
2003
3002
2003
,  // measure 55
3020
0000
0000
0130
0000
0001
0000
0000
0010
0000
0000
0000
,  // measure 56
0002
2003
3002
2003
,  // measure 57
3200
0000
0000
0310
0000
0001
0000
0000
0100
0000
0000
0010
,  // measure 58
2000
3200
2300
3020
,  // measure 59
0230
0302
1000
2003
,  // measure 60
3001
0000
0001
0010
0000
0000
0001
0000
0001
0100
0000
0000
,  // measure 61
0010
0000
0000
1000
0000
0000
0100
0000
0100
1000
0000
0000
,  // measure 62
0001
0000
0000
1000
0000
0000
0100
0000
0100
0010
0000
0000
,  // measure 63
0001
0000
0000
0100
0000
0010
0100
0000
0010
0200
0000
0000
,  // measure 64
0310
0000
0010
1000
0000
0000
0100
0000
0100
1000
0000
0000
,  // measure 65
0001
0000
0000
1000
0000
0000
0100
0000
0100
1000
0000
0000
,  // measure 66
0010
0000
0100
0010
0000
0100
0010
0000
0100
0020
0000
0000
,  // measure 67
0200
0000
0000
0000
,  // measure 68
0330
0000
0000
0000
;

//---------------dance-single - DDRDAIKENKAI----------------
#NOTES:
     dance-single:
     DDRDAIKENKAI:
     Beginner:
     1:
     0.161964,0.214858,0.007928,0.063427,0.000000,143.000000,142.000000,1.000000,8.000000,0.000000,0.000000,0.161964,0.214858,0.007928,0.063427,0.000000,143.000000,142.000000,1.000000,8.000000,0.000000,0.000000:
0000
0000
0000
0000
,
0000
0000
0000
0000
,
0000
0000
0000
0000
,
0000
0000
0000
0000
,
1000
0000
1000
0000
,
0001
0001
0001
0000
,
0100
0000
0100
0000
,
0010
0010
0010
0000
,
1000
0000
0001
0000
,
1000
0000
0001
0000
,
0100
0000
0100
0000
,
0100
0000
0100
0000
,
0000
0010
0010
0000
,
1000
0000
1000
0000
,
0000
0001
0001
0000
,
0100
0000
0100
0000
,
0000
0001
0001
0000
,
1000
0000
1000
0000
,
0010
0000
0010
0000
,
0010
0000
0010
0000
,
1000
0000
1000
0000
,
0001
0000
0001
0000
,
1000
0000
1000
0000
,
0001
0000
0001
0000
,
0100
0000
0100
0000
,
0010
0000
0010
0000
,
0200
0000
0300
0000
,
0020
0000
0030
0000
,
1000
1000
1000
1000
,
1000
0000
1000
0000
,
0001
0001
0001
0001
,
0001
0000
0001
0000
,
0100
0100
0100
0100
,
0100
0000
0100
0000
,
0020
0000
0000
0000
,
0000
0000
0030
0000
,
1000
0000
1000
0000
,
0001
0001
0001
0000
,
0100
0100
0100
0000
,
0010
0010
0010
0000
,
1000
1000
1000
0000
,
0100
0100
0100
0000
,
1000
1000
1000
0000
,
0001
0001
0001
0000
,
1000
0000
0001
0000
,
0100
0000
0010
0000
,
0100
0000
0001
0000
,
1000
0000
0100
0000
,
0010
0000
0001
0000
,
0100
0000
0010
0000
,
0200
0000
0000
0000
,
0000
0000
0300
0000
,
0001
0001
0001
0001
,
0001
0000
0001
0000
,
1000
1000
1000
1000
,
1000
0000
1000
0000
,
0010
0010
0010
0010
,
0010
0000
0010
0000
,
0200
0000
0000
0000
,
0000
0000
0300
0000
,
0001
0001
0001
0000
,
1000
1000
1000
0000
,
0100
0100
0100
0000
,
0020
0000
0030
0000
,
0001
0001
0001
0000
,
1000
1000
1000
0000
,
0010
0010
0010
0000
,
0220
0000
0000
0330
;
