#TITLE:Toros National Routine;
#SUBTITLE:;
#ARTIST:Bring It On OST;
#TITLETRANSLIT:;
#SUBTITLETRANSLIT:;
#ARTISTTRANSLIT:;
#CREDIT:;
#BANNER:toros national routine-bn.PNG;
#BACKGROUND:toros national routine-bg.PNG;
#LYRICSPATH:;
#CDTITLE:;
#MUSIC:Toros Nationals Routine.mp3;
#OFFSET:-0.976;
#SAMPLESTART:20.680;
#SAMPLELENGTH:12.000;
#SELECTABLE:YES;
#BPMS:0.000=145.000,28.000=144.500,120.000=145.000;
#STOPS:140.000=1.200
;
#BGCHANGES:0.000=Bring it On.avi=1.000=0=0=1
,235.500=toros national routine-bg.PNG=1.000=0=0=1
;

//---------------dance-single - ----------------
#NOTES:
     dance-single:
     :
     Easy:
     3:
     0.256,0.310,0.201,0.163,0.005:
0000
0000
0000
0000
,
0000
0000
0000
0000
,
0100
0000
0001
0000
,
0001
0000
0100
0000
,
0010
0010
0000
0000
,
0100
0100
0000
0000
,
1000
0100
0000
0000
,
0001
0100
0010
0010
,
1001
0000
0100
0000
,
1001
0000
0010
0000
,
0010
0001
0100
0000
,
0010
1000
0100
0000
,
1000
0000
0001
0001
,
0100
0000
0100
0100
,
0010
0000
0100
0000
,
0010
0000
0100
0000
,
0100
1000
0001
0000
,
0001
0001
0100
0000
,
0100
0100
0000
1001
,
0000
0000
1001
0000
,
1001
0100
1000
0000
,
1001
0001
0100
0000
,
0200
0000
0302
0000
,
0203
0000
1300
0001
,
0100
0000
0001
0001
,
0100
0000
1000
1000
,
0100
0010
0000
0100
,
0000
0110
0000
0100
,
0220
0000
0000
0330
,
0010
0010
0100
0100
,
1000
0100
0001
0000
,
1000
0010
0001
0000
,
0001
0000
1000
0000
,
0100
0000
0110
0000
,
0010
0010
0010
0010
,
1001
0200
0300
0010
,
0010
0002
0003
0100
,
0100
0001
0000
0010
,
0000
0001
0000
0200
,
0000
0302
0000
1003
,
1000
0000
0010
0000
,
0001
0200
0300
1001
,
0100
1000
0001
0000
,
0110
0000
0001
0000
,
0010
0000
0100
0000
,
1000
0100
0001
1000
,
0100
0010
0001
2002
,
3003
1000
0100
0001
,
0100
1000
0110
0001
,
0110
1000
0010
2000
,
0000
3000
0002
0000
,
0103
0000
0010
0000
,
1001
0000
1000
0000
,
0001
0010
1000
0010
,
0001
0010
1001
0000
,
0100
0010
0000
0100
,
0000
0000
0000
0000
1001
0000
0000
0000
0000
0000
0000
0000
0000
0110
0000
0000
,
0000
1001
0200
0000
,
0000
0300
0000
2002
0000
0000
0000
3003
;

//---------------dance-single - ----------------
#NOTES:
     dance-single:
     :
     Medium:
     5:
     0.375,0.480,0.336,0.259,0.005:
0000
0000
0000
0000
,
0000
0000
0000
0000
,
1000
1100
0010
0001
,
0001
0101
0010
1000
,
0001
0001
0100
0100
,
1000
1000
0010
0010
,
0100
0100
0001
0001
,
1000
0100
0010
1000
,
0100
0000
0000
0000
1000
0001
1000
0000
,
0010
0000
0000
0000
0001
1000
0001
0000
,
0100
0100
0011
1100
,
0100
0100
1010
0101
,
1000
0000
0100
0000
0010
0001
0100
0000
,
0001
0000
0100
0000
0010
1000
0100
0000
,
0002
2003
3020
0230
,
0320
0032
0203
2300
,
3001
0001
0100
1000
,
0010
0001
0001
1000
,
1000
1100
0010
0110
,
0010
0011
0100
0101
,
2000
0000
0100
3001
,
0002
0000
0010
1003
,
2000
3100
0020
0031
,
0200
0301
0020
1030
,
0001
1000
0100
0010
,
0001
0010
0100
0000
0001
0010
0100
0000
,
0001
1001
0010
0110
,
1000
1100
0001
0101
,
2002
0000
0000
3003
,
0001
0010
1000
1000
,
0001
1000
1000
1000
,
1000
0001
0001
0001
,
0100
1100
0100
1100
,
0001
0101
0010
0010
,
1000
0100
0001
0100
,
1001
2000
3000
0010
,
0110
0020
0030
0100
,
0110
0000
0001
0100
0001
0000
1000
0000
,
1000
0000
0010
1000
0010
0000
0002
0000
,
0000
2003
0000
3001
,
0001
1000
1000
0001
,
0100
1000
0100
0010
,
1001
0100
0100
0001
,
0010
1000
1000
1000
,
0100
0010
0010
0001
,
0100
0010
0010
0001
,
0100
0010
0001
2002
,
3003
1000
1100
0001
,
0101
0010
0011
0010
,
1010
0200
0000
0310
,
0000
1001
0000
1100
,
0000
0110
1001
0100
,
0010
1000
1000
0001
,
0001
0001
0010
1000
,
0010
0001
0020
0000
,
0030
0010
1000
0100
,
0100
0000
0000
0000
1001
0000
0000
0000
0000
0000
0000
0000
0000
0110
0000
0000
,
0000
1001
0200
0000
,
0000
0300
0000
2002
0000
0000
0000
3003
;

//---------------dance-single - ----------------
#NOTES:
     dance-single:
     :
     Hard:
     8:
     0.515,0.508,0.297,0.230,0.029:
0000
0000
0000
0000
,
0000
0000
0000
0000
,
0010
0000
0100
0000
0010
0100
0100
0000
,
0100
0010
0010
0000
0001
0001
1000
1000
,
0100
1000
0010
0000
0001
0100
1000
0000
,
0100
0001
0010
0000
1000
0100
0001
0000
,
0100
0010
0001
0000
0010
0100
1000
0000
,
1000
0000
0001
0000
0010
0001
1000
0100
,
1001
0010
0110
1001
,
1000
0100
1000
0000
0001
0100
0001
0000
,
0010
1000
0100
0001
0100
1000
0010
0001
,
0010
1000
0100
0001
0010
0010
0010
0000
,
2000
0000
3001
0000
0010
1000
0001
0100
,
0020
0000
1030
0000
0100
0001
0010
1000
,
2000
3200
0320
0032
,
0023
0230
2300
3010
,
0010
0100
0001
0000
0010
0001
0011
0000
,
0010
0100
1000
0000
0010
1000
1010
0000
,
1000
0000
0100
0000
1000
0001
1000
0000
,
0001
0000
1000
0000
0001
0010
0001
0000
1000
0000
0100
0000
0100
0000
0000
0000
,
2000
0000
3001
0000
0100
0010
0100
0000
,
0002
0000
1003
0000
0010
1000
0200
0000
,
0301
0000
0002
0000
0103
0000
0010
0100
,
1000
0100
0001
0010
0001
0000
1001
0000
,
0010
0000
0100
0000
0001
0100
1000
0100
,
0001
0000
1000
0000
1000
0100
0001
0000
,
1000
0000
0000
0100
0010
0000
0000
0000
0001
0000
0000
0100
0010
0000
0000
0000
,
0001
0000
0000
0100
1000
0000
0000
0000
0001
0000
0100
0000
0010
0000
0000
0000
,
2002
0000
0000
3003
,
1000
0000
0000
0000
1000
0000
0010
0100
0010
0000
1000
0000
0001
0000
0000
0000
,
1000
0100
0001
0000
0100
0001
0010
0000
,
0001
0010
1000
0000
0010
1000
0100
0000
,
1000
0010
1000
0100
0001
0100
0001
0100
,
0010
0100
0010
1000
0010
0001
0010
0100
,
2002
3003
0100
0010
,
1001
0000
1000
1000
0001
0000
0011
0000
,
1100
0000
0001
0001
1000
0000
1010
0000
,
0101
0000
1000
0001
0100
0100
0010
1000
,
0100
0100
0001
0010
0100
0100
1001
0000
,
1100
0000
1001
0000
0101
0000
1000
0100
,
1000
0000
0100
0010
0001
0000
0001
0100
,
0010
1000
0100
0100
0000
0001
0100
0010
,
0000
0100
1100
0000
0101
0000
0010
0100
,
0010
0000
0010
1000
0010
0001
0010
1000
,
0010
0000
0001
0100
1000
0100
0001
0100
,
1000
0000
0100
1000
0100
0001
0100
1000
,
0100
0000
0010
0001
1000
0100
0010
0100
,
1001
0200
1300
0200
,
0301
0000
0010
0010
1010
0000
0100
0101
,
0100
0000
0001
1000
0000
0010
0100
0000
,
1001
0000
0100
0000
0010
0101
0000
0100
,
1010
0000
0100
1000
0001
0000
0010
1000
,
0001
0000
1000
0100
0001
0100
1000
0100
,
0010
0000
0001
0010
0010
0000
1000
0010
,
0010
0000
0100
0010
0010
0000
0110
0000
,
1001
0000
0010
1000
0100
0001
0010
0100
,
0100
0000
0000
0000
2002
0000
0000
0000
3003
0000
0000
0000
0000
0110
0000
0000
,
0000
1001
0020
0000
,
0000
0030
0000
2002
0000
0000
0000
3003
;
