#TITLE:마해;
#SUBTITLE:;
#ARTIST:Wonder Girls;
#TITLETRANSLIT:Tell Me;
#SUBTITLETRANSLIT:;
#ARTISTTRANSLIT:;
#CREDIT:;
#BANNER:Tell mE-BN.PNG;
#BACKGROUND:Tell mE-BG.PNG;
#LYRICSPATH:;
#CDTITLE:;
#MUSIC:Tell Me.mp3;
#OFFSET:-0.060;
#SAMPLESTART:33.860;
#SAMPLELENGTH:11.980;
#SELECTABLE:YES;
#BPMS:0.000=127.000;
#STOPS:;
#BGCHANGES:0.000=Tell Me.avi=1.000=1=1=0
,215.000=Tell mE-BG.PNG=1.000=1=0=0
;

//---------------dance-single - ----------------
#NOTES:
     dance-single:
     :
     Beginner:
     1:
     0.146,0.183,0.088,0.000,0.000:
0000
0000
0000
0000
,
0000
0000
0000
0000
,
1000
0000
0000
0000
,
0001
0000
0000
0000
,
0100
0000
0010
0010
,
0000
0000
0010
0000
,
0000
0000
0001
0000
,
0010
0000
0010
0000
,
1001
0000
0000
0000
,
1001
0000
0000
0000
,
1000
0000
0100
0000
,
0001
0001
0000
0000
,
0001
0000
0100
0000
,
1000
1000
0000
0000
,
0010
0000
0000
0000
,
0100
0000
0000
0000
,
1001
0000
0000
0000
,
1000
0000
0001
0000
,
0100
0000
0010
0000
,
0100
0100
0100
0000
,
0110
0000
0000
0000
,
1001
0000
0000
0000
,
0001
0000
1000
0000
,
0001
0001
0001
0000
,
0100
0000
0000
0000
,
0010
0000
0000
0000
,
0001
0001
0000
0000
,
1000
1000
0000
0000
,
0010
0010
0000
0000
,
0100
0100
0000
0000
,
0001
0000
0001
0000
,
0100
0000
1000
0000
,
1000
0000
1000
0000
,
0100
0000
0100
0000
,
0010
0000
0010
0000
,
1000
1000
1000
0000
,
0001
0000
0000
0000
,
1001
0000
0000
0000
,
0100
0000
0100
0000
,
0010
0010
0010
0000
,
0001
0000
1000
0000
,
1001
0000
0000
0000
,
1000
1000
0000
0000
,
0001
0001
0000
0000
,
0010
0000
0100
0000
,
0001
0000
1000
0000
,
0100
0100
0000
0000
,
0010
0010
0000
0000
,
1000
0000
0001
0000
,
0100
0000
0010
0000
,
1000
0000
1000
0000
,
0001
0001
0001
0000
,
0100
0100
0100
0000
,
1001
0000
1001
0000
;

//---------------dance-single - ----------------
#NOTES:
     dance-single:
     :
     Easy:
     4:
     0.283,0.290,0.176,0.020,0.000:
0000
0000
0000
0000
,
0000
0000
0000
0000
,
1000
0000
1000
1001
,
0001
0000
0001
1001
,
0010
0010
1000
1000
,
0100
0000
0001
0000
,
1000
0000
0001
0000
,
0010
0001
1000
0100
,
0010
0010
0000
0100
,
0100
1001
0000
0000
,
1000
0100
0001
0100
,
0001
0001
2000
0000
,
3001
0100
1000
0100
,
1000
1000
0002
0000
,
0013
0100
0010
1000
,
0100
0010
0100
0001
,
1001
0000
0000
0000
,
0001
0010
0100
1000
,
0001
0100
0001
1000
,
0100
1000
0110
1001
,
1000
1000
0010
0010
,
0100
0100
0001
0001
,
1000
0100
1000
0001
,
0100
0001
0110
1001
,
1000
0000
0001
0000
,
0010
0001
0100
1000
,
0001
0000
0100
0100
,
1000
0000
0010
0010
,
0100
0000
0001
0001
,
0010
0000
1001
0000
,
1000
1000
1000
0100
,
0010
0010
0010
0001
,
0100
0100
0100
0010
,
1000
0100
0010
0100
,
0001
0100
0001
1000
,
0100
1000
0110
1001
,
1000
1000
0010
0010
,
0100
0100
0001
0001
,
1000
0100
1000
0001
,
0100
0001
0110
1001
,
1000
0000
0001
0000
,
0010
1000
0100
0001
,
0001
1000
0010
0010
,
0001
0100
1000
0100
,
0001
0001
0001
1001
,
0100
0010
1000
0001
,
1000
1000
0010
0010
,
0001
0010
1000
0010
,
0100
0001
0010
1000
,
0100
0000
0010
0010
,
0001
0100
1000
0100
,
0001
0001
1000
1000
,
0010
0000
1001
0000
,
1001
0010
1001
0110
;

//---------------dance-single - ----------------
#NOTES:
     dance-single:
     :
     Medium:
     5:
     0.368,0.342,0.176,0.167,0.000:
0000
0000
0000
0000
,
0000
0000
0000
0000
,
1000
0100
0010
1001
,
0010
0100
1000
1001
,
0001
1000
0001
0000
0100
0000
0100
0000
,
0001
1000
0100
0100
,
2000
0010
0001
3100
,
0002
0010
1000
0103
,
1000
0100
0101
0011
,
0001
0000
1000
0000
0100
0010
0100
0000
,
1000
0100
1000
0100
,
0001
0100
0001
0200
0000
0000
0000
0300
,
1000
0001
0100
0010
,
0010
1000
0010
2000
0000
0000
0000
3000
,
0010
0001
1000
0100
,
1000
0001
1000
0002
0000
0000
0000
0003
,
0100
2002
0000
3003
,
0010
0001
0100
1000
,
0001
0001
1000
1000
,
0100
0100
0100
0000
0010
0000
0100
0000
,
1000
0100
0010
0000
1000
0100
0010
0000
,
0001
0011
1000
1100
,
0010
0010
1000
0001
,
0100
0001
0001
0000
0100
0000
0010
0000
,
1001
0000
0100
0000
1000
0100
0001
0000
,
1000
0100
0001
0000
0100
0000
0100
0000
,
1000
0001
0100
0100
,
0001
1000
0010
0010
,
0001
0100
0001
0101
,
1000
0100
1000
1100
,
0002
1000
1000
1003
,
2000
0010
0010
3010
,
0002
1003
0200
0310
,
0001
0100
1000
0000
1000
0100
0001
0000
,
0100
0100
0010
0010
,
0001
0001
0001
0000
1000
0000
0001
0000
,
0010
0100
0001
0000
0010
0100
0001
0000
,
0001
0101
1000
1010
,
1000
1000
0010
0100
,
1000
0001
0001
0000
0001
0000
1000
0000
,
0110
0000
0010
0000
1000
0010
0001
0000
,
1000
0010
0001
0000
1000
0000
1000
0000
,
0002
0000
0010
0000
1000
1000
1003
0000
,
2000
0000
0100
0000
0001
0001
3001
0000
,
1000
0100
0010
1001
,
0010
0100
0001
1001
,
0020
1000
0100
0031
,
0020
0001
0100
1030
,
1000
1000
0001
0100
,
0010
1000
0010
0000
0100
0001
0100
0000
,
0001
0002
1003
2000
,
3010
0100
0100
0000
0001
1000
1000
0000
,
1000
1100
0001
0101
,
0010
0100
0010
1001
;

//---------------dance-single - ----------------
#NOTES:
     dance-single:
     :
     Hard:
     8:
     0.506,0.447,0.245,0.049,0.093:
0000
0000
0000
0000
,
0000
0000
0000
0000
,
1000
0100
0001
0000
1000
0010
0001
0000
,
0001
0100
1000
0000
0001
0010
1000
0000
,
0001
1000
0001
0100
0010
0000
0110
0000
,
0001
1000
0100
0010
0001
0000
1001
0000
,
1000
0100
1100
0000
0001
0100
0101
0000
,
0010
1000
0001
0100
0010
0100
0000
0010
,
1000
0001
1001
0000
0100
0001
1000
0010
,
0100
0001
0101
0000
0100
0000
0100
0000
,
0001
1000
0100
0000
1000
0001
0100
0000
,
0010
0100
0010
0200
0000
0001
0301
0000
,
0010
1000
0001
0000
0010
0001
1000
0000
,
0100
0010
1000
0002
0000
1000
1003
0000
,
0100
1000
0010
0000
0010
0001
0100
0000
,
0100
1000
0100
2000
0000
0010
3010
0000
,
1001
1100
0101
0100
,
0001
0100
0001
0010
0100
1000
0010
0000
,
1000
0000
1001
0000
0100
0010
0001
0000
,
0001
0000
1000
0100
0000
0001
0100
0000
0010
0000
1000
0000
0100
0000
0000
0000
,
0001
0100
0001
0010
0001
0100
0001
0000
,
1000
0010
1000
0100
1000
0010
1000
0000
,
1000
0000
1001
0000
0100
1000
0010
0000
,
0100
1000
0000
0001
0000
1000
0100
0000
0010
0000
0001
0000
1000
0000
0000
0000
,
1000
0001
1000
0001
0100
0010
1000
0100
,
0000
0001
1000
0010
0000
0100
0110
0000
,
1000
0000
0100
0000
0010
0001
1000
0000
,
0100
0000
0010
0000
1000
0100
1000
0000
,
0010
0000
0001
0000
0100
0010
0001
0000
,
0100
0000
0001
0000
0010
1000
0100
0000
,
1000
0010
0100
0001
0010
0100
1001
0000
,
0001
1000
0010
0100
0001
1000
0110
0000
,
0010
0001
0100
0010
1000
0001
0101
0000
,
0001
1000
1010
0000
1000
0001
0011
0000
,
1000
0000
1100
0000
0010
0001
1000
0000
,
0010
0000
0001
0010
0000
1000
0010
0000
0100
0000
0001
0000
0001
0000
0000
0000
,
1000
0001
0100
0010
0100
0100
0100
0000
,
0100
0010
1000
0001
1000
0010
0010
0000
,
1000
0000
0101
0000
0010
1000
0001
0000
,
0100
0001
0000
1000
0000
0010
0100
0000
0001
0000
1000
0000
0100
0000
0000
0000
,
1000
0100
0001
0100
1000
0010
0001
2000
,
0000
3010
0001
0100
0000
0001
1000
0000
,
0100
0001
1000
0000
0010
1000
0001
0000
,
1000
0000
0001
0100
0000
0010
0100
0000
1000
0000
0010
0000
1000
0000
0000
0000
,
0010
0001
0100
0010
1000
0100
1001
0000
,
0010
1000
0100
0010
0001
0100
1001
0000
,
0100
0010
0001
0000
0010
1000
0100
0000
,
0010
1000
0000
0001
0000
1000
0100
0000
0010
0000
0100
0000
0010
0000
0000
0000
,
1000
0001
0100
0010
1000
0001
0100
0200
,
0000
0301
1000
0010
0000
0100
1001
0000
,
1000
0100
0010
0000
0100
0010
0001
0000
,
0101
0000
1000
0100
0000
0010
0001
0000
0100
0000
0010
0000
1000
0000
0000
0000
,
1010
0000
0001
0100
0000
0010
1000
0000
0100
0000
0001
0000
1000
0000
0000
0000
,
0010
0100
0001
0000
0010
1000
1001
0000
;

//---------------dance-single - ----------------
#NOTES:
     dance-single:
     :
     Challenge:
     9:
     0.648,0.605,0.392,0.147,0.328: // measure 1
0000
0000
0000
0000
,  // measure 2
0000
0000
0000
0000
,  // measure 3
1000
0000
0010
0000
0001
0000
1000
0100
0000
0010
0001
0000
1001
0000
0000
0000
,  // measure 4
0001
0000
0100
0000
1000
0000
0001
0010
0000
0100
1000
0000
1001
0000
0000
0000
,  // measure 5
0001
0000
1000
0001
0100
0000
1000
0000
1010
0000
0000
0000
0110
0000
0000
0000
,  // measure 6
0001
0000
1000
0001
0100
0000
0010
0000
0000
0000
1000
0001
1000
0001
1000
0000
,  // measure 7
0010
0000
0100
0000
1100
0000
0010
0001
0100
0000
0100
0000
0101
0000
0010
1000
,  // measure 8
0001
1000
0001
0100
1000
0001
0000
0010
,  // measure 9
1000
0000
0001
0000
1001
0000
0010
0100
0010
0000
0001
1000
0001
0000
0010
0000
,  // measure 10
0100
0000
0001
0000
0101
0000
0010
1000
0100
0000
0010
0001
0100
0000
0000
0000
,  // measure 11
0010
1000
0001
0100
0010
1000
0001
1000
,  // measure 12
0001
1000
0010
0200
0000
0001
0301
0000
,  // measure 13
0010
0000
1000
0000
0001
0000
1000
0001
0100
0000
0001
1000
0100
0000
0010
0000
,  // measure 14
0100
1000
0001
0200
0000
0001
0301
0000
,  // measure 15
0100
1000
0010
1000
0010
0100
0001
0100
,  // measure 16
0001
0010
0100
2000
0000
0100
3001
0000
,  // measure 17
1001
0000
1100
0000
0011
0110
1100
0000
,  // measure 18
0001
0000
0100
0000
0001
0000
0010
0001
0100
0010
1000
0000
1001
0000
0000
0000
,  // measure 19
1000
0001
1000
0010
0100
0010
0001
0000
,  // measure 20
0101
0000
1000
0010
0000
0100
0001
0000
0010
0000
1000
0001
0100
0000
0000
0000
,  // measure 21
0100
0000
0010
0000
1000
0000
0100
0000
1001
0000
0100
0001
0001
0000
0000
0000
,  // measure 22
0100
0000
0010
0000
0001
0000
0100
0000
0110
0000
0001
1000
1000
0000
0000
0000
,  // measure 23
1000
0100
1001
0010
0110
0001
1010
0000
,  // measure 24
0100
1000
0000
0001
0000
1000
0100
0000
0010
0000
0001
0010
0100
0000
0000
0000
,  // measure 25
1000
0100
0001
0010
1000
0010
0001
0200
,  // measure 26
0000
0301
1000
0020
0000
0130
0110
0000
,  // measure 27
2000
0000
0000
0000
3020
0000
0000
0000
1030
0000
0001
0010
1000
0000
0000
0000
,  // measure 28
0200
0000
0000
0000
0302
0000
0000
0000
1003
0001
0100
0010
1000
0000
0000
0000
,  // measure 29
0020
0000
0000
0000
2030
0000
0000
0000
3100
0000
0010
1000
0001
0000
0000
0000
,  // measure 30
0200
0000
0000
0000
0320
0000
0000
0000
0031
0000
1000
0100
0010
0000
0000
0000
,  // measure 31
0001
0100
0010
1000
0010
0100
1001
0110
,  // measure 32
1000
0001
0100
0010
1000
0001
0110
1001
,  // measure 33
0100
1000
0010
0100
0001
1000
1100
0101
,  // measure 34
0001
1000
1010
0011
1000
0001
0011
1001
,  // measure 35
1000
0001
0100
0000
0001
1000
0010
0000
,  // measure 36
0010
0000
0001
0010
0000
1000
0010
0000
0100
0000
0001
1000
0001
0000
0000
0000
,  // measure 37
1000
0000
0001
1000
0100
0000
0010
0001
0100
0000
0010
1000
0100
0000
0000
0000
,  // measure 38
0100
0000
0010
0001
1000
0000
0100
0001
1000
0000
0010
1000
0010
0000
0000
0000
,  // measure 39
1000
0010
0100
0000
0010
0100
0001
0000
,  // measure 40
0100
0001
0000
1000
0000
0010
0100
0000
0001
0000
1000
0001
0100
0000
0000
0000
,  // measure 41
1000
0000
0100
0010
0001
0000
0100
0010
1000
0000
0010
1000
0001
0000
2000
0000
,  // measure 42
0000
0000
3010
0000
0001
0000
0100
0000
0000
0000
0001
0001
1000
0000
0000
0000
,  // measure 43
0100
0001
1000
0010
0010
1000
0001
0000
,  // measure 44
1000
0000
0001
0100
0000
0010
0100
0000
1000
0000
0010
0001
1000
0000
0000
0000
,  // measure 45
0010
0000
0001
0100
0001
0000
0010
1000
0010
0000
0100
0000
1001
0000
0000
0000
,  // measure 46
0010
0000
1000
0100
1000
0000
0001
0100
0001
0000
0100
0000
1001
0000
0000
0000
,  // measure 47
0100
0010
0001
1000
0010
1000
0100
0000
,  // measure 48
0010
1000
0000
0001
0000
1000
0100
0000
0010
0000
0100
0000
0010
0000
0000
0000
,  // measure 49
1000
0000
0001
0010
0100
0000
1000
0010
0100
0000
0001
0000
0100
0000
0200
0000
,  // measure 50
0000
0301
1000
0010
0000
0100
1001
0000
,  // measure 51
1000
0000
0100
0000
0010
0000
0100
0010
0001
0000
0010
0000
1001
0000
0000
0000
,  // measure 52
1010
0000
0001
0100
0000
0010
1000
0000
0010
0000
0100
0000
1001
0000
0000
0000
,  // measure 53
0011
0000
1000
0100
0000
0010
0001
0000
0100
0000
0001
0000
1001
0000
0000
0000
,  // measure 54
0010
0000
0100
0000
0001
0000
0100
1000
0010
0000
1000
0000
1001
0000
0000
0000
;
