#TITLE:Rewind;
#SUBTITLE:;
#ARTIST:Craig David;
#TITLETRANSLIT:;
#SUBTITLETRANSLIT:;
#ARTISTTRANSLIT:;
#CREDIT:;
#BANNER:;
#BACKGROUND:Rewind.bg.JPG;
#LYRICSPATH:;
#CDTITLE:;
#MUSIC:Rewind (Short).mp3;
#OFFSET:-0.507;
#SAMPLESTART:46.600;
#SAMPLELENGTH:12.000;
#SELECTABLE:YES;
#BPMS:0.000=130.000;
#STOPS:;
#BGCHANGES:;

//---------------dance-single - ----------------
#NOTES:
     dance-single:
     :
     Easy:
     3:
     0.250,0.240,0.120,0.020,0.000:
0000
0000
0000
0000
,
1000
0000
0001
0000
,
0100
0000
0010
0010
,
0001
0000
1000
0000
,
0100
0000
0010
0010
,
0100
0000
0100
0000
,
0010
0000
0001
1000
,
0100
0000
0001
0001
,
1000
0100
0010
0000
,
1001
0000
0110
0000
,
0001
1000
0001
0000
,
0010
0000
0010
0000
,
0001
0001
1000
1000
,
0100
0010
0001
1000
,
0100
0010
1001
0000
,
1000
0000
0001
0000
,
1000
0100
0001
0100
,
0010
0000
0010
0000
,
1000
0001
0100
0000
,
0100
0000
0100
0000
,
0010
0001
1000
0100
,
0001
0001
0100
0000
,
1000
0100
0010
0001
,
1000
1000
0100
0000
,
0001
0010
0100
1000
,
0100
0100
0010
0000
,
0010
0001
1000
0100
,
0010
0010
0100
0000
,
2002
0000
0000
3003
,
1000
0010
0001
0010
,
1000
0100
0001
0100
,
0001
0001
1000
1000
,
0010
0100
0010
0100
,
1001
0000
0110
0000
,
0010
0010
0100
0100
,
0001
0000
1000
0000
,
0010
0001
0100
1000
,
1001
0000
0100
0000
,
0010
0100
0110
0000
,
0001
0010
0100
0000
,
1000
0010
0100
0000
,
0010
0001
1000
0001
,
0100
1000
0001
1000
,
0001
0000
0001
0000
,
0010
1000
0100
0001
,
1000
0000
1000
0000
,
0100
0100
0100
1001
,
0001
0000
0001
0000
,
0010
0010
0010
1001
,
0100
0000
0100
0000
,
1000
0001
0100
0010
,
1001
0000
0010
0000
,
0001
0010
0100
1000
,
0001
1000
0110
0000
;

//---------------dance-single - ----------------
#NOTES:
     dance-single:
     :
     Medium:
     5:
     0.318,0.374,0.150,0.110,0.000:
0000
0000
0000
0000
,
1000
0000
0100
0000
,
0010
0000
0100
0000
0001
0010
1000
0000
,
0001
0000
0100
0000
,
0010
0000
0001
0000
1000
0100
0001
0000
,
1000
0000
0100
0000
,
0010
0000
0100
0000
0010
0100
0100
0000
,
0001
0000
0100
0000
,
0001
0000
0100
0000
0010
1000
1000
0000
,
1001
0100
0110
0001
,
1000
0100
0001
0010
,
0010
0000
1000
0001
,
0100
0000
1000
0001
0100
0000
1001
0000
,
1000
0100
0001
0100
,
0010
0010
0110
0000
,
0001
0100
1000
0000
1000
0000
0001
0000
,
0010
0000
0100
0000
0010
1000
0010
0000
,
0001
0010
0100
1000
,
1000
0010
0100
0001
,
0001
0100
0100
0001
,
1000
0100
0010
0110
,
2000
3200
0301
0000
,
0010
0000
0001
0000
1000
0001
1000
0000
,
0002
0023
1030
0000
,
0001
0000
0100
0000
0001
1000
0001
0000
,
0200
0302
1003
0000
,
0100
0000
0001
0000
0001
1000
0001
0000
,
0200
0302
1003
0000
,
2002
0000
0000
3003
,
1000
0100
0001
0100
,
0010
1000
0010
0001
,
0100
0000
0010
0000
,
1001
0000
0110
0000
0001
0010
0100
0000
,
1001
0100
0010
1001
,
0100
0000
0001
0000
,
0001
0000
1000
0000
,
0100
0010
1001
0000
,
0001
1000
0100
1001
,
0010
0100
0010
0000
1001
0000
0000
0000
,
0001
0100
1000
0000
1000
0000
0001
0000
,
0010
0000
0100
0000
,
0001
0010
0100
1000
,
1000
0010
0100
0001
,
0100
0000
0100
0000
,
0001
0000
1000
0000
0001
1000
0100
0000
,
1000
0100
0001
0100
,
0020
0000
0130
0000
0001
1000
0001
0000
,
0010
0010
0001
1000
,
0010
0100
0001
1000
,
0010
0100
0001
1001
,
0001
0000
0100
0000
0001
0010
1000
0000
,
0100
0100
0010
0000
,
0010
0001
0100
1000
,
0001
0110
1000
0000
;

//---------------dance-single - ----------------
#NOTES:
     dance-single:
     :
     Hard:
     7:
     0.468,0.427,0.299,0.190,0.000:
0000
0000
0000
0000
,
1000
0100
0001
0000
1000
0010
0001
0000
,
0001
0100
1000
0000
0001
0010
1000
0000
,
0001
0001
0100
0000
1000
1000
0100
0000
,
0010
0000
0110
0000
0001
1000
0100
0000
,
0010
0000
0100
0000
0001
1000
0100
0000
,
0010
1000
0100
0001
0000
0010
0100
1000
,
0001
0100
0000
0010
0100
0010
1000
0000
,
0101
0000
0011
0000
0010
1000
0001
0000
,
0010
0001
0011
0000
1000
0100
1100
0000
,
1000
0001
0100
0010
0000
0100
1001
0000
,
0010
1001
0000
0100
0001
1000
0100
0010
,
0100
1000
0001
0100
1001
0000
0110
0000
,
0002
0000
1003
0000
0010
1000
0001
0000
,
0100
0001
1000
0000
2002
0000
3003
0000
,
1000
0100
1000
0000
0010
0001
0010
0000
,
0100
0001
1000
0010
0100
0001
1000
0000
,
0010
1000
0001
0000
0100
0010
0110
0000
,
0001
1000
0010
0000
0001
1000
1001
0000
,
1000
0100
0010
0000
0001
0100
0010
0000
,
0001
1000
0100
0110
,
2000
3200
0320
0030
,
0100
0010
0100
0000
0101
0000
1100
0000
,
0002
0023
0230
0300
,
0001
0100
0001
0000
1000
0001
0100
0000
,
0020
0230
0302
0003
,
1000
0000
0001
0000
0001
1000
0001
0000
,
0002
0203
0320
0030
,
2002
0000
0000
3003
,
0100
0000
0001
0100
0010
1000
0001
0000
,
0100
0010
1000
0100
0000
0000
0010
0001
,
1000
0100
0000
0000
0001
0100
0010
0000
,
0010
1000
0100
1000
0000
0000
0001
0100
,
1000
0000
1000
0010
0001
0000
0100
0000
,
0001
0100
0100
0001
0000
1000
0001
0000
,
0010
0100
0000
0010
0100
0100
0001
1000
,
0100
0010
0100
0001
1000
0000
1001
0000
,
1000
0000
1100
0000
0001
0100
0100
0000
,
0010
1000
1000
0000
2002
0000
3003
0000
,
1000
0000
0100
0000
0010
1000
0100
0000
,
0010
0001
0010
1000
0010
0001
0010
0000
,
1000
1100
0010
0011
,
0100
0110
0001
1001
,
1000
0100
1000
0000
0100
0001
0100
0000
,
0001
0010
0001
0000
0010
1000
0010
0000
,
0010
1000
0100
0000
0010
0001
0100
0000
,
0100
1000
0010
0000
0100
0001
0010
0000
,
1000
0000
0100
0000
0001
0001
0001
0000
,
0100
0000
0110
0000
0001
1000
0100
0000
,
0001
1000
0100
0000
1000
0001
0100
0000
,
0001
1000
0010
0000
1000
0001
0010
0000
,
0001
0000
0101
0000
0010
1000
1000
0000
,
0110
0000
1001
0000
0010
0100
0001
0000
,
1100
0101
0110
0000
;

//---------------dance-single - ----------------
#NOTES:
     dance-single:
     :
     Beginner:
     1:
     0.130,0.160,0.020,0.000,0.000:
0000
0000
0000
0000
,
1000
0000
0000
0000
,
0001
0000
0000
0000
,
0100
0000
0000
0000
,
0010
0000
0000
0000
,
0100
0000
0100
0000
,
0001
0000
0000
0000
,
1000
0000
0000
0000
,
0010
0000
0000
0000
,
0010
0000
0100
0000
,
0001
0000
1000
0000
,
0010
0000
0000
0000
,
0001
0001
0001
0000
,
1000
0000
0100
0000
,
1000
0000
1001
0000
,
0001
0000
0100
0000
,
0001
0000
0000
0000
,
0010
0000
0000
0000
,
0100
0000
0000
0000
,
0001
0000
0000
0000
,
1000
0000
0000
0000
,
0001
0000
0001
0000
,
1000
0000
0100
0000
,
1000
0000
1000
0000
,
0001
0000
0010
0000
,
0100
0000
0100
0000
,
0010
0000
0001
0000
,
0010
0000
0010
0000
,
1001
0000
0000
0000
,
1000
0000
0000
0000
,
0001
0000
0000
0000
,
1000
1000
0000
0000
,
0001
0001
0000
0000
,
0010
0000
0100
0000
,
0001
0000
1000
0000
,
0001
0000
0000
0000
,
0100
0100
0100
0000
,
0001
0000
0000
0000
,
1000
0000
0100
0000
,
0010
0010
0000
0000
,
0100
0100
0000
0000
,
0001
0000
0000
0000
,
1000
0000
0000
0000
,
0100
0000
0000
0000
,
0010
0000
0000
0000
,
1000
0000
0001
0000
,
1000
0000
0001
0001
,
0100
0000
0010
0000
,
0100
0000
0010
0010
,
0001
0000
0100
0000
,
1000
0000
0010
0000
,
0010
0000
1000
0000
,
0001
0000
0100
0000
,
0100
0100
0100
0000
;
