#TITLE:Rainbow Flyer (In the Dream Mix);
#SUBTITLE:;
#ARTIST:dj TAKA feat. SANA (remixed by Sota Fujimori);
#TITLETRANSLIT:;
#SUBTITLETRANSLIT:;
#ARTISTTRANSLIT:;
#CREDIT:;
#BANNER:Rainbow Flyer (In the Dream Mix)-bn.PNG;
#BACKGROUND:Rainbow Flyer (In the Dream Mix)-bg.PNG;
#LYRICSPATH:;
#CDTITLE:./CDTitles/Beatmania IIDX.png;
#MUSIC:Rainbow FlYer -In the Dream Mix-.mp3;
#OFFSET:-6.580;
#SAMPLESTART:39.341;
#SAMPLELENGTH:11.980;
#SELECTABLE:YES;
#DISPLAYBPM:148.000;
#BPMS:0.000=147.900;
#STOPS:144.000=2.800
;
#BGCHANGES:;

//---------------dance-single - ----------------
#NOTES:
     dance-single:
     :
     Beginner:
     1:
     0.122,0.166,0.018,0.000,0.000: // measure 1
0010
0000
0000
0000
,  // measure 2
0001
0000
0000
0000
,  // measure 3
1000
0000
0000
0000
,  // measure 4
0001
0000
0001
0000
,  // measure 5
1000
0000
0000
0000
,  // measure 6
0010
0000
0000
0000
,  // measure 7
0100
0000
0000
0000
,  // measure 8
0010
0000
0000
0000
,  // measure 9
1000
0000
0000
0000
,  // measure 10
0001
0000
0000
0000
,  // measure 11
0100
0000
0000
0000
,  // measure 12
0010
0000
0000
0000
,  // measure 13
1000
0000
1000
0000
,  // measure 14
0100
0000
0000
0000
,  // measure 15
0001
0000
0001
0000
,  // measure 16
0100
0100
0100
0000
,  // measure 17
1000
0000
1000
0000
,  // measure 18
0100
0000
0000
0000
,  // measure 19
0010
0000
0010
0000
,  // measure 20
0001
0000
0000
0000
,  // measure 21
1000
0000
1000
0000
,  // measure 22
0001
0000
0001
0000
,  // measure 23
0100
0000
0100
0000
,  // measure 24
0010
0000
0000
0000
,  // measure 25
0010
0000
0010
0000
,  // measure 26
1000
0000
1000
0000
,  // measure 27
0001
0000
0001
0000
,  // measure 28
0100
0000
0000
0000
,  // measure 29
0001
0000
0001
0000
,  // measure 30
1000
0000
1000
0000
,  // measure 31
0100
0000
0100
0000
,  // measure 32
0010
0000
0010
0000
,  // measure 33
1000
0000
0000
0000
,  // measure 34
0010
0000
0000
0000
,  // measure 35
0100
0000
0000
0000
,  // measure 36
0001
0000
0000
0000
,  // measure 37
1001
0010
0000
0000
,  // measure 38
0000
0100
0000
0000
,  // measure 39
0010
0010
0000
0000
,  // measure 40
0000
1000
0000
0000
,  // measure 41
0001
0001
0000
0000
,  // measure 42
0000
1000
0000
0000
,  // measure 43
0100
0100
0000
0000
,  // measure 44
0000
1000
0000
0001
,  // measure 45
0001
0000
0010
0000
,  // measure 46
0010
0000
0010
0000
,  // measure 47
0000
0000
1000
0000
,  // measure 48
1000
0000
0001
0000
,  // measure 49
0000
0000
0001
0000
,  // measure 50
0001
0000
1000
0000
,  // measure 51
0000
0000
0010
0000
,  // measure 52
0010
0000
0100
0000
,  // measure 53
0100
0001
0000
0000
,  // measure 54
0000
1000
0000
0000
,  // measure 55
0000
0100
0000
0000
,  // measure 56
0000
0010
0000
0000
,  // measure 57
0000
1000
0000
1000
,  // measure 58
0000
1000
0000
0000
,  // measure 59
0000
0001
0000
0001
,  // measure 60
0000
0001
0000
0000
,  // measure 61
0100
0000
0000
1001
;

//---------------dance-single - ----------------
#NOTES:
     dance-single:
     :
     Medium:
     5:
     0.362,0.394,0.291,0.264,0.000:
2000
0000
0000
3001
,
0002
0000
0000
0103
,
0200
0000
0000
0310
,
0020
0000
0000
1030
,
0101
0000
1010
0000
,
0100
0100
0010
0010
,
0011
0000
1100
0000
,
0001
0001
1000
1000
,
0110
0000
1001
0000
,
0001
1000
0010
0100
,
1001
0000
0110
0000
,
0010
0100
0001
1000
,
0001
0000
0100
0000
,
0010
1000
1100
0001
,
0100
0000
0001
0000
,
0010
0001
1010
1000
,
0001
0000
0100
0000
,
0010
1000
0001
0110
,
0001
0000
0010
0000
,
1000
0100
0010
0101
,
1000
0100
2000
3100
,
0001
0100
0002
0103
,
0010
0100
0200
1300
,
0100
0010
0020
0031
,
1000
0000
0001
0000
1000
0001
1000
0000
,
0001
0000
1000
0000
0001
1000
0001
0000
,
0100
0000
0020
0000
,
0100
0130
1000
0001
,
0001
0010
0100
1100
,
1000
0010
0100
0101
,
0001
1000
0010
0110
,
0100
0010
1000
1001
,
1000
0000
1001
0000
,
0001
1000
0110
0000
,
0100
0010
0100
0010
,
0001
0100
0001
0000
0010
1000
0010
0000
,
1001
2000
3100
0020
,
0031
0000
0200
0000
0310
0000
0001
0100
,
1000
0002
0103
0020
,
1030
0000
0200
0000
0301
0000
0010
1000
,
0001
0200
0301
2000
,
3100
0000
0020
0000
0130
0000
0010
0001
,
0100
0002
1003
0200
,
0310
0000
2000
0000
3001
0000
1000
0100
,
0001
1100
0000
1001
,
0000
0000
0101
0000
0000
0000
0010
0100
,
0010
0011
0000
1100
,
0000
0000
0110
0000
0000
0000
0001
1000
,
0001
2000
0000
3020
,
0000
0000
0230
0000
0000
0000
0301
1000
,
0001
0020
0000
2030
,
0000
0000
3002
0000
0000
0000
0013
0100
,
0010
1000
0100
0010
,
0001
0001
0010
0100
,
1000
0100
0100
0000
0000
0000
0001
0000
,
1000
0010
0100
0110
,
1001
1000
0001
1100
,
0101
1000
0001
0011
,
1010
1000
0001
1000
,
0001
0010
0100
0010
,
0100
0000
0001
0010
0100
1000
2002
0000
,
0000
0000
0000
3003
;

//---------------dance-single - ----------------
#NOTES:
     dance-single:
     :
     Hard:
     7:
     0.474,0.478,0.082,0.273,0.055:
2000
0000
0000
3000
,
0020
0000
0000
0030
,
0200
0000
0000
0300
,
0002
0000
0000
0003
,
1000
0001
0100
0000
0010
1000
0001
0000
,
0010
1000
0001
0100
0010
0000
0010
0000
,
0001
0100
0001
0000
0100
1000
0100
0000
,
0010
1000
0001
0100
1000
0000
1000
0000
,
0100
0010
0001
0000
0100
0010
0001
0000
,
0001
1000
0001
1000
0100
0000
0100
0000
,
0010
0100
1000
0000
0010
0100
1000
0000
,
0010
0100
0010
0100
0001
0000
0001
0000
,
1000
0100
0001
0000
1000
0010
0001
0000
,
1000
0100
0001
0100
1000
0010
0001
0000
,
0001
0010
1000
0000
0001
0100
1000
0000
,
0001
0010
1000
0010
0001
0100
1000
0000
,
0010
0100
0010
0000
1000
0001
1000
0000
,
0010
1000
0100
0010
0001
0000
0100
0000
,
0010
0001
0100
0000
0100
0001
0010
0000
,
1000
0001
0100
0010
0001
0000
1000
0000
,
1000
0000
0001
0000
0100
1000
0100
0000
,
0001
0000
1000
0000
0010
0001
0010
0000
,
0100
0000
0001
0000
0010
1000
0010
0000
,
0100
0001
0010
0000
1000
0001
0100
0000
,
1000
0100
0020
0000
0031
1000
0200
0000
,
1300
0001
2000
0000
3100
0010
0002
0000
,
0103
0000
0001
0001
0200
0000
0000
0000
,
0310
0100
0001
1000
,
1000
0100
1000
0100
0010
0001
0010
0001
,
1000
0001
1000
0001
0100
0010
1001
0000
,
0001
0100
0001
0100
0010
1000
0010
1000
,
0001
0100
1000
0100
0010
0001
0110
0000
,
0100
0010
0100
0010
1000
0100
1000
0100
,
0010
0100
0001
1000
0010
0100
0011
0000
,
2000
3100
0002
0103
,
0020
0130
2000
3001
,
1001
0000
0000
0000
1000
0000
0100
1000
0000
0000
0000
0000
0001
0000
0100
0001
,
0000
0000
0000
0000
0010
0000
0100
0010
0000
0000
0000
0000
0010
0000
1000
0000
,
0101
0000
0000
0000
0001
0000
0100
0010
0000
0000
0000
0000
1000
0000
0100
0010
,
0000
0000
0000
0000
0001
0000
1000
0100
0000
0000
0000
0000
0010
0000
0001
0000
,
1100
0000
0000
0000
1000
0000
0001
1000
0000
0000
0000
0000
0001
0000
1000
0001
,
0000
0000
0000
0000
0100
0000
0001
0010
0000
0000
0000
0000
0001
0000
0100
0000
,
1010
0000
0000
0000
0100
0000
0010
0100
0000
0000
0000
0000
0100
0000
0010
0100
,
0000
0000
0000
0000
0001
0000
0100
0010
0000
0000
0000
0000
0100
0000
1000
0000
,
0011
2000
3001
0200
,
0310
0000
0020
0000
1030
0000
0001
0100
,
0010
0002
0103
0020
,
1030
0000
0200
0000
0310
0000
0100
0010
,
1000
0000
0010
1000
0002
0000
0103
0010
,
2000
0000
3010
0001
0200
0000
0301
1000
,
0020
0000
1030
0001
0100
0000
0001
1000
,
0010
0000
0100
0001
0010
0000
0100
1000
,
0010
2000
0000
3200
,
0000
0320
0000
0032
,
0000
0100
0203
0000
0000
0300
1000
0100
,
0010
0001
1000
0000
1000
0000
0010
0100
,
0001
0000
0001
0000
1000
0000
0001
1000
,
0010
0000
0001
0000
1000
0000
1000
0010
,
0100
0000
0010
0000
0100
0000
1000
0001
,
0100
0000
0100
0000
0101
0000
0100
1000
,
0001
0100
0002
2000
,
0000
0000
0000
3003
;

//---------------dance-single - ----------------
#NOTES:
     dance-single:
     :
     Easy:
     3:
     0.262,0.309,0.173,0.118,0.000:
0020
0000
0000
0030
,
0200
0000
0000
0300
,
0002
0000
0000
0003
,
2000
0000
0000
3000
,
0001
0000
1000
0000
,
0100
0100
0010
0000
,
1000
0000
0001
0000
,
1000
1000
0001
0000
,
0010
0000
1001
0000
,
0001
1000
0010
0000
,
1000
0000
0110
0000
,
0010
0100
0001
0000
,
0001
0000
0100
0000
,
0010
1000
0100
0000
,
0100
0000
0001
0000
,
0010
0001
0100
0000
,
0001
0000
0100
0000
,
0010
1000
0001
0000
,
0001
0000
1000
0000
,
1000
0010
0100
0000
,
1000
0001
1000
0001
,
0010
0100
0010
0100
,
0010
1000
0010
1000
,
0100
0001
0100
0001
,
1000
0001
1000
1001
,
0001
1000
0001
1001
,
0000
0100
0001
0000
,
0100
0100
1000
0001
,
0001
0000
0100
0000
,
1000
0010
0100
0000
,
0001
0000
0010
0000
,
0100
0010
1000
0000
,
1000
0000
0100
0000
,
0001
0000
0010
0000
,
1001
0000
0110
0000
,
0010
0001
0100
1000
,
0010
1000
0000
0001
,
0000
0100
0000
0001
,
1001
0010
0000
0100
,
0000
0001
0000
1000
,
1001
0002
0003
2000
,
3000
0200
0300
0010
,
0110
0002
0003
2000
,
3000
0020
0030
0100
,
0110
0001
0000
0110
,
0000
1000
0000
0010
,
0010
0100
0000
1001
,
0000
0010
0000
0001
,
0001
0110
0000
1001
,
0000
0110
0000
0010
,
0100
0110
0000
1001
,
0000
0110
0000
0010
,
0100
1000
0001
0010
,
0100
0010
0100
1000
,
0001
0000
2000
0000
0000
3000
0100
0000
,
1000
0010
0100
0001
,
1000
0010
0100
1000
,
1000
0001
0001
0010
,
0010
0100
0100
0010
,
0001
0100
1000
0010
,
1000
0100
0001
2002
,
0000
0000
0000
3003
;
