#TITLE:Pray;
#SUBTITLE:;
#ARTIST:SOM2;
#TITLETRANSLIT:;
#SUBTITLETRANSLIT:;
#ARTISTTRANSLIT:;
#CREDIT:;
#BANNER:pray Ban.png;
#BACKGROUND:Pray bg.png;
#LYRICSPATH:;
#CDTITLE:Thanh Cd title.png;
#MUSIC:Pray.mp3;
#OFFSET:-0.614;
#SAMPLESTART:43.760;
#SAMPLELENGTH:14.960;
#SELECTABLE:YES;
#BPMS:0.000=122.040;
#STOPS:;
#BGCHANGES:0.000=Pray.avi=1.000=1=1=0
,200.000=Pray bg.png=1.000=0=0=1
;

//---------------dance-single - ----------------
#NOTES:
     dance-single:
     :
     Easy:
     3:
     0.215,0.268,0.068,0.049,0.000:
0000
0000
0000
0000
,
0000
0000
0000
0000
,
0000
0000
0000
0000
,
0000
0000
0000
0000
,
1001
0000
0000
0010
,
0000
0100
0000
0001
,
0200
0000
0000
0300
,
0001
1000
0100
0000
,
0010
0100
0001
1000
,
1000
0010
0100
0000
,
0001
0100
0010
1000
,
0000
1000
0100
0000
,
1000
1000
0001
0001
,
0100
0100
0100
0000
,
0200
0000
0300
1000
,
0002
0000
0003
0000
,
0010
0100
0010
0100
,
0001
1000
0001
0000
,
0100
0000
0010
0000
,
0010
0100
0001
0000
,
0010
1000
0100
0001
,
0110
0001
0100
1001
,
0010
0100
1000
0000
,
0010
0100
0001
0000
,
0001
0001
1000
0000
,
1000
1000
0001
0000
,
0100
0001
0010
0000
,
0100
1000
0010
0000
,
0010
0010
0100
0000
,
0100
0100
0010
0000
,
0002
0000
1000
1003
,
0000
0100
1000
0001
,
2000
0000
0001
3001
,
1001
0000
0000
0010
0000
0000
0110
0000
,
0001
1000
0010
0100
,
0010
1000
0001
0000
,
0001
0001
0010
0010
,
0100
0100
1000
0000
,
1000
0010
0001
0010
,
1000
1000
0001
0000
,
0100
0010
1000
0001
,
0110
1000
0010
1001
,
0010
0100
0001
0000
,
0010
0100
1000
0000
,
1000
0001
1000
0000
,
0010
0100
0010
0000
,
1000
0010
0001
0000
,
0001
0100
1000
0000
,
0001
0010
1000
0000
,
1000
0100
0001
0100
,
1000
0000
0000
0000
;

//---------------dance-single - ----------------
#NOTES:
     dance-single:
     :
     Hard:
     8:
     0.461,0.512,0.400,0.059,0.137:
0000
0000
0000
0000
,
0000
0000
0000
0000
,
0000
0000
0000
0000
,
0000
0000
0000
0000
0000
0000
0000
0010
,
1100
0000
0000
0000
0101
0000
0000
0000
0010
0000
1000
0001
1000
0000
0100
0000
,
0000
0001
0000
1000
0100
0010
0001
0000
,
0110
0000
1001
0000
0010
0000
0100
1000
,
0000
0000
0001
0000
0010
0000
0100
0000
1000
0000
1000
0001
0000
0001
1000
0000
,
0100
0000
1001
0000
0010
0100
0001
1000
,
0100
1000
0100
0000
0010
0100
0001
0000
,
0001
0000
0100
0000
0110
0000
0001
1000
,
0000
0000
1000
0000
0010
0000
1000
0000
0100
0000
0001
0010
0000
0100
1000
0000
,
0001
1000
0010
0100
0001
0001
0010
0100
,
0100
1000
0001
0100
0001
1000
0001
0010
,
0200
0000
0010
0000
0301
0010
0000
0100
,
0002
0000
0100
0000
0103
1000
0100
0010
,
0001
0000
0000
0110
0000
0000
1000
0000
0001
0000
0000
1100
0000
0000
0100
0000
,
0010
0000
0000
0011
0000
0000
0210
0000
0000
0000
0000
0000
0300
0000
1000
0000
,
0100
0000
0000
0000
0000
0000
0010
0000
0001
0000
0000
0100
0000
0000
0010
0000
,
1000
0000
0000
0001
0000
0000
1000
0000
0010
0000
0100
0000
0010
0000
0010
0000
,
0001
0000
0000
1000
0000
0000
0100
0000
0010
0000
0000
0001
0000
0000
0100
0000
,
0101
1010
1100
0011
,
0100
0001
1000
0001
0000
0010
0100
0010
,
0000
0001
0100
0001
0000
0100
1000
1100
,
0000
0001
1000
0100
0010
0000
0010
1000
,
0000
1000
0001
0100
0000
1001
0000
0110
,
0000
0001
0100
0010
0000
0010
1000
0100
,
0000
1000
0001
1001
0000
0001
0010
0011
,
0000
0001
1000
0100
0010
0000
1000
0010
,
0000
0010
1000
0001
0100
0010
0100
0001
,
0110
0000
0001
0000
1000
0000
0001
0100
0002
0000
0000
0000
1003
0000
0000
0000
,
0100
0000
0001
0000
1000
0000
0001
0100
0001
0000
0010
1000
0010
0000
0000
0000
,
0001
0000
1000
0000
0001
0000
0100
1000
0200
0000
0000
0000
0310
0000
0000
0000
,
1100
1100
0000
0000
0000
0000
0011
0011
0000
0000
0000
0000
1001
1001
0000
0000
,
0100
0000
0010
0001
0010
1000
0010
0100
,
0010
0000
0000
0011
0000
0000
1000
0000
0100
0000
1000
0000
0010
0000
1000
0000
,
0001
0000
0000
0101
0000
0000
0100
0000
0010
0000
0000
1001
0000
0000
0010
0000
,
0100
0000
0000
1100
0000
0000
0100
0000
0010
0000
0010
0000
0010
0000
0000
0000
,
1000
0000
0000
0001
0000
0000
0010
0000
0100
0000
0000
1000
0000
0000
1000
0000
,
0001
0000
0000
0100
0000
0000
0002
0000
0000
0000
0000
0000
0003
0000
1000
0000
,
1010
0000
0000
0001
0000
0000
1000
0000
1001
0000
0000
0010
0000
0000
0100
0000
,
1001
0101
1001
1100
,
0010
1000
0100
1000
0000
0010
0001
0010
,
0000
0001
1000
0001
0000
0100
0001
0101
,
0000
0001
1000
0010
0100
0000
0100
0001
,
0000
0001
1000
0010
0000
1001
0000
0110
,
0000
1000
1000
0010
0000
0001
0001
0100
,
0000
1000
0001
0110
0000
0001
0010
1000
,
0000
1000
0010
0001
0010
0000
0100
0000
,
0100
0010
1000
0001
0100
0010
0100
1000
,
0101
0000
0000
0000
;

//---------------dance-single - ----------------
#NOTES:
     dance-single:
     :
     Medium:
     5:
     0.318,0.317,0.137,0.088,0.015:
0000
0000
0000
0000
,
0000
0000
0000
0000
,
0000
0000
0000
0000
,
0000
0000
0000
0000
,
1001
0100
0010
0010
,
0101
0000
1100
0000
0010
0100
0010
0000
,
2000
0000
0000
0000
3002
0000
0000
0003
,
0010
0000
0100
0000
0001
0100
0001
0000
,
1000
1000
0010
0001
,
0001
0001
0100
1000
,
0001
0000
1000
0000
0010
0100
0010
0000
,
0001
0000
1000
0000
0001
1000
0001
0000
,
0002
0103
2000
3100
,
0010
0000
0100
0000
0010
0001
0100
0000
,
0002
1000
0100
0103
,
2000
0001
0001
3100
,
0001
0000
0001
0000
1000
1000
1000
0000
,
0100
0000
0100
0000
0010
0010
0010
0000
,
0001
0000
1100
0000
,
1000
0000
0011
0000
,
0010
0001
0100
1000
,
1000
0100
0001
0000
0001
0100
1000
0000
,
0001
0000
0001
0000
0010
1000
0010
0000
,
1000
0000
1000
0000
0001
0100
0001
0000
,
0010
0100
0010
0110
,
0001
1000
0001
1001
,
0010
0000
0010
0000
0100
1000
0100
0000
,
0001
0000
0001
0000
0010
0001
0010
0000
,
1000
0100
1000
1100
,
0001
0100
0001
0101
,
0001
0000
0001
0000
0010
1000
0100
0000
,
1000
0000
1000
0000
0010
0001
0100
0000
,
0010
1000
0001
0100
,
1000
1000
0000
0000
0000
0000
0001
0001
0000
0000
0000
0000
0100
0100
0000
0000
,
0010
0000
0100
0000
1000
0010
0001
0000
,
0100
0000
0010
0000
0001
0010
1000
0000
,
0001
0001
1000
1000
,
0010
0000
0100
0000
0001
0001
1000
0000
,
0002
1003
2000
3001
,
0020
0130
0100
0100
,
0001
0100
1000
0100
,
1000
0001
0100
0000
0001
1000
0010
0000
,
0001
0000
0001
0000
0010
1000
0010
0000
,
1000
0000
1000
0000
0001
0100
0001
0000
,
0010
0100
0010
0110
,
0001
1000
0001
1001
,
0010
0000
0010
0000
0100
1000
0100
0000
,
0001
0000
0001
0000
0010
0001
0010
0000
,
1000
0100
1000
1100
,
0001
0100
0001
0101
,
1001
0000
0000
0000
;

//---------------dance-single - ----------------
#NOTES:
     dance-single:
     :
     Beginner:
     1:
     0.103,0.171,0.039,0.000,0.000:
0000
0000
0000
0000
,
0000
0000
0000
0000
,
0000
0000
0000
0000
,
0000
0000
0000
0000
,
1001
0000
0000
0000
,
0000
0000
0000
0000
,
0001
0000
0000
0000
,
0001
0000
0000
0000
,
1000
0000
0000
0000
,
1000
0000
0000
0000
,
0010
0000
0000
0000
,
0010
0000
0000
0000
,
0100
0000
0010
0000
,
0001
0000
1000
0000
,
0001
0000
0000
0000
,
1000
0000
0000
0000
,
0010
0010
0000
0000
,
0100
0100
0000
0000
,
0001
0000
0000
0000
,
0001
0000
0000
0000
,
1000
0000
0000
0000
,
1000
0000
0000
0000
,
0010
0000
0000
0000
,
0100
0100
0000
0000
,
0100
0000
0000
0000
,
0010
0010
0000
0000
,
0001
0000
0000
0000
,
1000
1000
0000
0000
,
1000
0000
0000
0000
,
0001
0001
0000
0000
,
1001
0000
0000
0000
,
0110
0000
0000
0000
,
0001
0000
1000
0000
,
0010
0010
0010
0000
,
0010
0000
0000
0000
,
0001
0000
0000
0000
,
1000
0000
0000
0000
,
0100
0000
0000
0000
,
0010
0000
0001
0000
,
1000
0000
0100
0000
,
0010
0010
0000
0000
,
0100
0100
0000
0000
,
0001
0000
1000
0000
,
0001
0000
1000
0000
,
1000
1000
0000
0000
,
0010
0010
0000
0000
,
0100
0000
0100
0000
,
0010
0000
0010
0000
,
0001
0001
0000
0000
,
1000
1000
1000
0000
,
1001
0000
0000
0000
;
