#TITLE:Low;
#SUBTITLE:;
#ARTIST:Flo Rida (feat. T-Pain);
#TITLETRANSLIT:;
#SUBTITLETRANSLIT:;
#ARTISTTRANSLIT:;
#CREDIT:;
#BANNER:Low-bn.PNG;
#BACKGROUND:Low-bg.PNG;
#LYRICSPATH:;
#CDTITLE:;
#MUSIC:Low - Flo Rida (feat. T-Pain).mp3;
#OFFSET:-1.602;
#SAMPLESTART:15.700;
#SAMPLELENGTH:11.980;
#SELECTABLE:YES;
#BPMS:0.000=128.000;
#STOPS:124.000=1.400
;
#BGCHANGES:0.000=Low.avi=1.000=1=1=0
,221.000=Low-bg.PNG=1.000=1=0=1
;

//---------------dance-single - ----------------
#NOTES:
     dance-single:
     :
     Hard:
     8:
     0.457,0.511,0.218,0.127,0.154:
0000
0000
0000
0000
,
0000
0000
0000
0000
,
0000
0000
0000
0000
,
0000
0000
0000
0000
,
0010
0010
1000
1000
0001
0001
0100
0200
,
0000
0000
0000
0300
,
0001
0001
1000
1000
0100
0100
0010
0020
,
0000
0000
0000
0000
0001
0000
0000
0000
1030
0000
0010
0100
0010
0000
0000
0000
,
1000
0000
0100
0010
0001
0000
1001
0000
,
0010
0000
0100
1000
0200
0000
0301
0010
,
0002
0000
0000
0103
0010
0000
1001
0000
,
0001
1000
0001
0010
0100
1000
1001
0000
,
0010
1000
0010
0000
0010
0001
0100
0000
,
0010
0000
0001
0000
0010
0000
0000
0000
0010
0000
1000
0000
1000
0100
1000
0000
,
0001
0100
1000
0000
1000
0100
0001
0000
,
0001
0100
1000
0200
,
1300
0000
1000
0100
0001
0000
0011
0000
,
0100
0000
0010
1000
0001
0000
0110
0000
,
0010
1000
0100
0001
,
0010
0000
1000
0001
0100
0000
0220
0000
,
1330
0100
1000
0100
1000
0000
0000
0000
,
0010
0000
0001
0000
0010
0000
1000
0000
0010
0000
0000
0000
0100
0010
0100
0000
,
0001
0100
1000
0100
,
0001
0100
1000
0000
0100
0100
0100
0000
,
1000
0000
0100
0000
0001
0000
1000
0000
0100
0000
0010
1000
0100
0000
0001
1000
,
0000
0000
0100
0000
0001
0000
0010
0000
0100
0000
1000
0100
0001
0000
1000
0010
,
0000
0000
0100
0000
1000
0000
0100
0000
0001
0000
0010
0100
0001
0000
1000
0100
,
0000
0000
0001
0000
0001
0000
1000
0000
1000
0000
0010
0100
0001
0000
1000
0100
,
0000
0000
0010
0000
0010
0000
0010
1000
0000
0000
0100
0000
0100
0000
0100
0001
,
0000
0000
0001
0000
0001
0000
0001
1000
0000
0000
1000
0000
1000
0000
1000
0001
,
0000
1100
0010
0001
0100
0001
0010
1000
,
1001
0000
0000
0000
0110
0000
0000
0000
0100
1000
0001
0000
0100
0000
0000
0000
,
0110
0000
0000
0000
0001
0000
0000
0000
0100
1000
0001
0000
0010
0000
0000
0000
,
0110
0000
0000
0000
0100
0000
0000
0000
0010
1000
0001
0000
0100
0000
0000
0000
,
1100
0000
0000
0000
0001
0000
0000
0000
0010
0001
1000
0000
0100
0000
0000
0000
,
0101
0000
0000
1000
0100
0001
0100
1000
0010
0100
0000
0000
,
1001
0000
0000
0010
0100
0001
0100
0001
0010
0100
0000
0000
,
1001
0000
0000
0100
0010
0100
0001
1000
0001
0100
0000
0000
,
1001
0000
0000
0000
0010
0000
0100
0000
1000
0000
0000
0000
1000
0100
0001
0000
,
0100
1000
0101
0000
0100
0010
0001
0000
,
1001
0000
0010
0000
0100
1000
0002
0000
,
1003
0010
0200
0000
0000
0301
0010
0000
,
1001
0000
0001
1000
0001
0010
0100
1000
,
1001
0000
0100
1000
1000
0000
0100
0001
,
0010
0000
0100
0001
0100
0000
0100
0001
,
0001
0010
0001
0000
1000
0000
0100
0000
0001
0000
0000
0000
1000
0000
0100
0000
,
0001
0001
0100
1000
,
0200
0000
1300
0000
0001
0100
1000
0000
,
0011
0000
0100
0000
0010
1000
0001
0000
,
0110
0010
1000
0100
,
0001
0000
0010
0000
1000
0001
0100
0000
,
0202
0000
0303
0010
1000
0100
1000
0000
,
0000
0000
0100
0001
0010
1000
0010
0000
,
1000
0010
0100
0000
0010
0000
0000
0000
0100
0000
0000
0000
0001
0000
0000
0000
,
0100
0000
0100
0001
1000
0000
0010
0001
,
0100
2002
0000
0000
,
0000
3003
0000
0000
;

//---------------dance-single - ----------------
#NOTES:
     dance-single:
     :
     Medium:
     5:
     0.367,0.383,0.309,0.145,0.000:
0000
0000
0000
0000
,
0000
0000
0000
0000
,
0000
0000
0000
0000
,
0000
0000
0000
0000
,
0100
0000
1000
0000
0001
0001
0001
0002
,
0000
0000
0000
0003
0100
0000
0110
0000
,
0001
0000
0100
0000
0010
0010
0010
0020
,
0000
0000
0030
0000
0001
0000
1000
0100
,
0001
1100
0001
0101
,
0010
0000
0100
1000
0100
0000
0010
0001
,
0010
0000
1000
0000
0010
0001
0100
0000
,
0001
0100
1000
0010
,
0001
0101
1000
1100
,
0011
1100
1010
0101
,
0010
0200
0301
0200
,
1300
0200
0300
0100
,
0001
0000
0010
1000
1000
0000
0100
0000
,
1000
0000
0010
0001
0001
0000
1000
0100
,
0001
0100
0001
0010
,
1000
0000
0100
0000
0001
1000
0001
0000
,
0100
0000
0010
0000
0100
0001
0010
0000
,
0010
0000
0100
0000
0010
1000
0100
0000
,
0001
0200
1300
0200
,
0310
0200
0300
0100
,
1000
0000
0100
0000
0001
0100
0001
0000
,
0001
0000
0100
0000
1000
0100
1000
0000
,
0010
0000
0100
0000
0010
0100
0010
0000
,
0001
0000
1000
0000
0001
1000
0001
0000
,
1000
1100
0010
0010
,
0001
0011
0100
0100
,
1000
0100
0001
0100
,
0110
0000
1000
0000
0100
0000
0010
0010
,
0010
0000
0001
0000
0100
0000
0001
0001
,
0001
0000
0010
0000
1000
0000
0100
0100
,
0100
0000
0010
0000
0100
0000
1000
1000
,
1000
0000
1000
0000
0110
0000
0001
0010
,
1000
0000
0001
0000
0110
0000
1000
0010
,
0001
0000
0101
0000
1010
0000
0100
0001
,
0100
0011
1100
0010
,
1001
0001
0110
1000
,
0110
0000
0010
0000
1000
0100
1100
0000
,
0010
0001
0011
0000
1000
0000
0010
0001
,
1000
1001
0010
0101
,
0010
0001
1001
0001
,
1001
1100
0101
0011
,
1010
1000
0200
0310
,
0200
0301
0200
0310
,
0100
0000
0001
0000
0010
0100
0010
0000
,
0100
0000
1000
0000
1000
0001
0001
0000
,
1000
0010
0001
0000
0010
0000
1000
0000
,
0100
0000
0001
0000
0010
0000
0010
1000
,
0001
0000
0100
0000
0110
0000
0100
0001
,
0010
0000
0001
0000
1001
0000
0010
1000
,
0100
1000
0200
0301
,
0200
0310
0200
0300
,
0100
2002
0000
0000
,
0000
3003
0000
0000
;

//---------------dance-single - ----------------
#NOTES:
     dance-single:
     :
     Easy:
     3:
     0.265,0.307,0.127,0.055,0.000:
0000
0000
0000
0000
,
0000
0000
0000
0000
,
0000
0000
0000
0000
,
0000
0000
0000
0000
,
0010
0000
1001
1001
,
0000
0000
0000
0000
,
0100
0000
1001
1001
,
0100
0010
1001
1001
,
0010
0000
0001
0001
,
0100
0000
1000
1000
,
0002
1003
2000
3001
,
0010
0010
0010
0010
,
1000
0100
0010
0001
,
0001
0010
0100
1000
,
0001
1000
0100
0100
,
0010
0100
0100
0100
,
1000
0000
0010
1000
,
0001
0000
0010
0001
,
0010
1000
0100
0001
,
0000
1000
1000
1001
,
0000
1000
0100
0001
,
0010
0010
0001
0100
,
1000
0100
0001
0100
,
0010
0100
0100
0100
,
1000
0000
1000
1000
,
0100
0010
0100
0001
,
0001
0000
0100
0100
,
0001
0100
0010
1000
,
1000
0100
0001
0100
,
0010
0100
0010
0100
,
1000
0001
0001
1000
,
1001
0100
0010
0001
,
0001
0010
0100
1000
,
1000
0100
0000
0100
,
0110
0010
0000
0001
,
1001
0100
0100
0010
,
1001
0010
0010
0100
,
1001
0001
1000
0001
,
0001
1000
0001
1000
,
1000
0100
0000
0001
,
0001
0100
0000
1000
,
1000
0002
1003
2000
,
3001
0010
0010
0010
,
0010
1000
0100
0010
,
0001
0001
0010
0100
,
1000
0001
1000
0100
,
0100
0010
0100
0100
,
0100
1000
0000
0010
,
1000
0001
0000
0010
,
0001
0010
1000
0100
,
0001
0000
1000
1000
,
1001
0000
1000
0100
,
0001
0010
0010
0001
,
0100
1000
0100
0001
,
0100
0010
0100
0100
,
0100
2002
0000
0000
,
0000
3003
0000
0000
;

//---------------dance-single - ----------------
#NOTES:
     dance-single:
     :
     Beginner:
     1:
     0.144,0.176,0.018,0.000,0.000:
0000
0000
0000
0000
,
0000
0000
0000
0000
,
0000
0000
0000
0000
,
0000
0000
0000
0000
,
0100
0000
0100
0100
,
0000
0000
0000
0000
,
0001
0000
1000
1000
,
0000
0000
0000
0000
,
1000
0000
0001
0000
,
1000
0000
0001
0000
,
0001
0000
1000
0000
,
0010
0100
0100
0000
,
0010
0000
0100
0000
,
0010
0000
0100
0000
,
0001
0000
0100
0000
,
0100
0000
0100
0000
,
1000
0000
0100
0000
,
0001
0000
0100
0000
,
0010
0000
1000
0000
,
0010
0000
0001
0000
,
1000
0000
0100
0000
,
0010
0000
0001
0000
,
0100
0000
0010
0000
,
0100
0000
0100
0000
,
1000
0000
0001
0001
,
0001
0000
1000
1000
,
1000
0000
0010
0010
,
0010
0000
0100
0100
,
0100
0000
1001
0000
,
0100
0000
1001
0000
,
0100
0000
0100
0000
,
0010
1000
0000
0000
,
1000
0001
0000
0000
,
0001
0100
0000
0000
,
0100
0010
0000
0000
,
0010
1000
0000
1000
,
0000
0001
0000
0001
,
0000
0010
0000
0010
,
0000
0100
0000
0100
,
1000
0001
0000
0001
,
0000
1000
0000
0001
,
0000
0001
0000
1000
,
0000
0010
0100
0100
,
0000
0010
0000
0100
,
0000
0010
0000
0100
,
0000
0001
0000
0100
,
0000
0100
0000
0100
,
0000
1000
0000
0100
,
0000
0001
0000
0100
,
0000
0010
0000
1000
,
0000
0010
0000
0001
,
0000
1000
0000
0100
,
0000
0010
0000
0001
,
0000
0100
0000
0010
,
0000
0100
0000
0100
,
0000
1000
0000
0000
;
