#TITLE:Let me think about it;
#SUBTITLE:;
#ARTIST:Ida Corr feat. Fedde Le Grand;
#TITLETRANSLIT:;
#SUBTITLETRANSLIT:;
#ARTISTTRANSLIT:;
#CREDIT:;
#BANNER:Ida bn.jpg;
#BACKGROUND:Ida bg.jpg;
#LYRICSPATH:;
#CDTITLE:;
#MUSIC:ida_corr_feat_fedde_le_grand-let_me_think_about_it.mp3;
#OFFSET:-0.003;
#SAMPLESTART:71.460;
#SAMPLELENGTH:11.980;
#SELECTABLE:YES;
#BPMS:0.000=128.900,112.000=64.500,118.000=129.000,210.000=130.000;
#STOPS:;
#BGCHANGES:;

//---------------dance-single - ----------------
#NOTES:
     dance-single:
     :
     Hard:
     7:
     0.455,0.496,0.125,0.223,0.107:
0000
0000
0000
0000
,
0000
0000
0000
0000
,
0000
0000
0000
0000
,
0000
0000
0000
0000
,
0010
0000
1000
0000
0001
0000
1000
0000
0010
0000
0001
1000
0001
0000
0000
0000
,
0001
0000
0010
0000
0100
0000
0010
0000
1000
0001
1000
0001
1000
0000
0000
0000
,
0010
0000
1000
0000
0100
0000
1000
0000
0010
0000
0001
0100
0001
0000
0000
0000
,
0100
0000
0010
0000
0001
0000
0010
0000
1000
0100
1000
0100
1000
0000
0000
0000
,
1000
0100
0010
0001
0010
0100
1000
0000
,
1000
0100
0010
0100
0010
0001
0100
0000
,
1000
0001
0100
0010
1000
1000
0001
0000
,
0010
0001
1000
0100
0010
0001
0001
0000
,
2000
3100
0002
0103
,
0010
0100
0001
0000
0001
0000
0110
0000
,
0020
0130
0002
1003
,
0100
1000
0001
0000
0100
0000
1001
0000
,
0002
0103
0020
1030
,
0001
0100
0010
0000
0100
0000
0101
0000
,
2000
3010
0200
0301
,
0010
1000
0001
0000
0001
0000
1100
0000
,
1000
0000
0100
0000
1000
0000
0100
0000
0010
0001
1000
0000
1100
0000
0000
0000
,
0100
0001
0100
0001
0100
0010
0000
0100
,
0001
0000
1000
0000
0100
0000
0010
0000
0100
0010
0001
0000
1001
0000
0000
0000
,
0010
1000
0010
1000
0100
0010
0000
0100
,
1000
0000
1000
0100
0000
0010
0001
0000
0100
0000
0100
0000
0100
0000
0000
0000
,
0010
0000
1000
0100
0000
0001
0100
0000
0010
0000
0010
0000
0010
0000
0000
0000
,
1001
0000
0010
0100
0000
0001
1000
0000
0100
0000
1000
0000
1000
0000
0000
0000
,
0110
0000
1000
0001
0000
0010
0100
0000
0010
0000
0001
0000
0001
0000
0000
0000
,
2000
3001
0002
1003
,
0010
1001
0100
1001
0001
0001
1000
1000
,
0100
0010
0100
0000
1000
0000
1000
0000
,
0001
0100
0001
0000
0010
1000
0001
0000
,
0001
0100
1000
0000
0001
0000
0001
0000
,
0100
1000
0100
0000
0010
0001
1000
0000
,
1000
0100
0001
0000
1000
0001
1000
0010
,
1000
0100
1000
0000
0001
0010
0001
0100
,
0001
1000
0000
0001
0010
0001
1000
0001
,
0100
0001
0010
0000
1000
0100
0001
0100
,
1000
0000
0100
0000
0000
0000
0001
0000
1000
0000
0100
0010
0000
0010
0001
0000
,
0001
0000
0100
0000
0010
0000
0000
0000
0100
0000
0001
0100
0000
0100
0001
0000
,
1000
0000
0010
0000
0100
0000
0000
0000
1000
0000
1000
0001
0000
0001
1000
0000
,
0100
0000
0001
0000
1000
0000
0000
0000
0001
0000
0100
1000
0000
1000
0001
0000
,
0100
0010
1000
0000
2001
0000
3100
0000
,
0001
0010
1000
0000
1002
0000
0103
0000
,
1000
0010
0001
0000
1000
0000
1100
0000
,
0101
0001
0100
0100
,
0010
0100
0010
0000
1000
0010
0100
0001
,
0100
0100
0100
0000
0001
0000
0001
0000
,
2000
0000
0000
0000
0000
0000
0000
0000
0010
0000
0000
3000
0010
0000
0000
0000
,
0001
1000
0100
0000
1000
0000
0001
0000
,
0010
0100
1000
0000
0001
0000
1000
0000
,
0100
0001
0010
0000
1000
0000
0001
0000
,
1000
0100
0001
0000
2000
0000
0000
0000
,
3200
0000
0320
0000
,
0032
0000
0203
0000
,
0320
0000
2030
0000
,
3002
0000
2003
0000
,
0002
3000
0200
0003
,
0020
0000
0330
0000
;

//---------------dance-single - ----------------
#NOTES:
     dance-single:
     :
     Medium:
     5:
     0.326,0.338,0.214,0.062,0.000:
0000
0000
0000
0000
,
0000
0000
0000
0000
,
0000
0000
0000
0000
,
0000
0000
0000
0000
,
1000
0001
0010
0110
,
0001
1000
0100
0110
,
0010
0100
0001
1001
,
0010
0100
1000
1001
,
2000
0000
0001
3001
,
0010
0000
0100
0000
0001
0001
0001
0000
,
0002
0000
1000
1003
,
0100
0000
0010
0000
1000
1000
1000
0000
,
1000
0100
0010
0011
,
0001
0010
0100
1100
,
0001
0001
1000
1000
,
0010
1001
0100
0110
,
0010
0001
0100
1010
,
0100
1000
0010
0101
,
1000
0100
1000
0001
,
0001
1000
0001
0000
0010
0100
0010
0000
,
0010
0000
0100
0000
0010
0010
0010
0000
,
0001
1000
1001
0000
,
0001
0000
0100
0000
1000
1000
1000
0000
,
0001
1000
0110
0000
,
0001
0100
0010
1010
,
0000
1000
0001
0101
,
0000
0010
0011
1000
,
0000
1000
0110
0001
,
1000
0000
0100
0000
0010
0001
1000
0000
,
0100
0010
0001
1000
,
0010
0100
0100
0000
0001
0000
1000
0000
,
0001
0100
0001
0000
1000
0000
0001
0000
,
1000
0100
1000
0000
0010
0000
0010
0000
,
1100
0101
0002
0103
,
0020
1030
0010
0001
,
1000
0100
0010
0010
,
1001
0000
0001
1000
,
0100
0100
0010
0001
,
0110
0000
1000
0010
,
0001
0100
0100
0000
0000
0000
0010
0000
,
0001
1000
0100
0000
0000
0000
0100
0000
,
0001
1000
0010
0000
0000
0000
1000
0000
,
0010
0001
0001
0000
1000
0000
0000
0000
,
0100
0000
0001
1000
0001
0000
0100
0000
,
0010
0000
0010
0000
1100
0000
0000
0101
,
0000
0000
1001
0000
0010
0100
0010
0100
,
0010
0110
1000
1000
,
1000
0100
0001
0000
0001
0000
0001
0000
,
0001
0100
1000
0000
0020
0000
0000
0000
,
0130
0100
0001
0100
,
0100
0001
0001
0000
0001
0000
0100
0000
,
0100
1000
1000
0000
0010
0000
0100
0000
,
0010
1000
0010
0000
0001
0000
0100
0000
,
0010
0100
0010
0000
1000
0000
0100
0000
,
0010
0100
0010
0000
0001
0000
1000
0000
,
0001
1000
0001
0000
1000
0000
0001
0000
,
1000
0001
1000
0000
2000
0000
0000
0000
,
0000
3001
0002
0000
,
0000
1003
0000
0000
;

//---------------dance-single - ----------------
#NOTES:
     dance-single:
     :
     Easy:
     3:
     0.235,0.286,0.125,0.062,0.000: // measure 1
0000
0000
0000
0000
,  // measure 2
0000
0000
0000
0000
,  // measure 3
0000
0000
0000
0000
,  // measure 4
0000
0000
0000
0000
,  // measure 5
1000
0000
1000
0000
,  // measure 6
0001
0000
0001
0000
,  // measure 7
0010
0000
0100
0000
,  // measure 8
0001
0000
1001
0000
,  // measure 9
0001
0001
0000
0000
,  // measure 10
1000
1000
0000
0000
,  // measure 11
0010
0100
0000
0000
,  // measure 12
0001
0100
1000
0010
,  // measure 13
1000
0000
0001
0000
,  // measure 14
1000
0100
0001
0100
,  // measure 15
1000
0000
0001
0000
,  // measure 16
0010
1000
0010
0001
,  // measure 17
0100
0000
0010
0000
,  // measure 18
0010
0001
0010
1001
,  // measure 19
0100
0000
0010
0000
,  // measure 20
0010
1000
0010
1001
,  // measure 21
1000
0000
0001
0000
,  // measure 22
0100
0000
1001
0000
,  // measure 23
0010
0000
1000
0000
,  // measure 24
0001
0000
1001
1001
,  // measure 25
0010
0010
1000
0001
,  // measure 26
0100
0100
0001
1000
,  // measure 27
0001
1000
0010
0010
,  // measure 28
1000
0001
0100
0100
,  // measure 29
0001
1000
0010
0100
,  // measure 30
0100
1000
0010
0010
,  // measure 31
0010
0010
0001
0000
,  // measure 32
1001
0000
0100
1000
,  // measure 33
0001
0000
1000
0000
,  // measure 34
1001
0000
0010
0001
,  // measure 35
1000
0000
0001
0001
,  // measure 36
0001
1001
1000
1000
,  // measure 37
1000
1001
0100
0100
,  // measure 38
0100
0110
0010
0010
,  // measure 39
0010
0110
0001
0000
,  // measure 40
0001
0001
1000
0000
,  // measure 41
1000
1000
0010
0000
,  // measure 42
0100
0001
0010
0000
,  // measure 43
0100
1000
0010
0000
,  // measure 44
0010
0000
0100
0010
,  // measure 45
0001
0000
0100
0000
,  // measure 46
0100
0000
0100
0010
,  // measure 47
1000
0000
0001
1001
,  // measure 48
1000
1001
0100
0100
,  // measure 49
0010
0001
2000
0000
,  // measure 50
3001
0001
0000
0010
,  // measure 51
0100
0100
0000
0001
,  // measure 52
1000
0100
0000
0001
,  // measure 53
1000
0010
2000
0000
,  // measure 54
0100
3100
0002
0000
,  // measure 55
1000
1003
0200
0000
,  // measure 56
0010
0310
0020
0000
,  // measure 57
0001
0031
2000
0000
,  // measure 58
3100
0010
0002
0000
,  // measure 59
0103
0100
0000
0000
;

//---------------dance-single - ----------------
#NOTES:
     dance-single:
     :
     Beginner:
     1:
     0.134,0.156,0.062,0.000,0.000:
0000
0000
0000
0000
,
0000
0000
0000
0000
,
0000
0000
0000
0000
,
0000
0000
0000
0000
,
1000
0000
0000
0000
,
1000
0000
0000
0000
,
0001
0000
0000
0000
,
0001
0000
0000
0000
,
0010
0000
0100
0000
,
0001
0000
0000
0000
,
0100
0000
0010
0000
,
1000
0000
0000
0000
,
0001
0000
1000
0000
,
0001
0000
1000
0000
,
0010
0000
0100
0000
,
0010
0000
0100
0000
,
0001
0000
0100
0000
,
1000
0000
0100
0000
,
0010
0000
0001
0000
,
0010
0000
1000
0000
,
0001
0000
0000
0000
,
0100
0000
0100
0100
,
0100
0000
0001
0000
,
0000
0000
1000
1000
,
1000
0000
1001
0000
,
0000
0010
0010
0010
,
0000
0001
0001
0000
,
1000
1000
0000
0000
,
1001
0000
1001
0000
,
0100
0000
0010
0000
,
0000
0000
1000
0000
,
0001
0000
0010
0010
,
0010
0000
0000
0001
,
0000
0000
1000
0000
,
1001
0000
1000
0000
,
0000
0000
0001
0000
,
0000
0000
0100
0000
,
0000
0000
0010
0000
,
0000
0000
1000
0000
,
1000
1000
0000
0000
,
0001
0001
0000
0000
,
0010
0010
0000
0000
,
0100
0100
0000
0000
,
1001
0000
0000
0000
,
0000
0000
1001
0000
,
0000
0000
0001
0001
,
0001
0000
1000
0000
,
1000
0000
0010
0000
,
0100
0000
0001
0000
,
0001
0001
0000
0000
,
0100
0100
0000
0000
,
1000
1000
0000
0000
,
0010
0010
0000
0000
,
0010
0000
0001
0000
,
1000
0000
0100
0000
,
0100
0000
0001
0000
,
1000
0000
0010
0000
,
0001
0000
0000
0001
,
0001
1001
0000
0000
;
