#TITLE:Kind Lady (Funk Disco Extended Mix);
#SUBTITLE:;
#ARTIST:Okuyatos;
#TITLETRANSLIT:;
#SUBTITLETRANSLIT:;
#ARTISTTRANSLIT:;
#CREDIT:;
#BANNER:Kind Lady (Funk Disco Extended Mix)-bn.PNG;
#BACKGROUND:Kind Lady (Funk Disco Extended Mix)-bg.PNG;
#LYRICSPATH:;
#CDTITLE:;
#MUSIC:Kind Lady (Funk Disco Extended Mix).mp3;
#OFFSET:-0.217;
#SAMPLESTART:74.420;
#SAMPLELENGTH:11.980;
#SELECTABLE:YES;
#BPMS:0.000=135.000;
#STOPS:;
#BGCHANGES:;

//---------------dance-single - ----------------
#NOTES:
     dance-single:
     :
     Hard:
     7:
     0.419,0.411,0.164,0.343,0.019:
0000
0000
0000
0000
,
2000
3200
0320
0031
,
1000
0000
0001
0000
0100
0010
0100
0000
,
0002
0023
0230
1300
,
0100
0000
0010
0000
0001
1000
0001
0000
,
0002
2003
3200
0310
,
0001
0100
1000
0000
1000
0100
0001
0000
,
2000
3002
0023
0130
,
1000
0010
0001
0000
0001
0010
1000
0000
,
1000
0000
1100
0000
0010
0001
0100
0000
,
0001
0000
0101
0000
0010
1000
0100
0000
,
0010
1000
0001
0000
0010
0001
1000
0000
,
0200
0301
0020
1030
,
0100
0000
0001
0000
0100
0001
0100
0000
,
0010
0000
1000
0000
0010
1000
0010
0000
,
0101
0000
0100
0000
0010
1000
0001
0000
,
0100
0010
0100
0010
1000
0001
1000
0000
,
2000
0000
3200
0000
,
0320
0000
0032
0000
,
0203
0000
0320
0000
,
2030
0000
3002
0000
,
2003
3100
0020
0031
,
0200
0310
2000
3001
,
0200
0310
2000
3001
,
0220
0000
0000
0330
,
1100
0000
0101
0000
1000
0001
0100
0000
,
0010
1000
0010
1000
0001
0100
0001
0000
,
1000
0000
1001
0000
0010
0100
0100
0000
,
0101
0000
1010
0000
2002
0000
0000
3003
,
0010
1000
0100
0000
0001
1000
0100
0000
,
0010
0001
0100
0000
1000
0001
0100
0000
,
0010
0010
0100
0100
,
0001
0000
0000
0010
0000
0000
2000
0000
0000
0000
0000
0000
0000
0000
3000
0000
,
0001
0000
0001
0000
0100
0010
0010
0000
,
0001
0000
1000
0000
0010
0100
1000
0000
,
0001
0000
0100
0000
0010
1000
1000
0000
,
0010
0000
0100
0000
0100
0010
0001
0000
,
1000
1000
0100
0010
,
0001
0001
0001
0000
1000
0100
0100
0000
,
0010
0000
0100
0000
0010
0001
1000
0000
,
0110
0000
0000
0001
0000
0000
0200
0000
0000
0000
0000
0000
0000
0000
0300
0000
,
1000
0100
0001
0100
,
0010
1000
1010
0000
0100
0001
0101
0000
,
0020
0130
0002
1003
,
0100
0000
0000
0010
0000
0000
2000
0000
0000
0000
0001
0000
0001
0000
3001
0000
,
0000
0010
0001
0000
0010
0001
0010
0000
,
0000
1000
0100
0000
0100
1000
0100
0000
,
0010
0100
0001
0000
0100
0001
1000
0000
,
0100
1000
0001
0000
0010
0100
1000
0000
,
0010
0000
0000
0000
0001
0000
1000
0100
0000
0000
0100
0000
0100
0000
0100
0000
,
0000
1001
0000
1010
0000
0101
0000
0000
,
0010
1000
0001
0100
0010
0100
0001
1000
,
0100
0000
0000
0011
0000
0000
1100
0000
0000
0000
0001
0000
0100
0000
0010
0000
,
0000
1000
0010
0100
0000
0001
1000
0000
,
2000
3020
0230
0302
,
1003
1000
0001
0001
,
0010
0000
0100
0000
0010
0100
0001
0000
,
1000
0010
0100
0000
0001
0010
0100
0000
,
1000
0001
1000
0000
0010
0010
0010
0000
,
0001
1000
0100
0000
1000
0001
0100
0000
,
0010
1000
0001
0000
0110
1001
0110
0000
,
0100
1000
0100
0000
0010
1000
0010
0000
,
0100
0001
0100
0000
0010
0001
0010
0000
,
0002
1003
0200
0310
,
0001
1000
0010
0100
0001
0100
0010
1000
,
0002
0000
0000
0000
,
0003
0000
0000
0000
;

//---------------dance-single - ----------------
#NOTES:
     dance-single:
     :
     Medium:
     4:
     0.313,0.307,0.132,0.179,0.000:
0000
0000
0000
0000
,
1000
0010
1000
0000
,
0001
0100
0001
0000
,
1001
0000
0110
0000
,
1000
0000
0100
0000
0010
0001
0001
0000
,
1000
0100
1000
0000
,
0010
0001
0010
0000
,
0110
0000
1001
0000
,
0001
0000
0010
0000
0100
1000
1000
0000
,
0001
1000
0010
0100
,
1000
0100
0001
0000
0001
1000
1001
0000
,
1000
0100
0010
0001
,
0010
0000
0010
0100
,
0001
1000
0010
0100
,
0001
0100
1000
0000
1000
0001
1001
0000
,
0100
0010
1000
0001
,
0000
0100
0000
0001
,
2000
0000
0000
3000
,
0200
0000
0000
0300
,
0020
0000
0000
0030
,
0002
0000
0000
0003
,
0200
0000
0320
0000
,
0032
0000
2003
0000
,
3100
0100
0100
0100
,
0010
0010
0010
0010
,
1000
0001
1001
0000
,
0100
0000
0010
0000
0100
0010
0100
0000
,
0001
1000
1001
0000
,
0100
0000
0010
0000
2002
0000
0000
3003
,
1000
0000
1000
0000
0001
0100
0100
0000
,
0001
0000
0001
0000
1000
0100
0100
0000
,
0001
0010
0100
0000
0001
0010
0100
0000
,
1000
0000
0100
0000
0202
0000
0000
0303
,
1000
0000
0001
0000
,
0010
0001
0100
1000
,
0001
0000
1000
0000
,
0010
0000
0100
0000
0220
0000
0000
0330
,
1000
0000
0100
0000
,
0001
0001
0100
0100
,
0010
1000
0001
0100
,
0001
0000
1000
0000
1000
0001
0200
0000
,
0301
0000
0001
0000
0001
0010
1000
0000
,
1000
0000
1000
0000
1000
0010
0001
0000
,
0100
0000
0010
0000
0100
0010
0100
0000
,
0001
0000
1000
0000
0001
1000
0001
0000
,
1000
0000
1000
0000
1000
0100
0001
0000
,
0001
0000
0001
0000
0001
0100
1000
0000
,
0010
0001
0010
1000
,
0001
0100
1000
0100
,
0001
0001
0001
0000
0100
0100
0100
0000
,
1000
1000
1000
0000
0010
0010
0010
0000
,
1000
0100
0010
0001
,
0010
1000
0100
0001
,
2000
3100
0002
0103
,
0010
0000
0010
0000
0010
1000
0100
0000
,
0002
0103
2000
3100
,
0100
0000
0100
0000
0100
0001
0010
0000
,
1100
0000
0101
0000
,
0010
0100
0010
0100
,
0011
0000
1010
0000
,
0001
1000
0001
0000
2200
0000
0000
3300
,
0001
0001
0100
0010
,
1000
1000
0010
0100
,
0001
0100
1000
0000
1000
0100
0001
0000
,
0001
0100
0010
1000
,
0202
0000
0000
0303
;

//---------------dance-single - ----------------
#NOTES:
     dance-single:
     :
     Easy:
     2:
     0.222,0.231,0.140,0.086,0.000:
0000
0000
0000
0000
,
1000
0000
1000
0000
,
0100
0000
0010
0010
,
0100
0000
0100
0000
,
0001
0000
1000
1000
,
0010
0000
0010
0000
,
1000
0000
0100
0100
,
0001
0000
0001
0000
,
0100
0000
0001
0001
,
1001
0000
0110
0000
,
0001
0001
0001
0001
,
0110
0000
1001
0000
,
0100
0100
0100
0100
,
1001
0000
0110
0000
,
1000
1000
1000
1000
,
0110
0000
1001
0000
,
0010
0010
0010
0010
,
2000
0000
0000
3000
,
0002
0000
0000
0003
,
0200
0000
0000
0300
,
0020
0000
0000
0030
,
0200
0000
0000
0300
,
0020
0000
0000
0030
,
0002
0000
0000
0003
,
2000
0000
0000
3000
,
0001
0000
0001
0000
,
1000
0100
0100
1000
,
0001
0000
0001
0000
,
0100
0000
0110
0000
,
1000
0000
1000
0000
,
0001
0100
0100
0001
,
0010
0000
0010
0000
,
1000
0000
1001
0000
,
0010
0000
0100
0000
,
0001
0100
1000
0100
,
0001
0000
1000
0000
,
0001
0010
1000
0010
,
0001
0000
1000
0000
,
0010
0100
0010
0100
,
0010
0000
0100
0000
,
0001
0100
2000
0000
,
3001
0001
1000
1000
,
0001
1000
0001
1000
,
0010
0010
0100
0100
,
0001
0000
1001
0000
,
1000
1000
0001
0001
,
0010
0100
0010
0100
,
0001
0000
1000
0000
,
1001
1001
0100
0000
,
0001
0000
0100
0000
,
0010
0010
0010
0000
,
0010
1000
0100
0001
,
0001
0100
1000
0010
,
1000
0000
0100
0000
,
0010
0001
0010
0000
,
0001
0100
0010
1000
,
1000
0010
0100
0001
,
1000
0000
1001
0000
,
0010
0001
0001
0000
,
0001
0000
1001
0000
,
1000
0100
0100
0000
,
0010
0000
0110
0000
,
0010
0001
0100
0000
,
0100
0000
0110
0000
,
0010
1000
0100
0001
,
2002
0000
0000
3003
;

//---------------dance-single - ----------------
#NOTES:
     dance-single:
     :
     Beginner:
     1:
     0.131,0.177,0.086,0.000,0.000: // measure 1
0000
0000
0000
0000
,  // measure 2
1000
0000
0000
0000
,  // measure 3
0001
0000
0000
0000
,  // measure 4
1000
0000
0000
0000
,  // measure 5
0001
0000
0000
0000
,  // measure 6
0010
0000
0000
0000
,  // measure 7
0100
0000
0000
0000
,  // measure 8
0010
0000
0000
0000
,  // measure 9
0100
0000
0000
0000
,  // measure 10
1000
0000
0000
0000
,  // measure 11
0100
0000
0000
0000
,  // measure 12
0010
0000
0000
0000
,  // measure 13
0001
0000
0000
0000
,  // measure 14
0001
0000
0000
0000
,  // measure 15
0010
0000
0000
0000
,  // measure 16
0100
0000
0000
0000
,  // measure 17
1000
0000
0000
0000
,  // measure 18
0001
0000
0001
0000
,  // measure 19
1000
0000
1000
0000
,  // measure 20
0010
0000
0010
0000
,  // measure 21
0100
0000
0100
0000
,  // measure 22
0001
0000
1000
0000
,  // measure 23
0010
0000
0100
0000
,  // measure 24
0100
0000
0010
0000
,  // measure 25
0001
0000
1000
0000
,  // measure 26
1001
0000
0000
0000
,  // measure 27
0100
0000
0010
0000
,  // measure 28
1001
0000
0000
0000
,  // measure 29
0001
0000
1000
0000
,  // measure 30
0110
0000
0000
0000
,  // measure 31
0010
0000
0100
0000
,  // measure 32
0110
0000
0000
0000
,  // measure 33
0100
0000
0010
0000
,  // measure 34
0001
0001
0000
0000
,  // measure 35
1000
1000
0000
0000
,  // measure 36
0100
0100
0000
0000
,  // measure 37
0010
0000
0100
0000
,  // measure 38
0010
0010
0000
0000
,  // measure 39
0100
0100
0000
0000
,  // measure 40
0001
0001
0000
0000
,  // measure 41
1000
0000
1001
0000
,  // measure 42
1000
1000
0000
0000
,  // measure 43
0010
0000
0100
0000
,  // measure 44
0001
0001
0000
0000
,  // measure 45
0010
0000
1001
0000
,  // measure 46
0100
0100
0000
0000
,  // measure 47
1000
0000
0001
0000
,  // measure 48
0010
0010
0000
0000
,  // measure 49
1000
0000
0001
0000
,  // measure 50
1000
0000
1001
0000
,  // measure 51
0001
0000
1001
0000
,  // measure 52
1000
0000
0001
0000
,  // measure 53
1000
1000
1000
0000
,  // measure 54
0010
0000
0110
0000
,  // measure 55
0100
0000
0110
0000
,  // measure 56
0010
0000
0100
0000
,  // measure 57
0010
0010
0010
0000
,  // measure 58
0001
0000
0000
0000
,  // measure 59
1000
0000
0000
0000
,  // measure 60
0010
0000
0000
0000
,  // measure 61
0100
0000
0000
0000
,  // measure 62
0001
0000
1000
0000
,  // measure 63
0010
0000
0100
0000
,  // measure 64
0100
0000
0010
0000
,  // measure 65
1000
0000
0001
0000
,  // measure 66
1001
0000
0000
0000
;
