#TITLE:Insomnia;
#SUBTITLE:;
#ARTIST:Craig David;
#TITLETRANSLIT:;
#SUBTITLETRANSLIT:;
#ARTISTTRANSLIT:;
#CREDIT:;
#BANNER:Insomnia-bn.PNG;
#BACKGROUND:Insomnia-bg.PNG;
#LYRICSPATH:;
#CDTITLE:;
#MUSIC:Insomnia.mp3;
#OFFSET:0.007;
#SAMPLESTART:45.360;
#SAMPLELENGTH:12.000;
#SELECTABLE:YES;
#BPMS:0.000=125.400;
#STOPS:;
#BGCHANGES:0.000=Insomnia.avi=1.000=1=0=1
,256.000=Insomnia-bg.PNG=1.000=1=0=1
;

//---------------dance-single - ----------------
#NOTES:
     dance-single:
     :
     Hard:
     7:
     0.424,0.414,0.207,0.207,0.040:
0000
0000
0000
0000
,
0000
0000
0000
0000
,
0000
0000
0000
0000
,
0000
0000
0000
0000
,
1000
0000
0000
1000
0001
0000
0000
0000
0100
0000
0001
0000
1000
0000
0000
0000
,
0001
0000
0000
0001
1000
0000
0000
0000
0100
0000
1000
0000
0001
0000
0000
0100
,
1000
0000
0000
0100
1000
0000
0000
0000
0001
0000
0100
0000
0001
0000
0000
0010
,
0001
0000
0000
0010
0001
0000
0000
0000
1000
0000
0100
0000
1000
0000
0000
0000
,
2002
0000
3003
0000
0001
0001
1000
0000
,
0001
0100
2000
0000
0010
0000
0001
0100
,
3000
0000
0000
0000
0010
0100
0100
0000
,
0001
0100
0002
0000
0010
0000
0100
1000
,
0003
0000
1000
0001
1001
0000
0001
0000
,
1000
0010
0200
0000
0001
0000
0001
0010
,
0300
0000
1000
0001
1100
0000
0001
0100
,
0101
0010
0010
0010
,
1000
0000
0000
0100
0010
0000
0000
0000
0001
0000
0100
0000
1000
0000
0000
0000
,
0100
0000
0000
0010
0001
0000
0000
0000
0001
0000
0010
0000
1000
0000
0000
0000
,
0010
0100
0010
0000
1000
0001
1000
0000
,
0001
0100
0010
1000
0001
0100
0010
0000
,
1000
0000
0000
0010
0100
0000
0000
0000
0100
0000
0010
0000
0101
0000
0000
0000
,
0001
0000
0000
0010
0100
0000
0000
0000
0010
0000
1000
0000
1100
0000
0000
0000
,
0001
0100
0101
0000
1010
1000
0010
0000
,
0001
0100
0001
0010
0001
0100
0001
0000
,
1000
0000
1100
0000
0010
0000
0001
1000
,
0000
0110
0000
0010
0100
0000
0010
1000
,
0100
0000
0010
0001
1000
0100
0010
0001
,
2000
0000
0000
0000
3000
0000
0001
0100
,
0010
0000
1000
0000
1001
0000
0001
0100
,
0000
1010
0000
1000
0010
0000
0001
1000
,
0100
0000
0010
0100
0001
1000
0010
0001
,
0200
0000
0301
1000
,
0200
0000
2300
0000
3010
0001
1000
0000
,
0100
0001
0010
1000
0010
0100
1000
0000
,
2000
0000
3200
0000
0310
0001
1000
0000
,
0001
1000
0001
0100
0010
0100
0001
0000
,
2000
0000
3020
0000
0130
0010
1000
0000
,
0002
0000
0203
0000
0310
0001
0100
0000
,
0100
0001
0100
0000
0010
1000
0010
0000
,
0001
1000
0010
0100
0010
0100
0110
0000
,
2000
0000
0000
3001
,
0001
0000
0100
0000
0010
0000
1000
0100
,
0002
0000
0000
0000
0000
0000
1003
0100
,
1000
0010
1000
0100
0001
0100
0010
0000
,
1001
0000
0002
0000
,
1003
0000
0100
0001
0010
0000
0001
0100
,
0020
0000
0000
0000
0030
0001
1000
0100
,
0000
0010
0001
1000
0000
0010
0100
0000
,
0101
0000
1001
0000
1010
0000
0001
0100
,
0000
0101
0000
1000
0100
0000
0001
0100
,
1000
0000
0001
0100
0010
0010
0100
0001
,
1000
0000
1000
0000
0001
1000
0001
0000
,
0110
0000
1001
0000
0011
0000
1000
0100
,
0000
1100
0000
0001
0100
0000
0001
0010
,
1000
0000
0001
1000
0100
0010
0001
0200
,
0000
0000
0301
1000
,
0200
0000
2300
0000
3010
0001
1000
0000
,
0100
0001
0010
1000
0010
0100
1000
0000
,
2000
0000
3200
0000
0310
0001
1000
0000
,
0001
0010
0100
1000
0010
0100
0001
0000
,
1000
0000
0100
0010
0000
0001
1000
0000
,
0110
0000
0101
0000
0010
1000
1000
0000
,
0001
0000
0100
0010
0000
0001
1000
0000
,
0101
0010
1000
0001
,
0220
0000
0000
0000
0000
0000
0000
0330
;

//---------------dance-single - ----------------
#NOTES:
     dance-single:
     :
     Medium:
     5:
     0.314,0.310,0.192,0.072,0.000:
0000
0000
0000
0000
,
0000
0000
0000
0000
,
0000
0000
0000
0000
,
0000
0000
0000
0000
,
1000
0001
0100
0100
,
0010
0100
0001
0001
,
1000
0001
0010
0010
,
0100
0010
1000
1000
,
2002
3003
0100
0001
,
0100
0000
0010
0000
1000
0000
0001
1000
,
0000
0000
0001
1000
,
0010
0000
0110
0000
1001
0000
0010
0100
,
0000
1000
0001
1000
,
0100
0000
0101
0000
1010
0000
0100
0001
,
0000
0001
1000
0100
,
0010
0000
0010
0000
0100
0100
0100
0000
,
0001
0000
0001
0000
1000
0100
1000
0000
,
0010
0000
0010
0000
0100
0001
0100
0000
,
0001
1000
1001
0110
,
0001
0000
0100
0000
0010
1000
0010
0000
,
0100
0000
0100
0000
0010
0001
0010
0000
,
1000
0000
1000
0000
0010
1000
0010
0000
,
0001
1001
1000
1001
,
0010
0000
0001
0000
1000
0000
0100
0010
,
1000
0000
0001
0000
1001
0000
0000
0100
,
0000
0010
0000
0001
1000
0000
1000
0100
,
0001
0010
0001
0100
,
2000
0000
0000
3000
,
0001
0000
1000
0000
0110
0000
0000
0100
,
0000
0001
0000
0010
1000
0000
0001
0100
,
1000
0010
1000
0100
,
0002
0000
0000
0003
,
1000
1000
1000
1100
,
0001
0001
0001
0011
,
0100
0100
0100
1010
,
0010
0010
0010
0101
,
1000
0000
0001
0000
1000
0001
1000
0000
,
0010
0000
0100
0000
0010
0100
0010
0000
,
0001
0000
0100
0000
0001
0100
0001
0000
,
1000
0000
0010
0000
1000
0010
1000
0000
,
0020
0000
0000
0000
0000
0030
1000
0000
,
0100
0010
0100
0010
,
0002
0000
0000
0000
0000
0000
1003
1000
,
1000
0000
0001
0001
0001
0000
0100
0000
,
0110
0000
1000
0000
,
0001
0010
0100
1100
,
1100
0000
0000
0000
0000
0010
0001
0001
,
0000
0010
1000
1000
0000
0010
0100
0000
,
1000
0000
0001
0000
1001
0000
0000
0100
,
0000
0010
0000
0001
1000
0000
1000
0100
,
0001
0010
0001
0100
,
2000
0000
0000
3000
,
0001
0000
1000
0000
0110
0000
0000
0100
,
0000
0001
0000
0010
1000
0000
0001
0100
,
1000
0010
1000
0100
,
0002
0000
0000
0003
,
1000
1100
0001
0001
,
0010
0110
0100
0100
,
0001
0101
0001
0001
,
0100
1010
1000
1000
,
0001
0000
0001
0000
1000
0001
0100
0000
,
0100
0000
0100
0000
0010
1000
0001
0000
,
0010
0000
0010
0000
0001
1000
0100
0000
,
1000
0100
0010
0001
,
2000
0000
0000
3000
;

//---------------dance-single - ----------------
#NOTES:
     dance-single:
     :
     Easy:
     3:
     0.225,0.281,0.056,0.096,0.000: // measure 1
0000
0000
0000
0000
,  // measure 2
0000
0000
0000
0000
,  // measure 3
0000
0000
0000
0000
,  // measure 4
0000
0000
0000
0000
,  // measure 5
1000
0000
0001
0001
,  // measure 6
0100
0000
0010
0010
,  // measure 7
0100
0000
1000
1000
,  // measure 8
0001
0000
0010
0010
,  // measure 9
1001
0000
0010
0001
,  // measure 10
1000
0100
0100
0100
,  // measure 11
0000
0000
0001
0100
,  // measure 12
0010
1000
1000
1000
,  // measure 13
0000
0000
0100
1000
,  // measure 14
0010
0001
0001
0001
,  // measure 15
0000
1000
0001
0100
,  // measure 16
0010
0010
0010
0010
,  // measure 17
1000
1001
0100
0010
,  // measure 18
0001
1001
0100
0010
,  // measure 19
0001
0001
1000
1000
,  // measure 20
0001
1000
0001
1000
,  // measure 21
0010
0110
0100
0100
,  // measure 22
0001
0100
1000
0001
,  // measure 23
0010
0100
0010
0100
,  // measure 24
0001
1000
0010
0100
,  // measure 25
1000
0000
0001
0000
,  // measure 26
1000
0100
0001
0000
,  // measure 27
0001
0000
1000
0000
,  // measure 28
0001
0100
1000
0000
,  // measure 29
0010
0000
0100
0000
,  // measure 30
0010
0001
0100
0000
,  // measure 31
0100
0000
0010
0000
,  // measure 32
0100
1000
0010
0000
,  // measure 33
2000
0000
0000
3001
,  // measure 34
0001
0000
0010
0100
,  // measure 35
0002
0000
0000
1003
,  // measure 36
1000
0000
1000
0001
,  // measure 37
0020
0000
0000
0130
,  // measure 38
0100
0000
0001
1000
,  // measure 39
0200
0000
0000
0310
,  // measure 40
0010
0100
0100
0001
,  // measure 41
1001
0000
0000
0000
,  // measure 42
1000
0100
0001
0010
,  // measure 43
0002
0000
0003
1000
,  // measure 44
0100
0010
0001
1000
,  // measure 45
0002
0000
0203
0000
,  // measure 46
0310
0001
1000
0100
,  // measure 47
0200
0000
0000
0300
,  // measure 48
0001
0000
1000
0000
,  // measure 49
0001
0100
1000
0000
,  // measure 50
0010
0100
0010
0000
,  // measure 51
1000
0100
0001
0000
,  // measure 52
0100
0010
0100
0000
,  // measure 53
0001
0001
0001
0000
,  // measure 54
1000
1000
1000
0000
,  // measure 55
0010
0100
0001
1000
,  // measure 56
1001
0000
0010
0001
,  // measure 57
2000
0000
0000
3001
,  // measure 58
0001
0000
0010
0100
,  // measure 59
0002
0000
0000
1003
,  // measure 60
1000
0000
1000
0001
,  // measure 61
0020
0000
0000
0130
,  // measure 62
0100
0000
0001
1000
,  // measure 63
0200
0000
0000
0310
,  // measure 64
0010
1000
0001
0010
,  // measure 65
1001
0000
0000
0000
;

//---------------dance-single - ----------------
#NOTES:
     dance-single:
     :
     Beginner:
     1:
     0.122,0.153,0.032,0.000,0.000:
0000
0000
0000
0000
,
0000
0000
0000
0000
,
0000
0000
0000
0000
,
0000
0000
0000
0000
,
1000
0000
0000
0000
,
0001
0000
0000
0000
,
1000
0000
0000
0000
,
0001
0000
0000
0000
,
0100
0000
0000
0000
,
0010
0000
0000
0000
,
0100
0000
0000
0000
,
0010
0000
0000
0000
,
0001
0001
0000
0000
,
1000
1000
0000
0000
,
0010
0010
0000
0000
,
0100
0100
0100
0000
,
0001
0000
0001
0000
,
1000
0000
1000
0000
,
0001
0000
0010
0000
,
0100
0000
1000
0000
,
0010
0000
0010
0000
,
0100
0000
0100
0000
,
1000
0000
0100
0000
,
0010
0000
0001
0000
,
1000
0000
0001
0000
,
1000
0000
1000
0000
,
0001
0000
1000
0000
,
0001
0000
0001
0000
,
0010
0000
0100
0000
,
0010
0000
0010
0000
,
0100
0000
0010
0000
,
0100
0000
0100
0000
,
0001
0000
0000
0000
,
1000
0000
0000
0000
,
0010
0000
0000
0000
,
0100
0000
0000
0000
,
0010
0000
0000
0000
,
0100
0000
0000
0000
,
0001
0000
0000
0000
,
1000
0000
0000
0000
,
1001
0000
0000
0000
,
0010
0000
0100
0000
,
1001
0000
0000
0000
,
0001
0001
0000
0000
,
1000
1000
0000
0000
,
0001
0000
0010
0000
,
1000
0000
0100
0000
,
1001
0000
0000
0000
,
1000
0000
0001
0000
,
1000
1000
0000
0000
,
0001
0000
1000
0000
,
0001
0001
0000
0000
,
0010
0000
0100
0000
,
0010
0010
0000
0000
,
0100
0000
0010
0000
,
0100
0100
0000
0000
,
0001
0000
1000
0000
,
1000
0000
0001
0000
,
0010
0000
0100
0000
,
0100
0000
0010
0000
,
0010
0000
1000
0000
,
0100
0000
0001
0000
,
0001
0000
0010
0000
,
1000
0000
0001
0000
,
1001
0000
0000
0000
;
