#TITLE:Here I Come;
#SUBTITLE:;
#ARTIST:Fergie;
#TITLETRANSLIT:;
#SUBTITLETRANSLIT:;
#ARTISTTRANSLIT:;
#CREDIT:;
#BANNER:Here I Come-bn.PNG;
#BACKGROUND:Here I Come-bg.PNG;
#LYRICSPATH:;
#CDTITLE:;
#MUSIC:Here I Come.mp3;
#OFFSET:-0.322;
#SAMPLESTART:82.300;
#SAMPLELENGTH:11.980;
#SELECTABLE:YES;
#BPMS:0.000=120.000;
#STOPS:;
#BGCHANGES:;

//---------------dance-single - ----------------
#NOTES:
     dance-single:
     :
     Easy:
     2:
     0.195,0.247,0.087,0.069,0.000:
0000
0000
0000
0000
,
0000
0000
0000
0000
,
0000
0000
0000
0000
,
0000
0000
0000
0000
,
1000
0000
0010
0000
,
0001
1000
0100
0000
,
0010
0000
1000
0000
,
0001
0100
0010
0000
,
0010
0000
1001
0000
,
0100
0100
1001
0000
,
0001
0000
1000
0000
,
0100
0010
0010
0000
,
1000
1000
1000
0100
,
0010
0010
0010
0001
,
0100
0100
0100
1000
,
0010
0000
1001
1001
,
0001
0001
0001
0010
,
0100
0100
0100
0010
,
1000
1000
1000
0001
,
0100
0000
0110
0000
,
1000
0000
1000
0100
,
0010
0000
0010
0001
,
2000
0000
0000
3000
,
0002
0000
0000
0003
,
0001
0000
0001
0100
,
0010
0000
0010
1000
,
0020
0000
0000
0030
,
0200
0000
0000
0300
,
0001
0000
1000
0000
,
1000
0100
0001
0100
,
0010
0000
0100
0000
,
0010
1000
0010
0001
,
1001
0000
0110
0000
,
0010
0000
0100
0000
,
0110
0000
1001
0000
,
0001
0000
1000
0000
,
0001
0000
1000
1000
,
0010
0000
0100
0100
,
0001
0000
0000
0000
,
1000
0000
0001
0000
,
0010
1000
0100
0001
,
0001
0000
0001
0010
,
0100
0000
0100
1000
,
0020
0000
0000
0030
,
0002
0000
0000
0003
,
0100
0000
0100
1000
,
0001
0000
0001
0010
,
0200
0000
0000
0300
,
2000
0000
0000
3000
,
0001
0000
1000
0000
,
0001
1000
0001
1000
,
0010
0000
0100
0000
,
0010
0100
0010
0100
,
0001
0000
1000
0000
,
0010
0001
0100
1000
,
0010
0000
0100
0000
,
0010
1000
0100
0001
,
1001
0000
0000
0000
;

//---------------dance-single - ----------------
#NOTES:
     dance-single:
     :
     Medium:
     5:
     0.306,0.346,0.295,0.139,0.000:
0000
0000
0000
0000
,
0000
0000
0000
0000
,
0000
0000
0000
0000
,
0000
0000
0000
0000
,
1000
0001
0100
0110
,
0001
1000
0100
1100
,
0010
0001
0100
0101
,
0010
0100
0010
1001
,
0001
0000
0001
0000
1000
1000
1000
0000
,
0100
0010
0001
0101
,
0010
0000
0100
0000
0001
0001
0001
0000
,
0100
0010
1100
0101
,
1000
0000
1000
0000
1000
0100
0001
0000
,
0010
0100
0010
0110
,
0001
0000
0001
0000
0001
0100
1000
0000
,
0001
0100
0011
1100
,
0010
0000
0001
0000
0100
0100
0100
0000
,
0010
0100
0001
0101
,
0010
0100
0001
0000
,
0010
0000
0100
0000
0010
0100
1000
0000
,
0002
0000
0203
0000
,
0301
0001
1000
1000
,
0020
0000
0100
0130
,
0200
0000
0010
0310
,
0020
0000
2030
0000
,
3100
0100
0010
0010
,
0002
0000
1000
1003
,
2000
0000
0001
3001
,
1100
0000
0101
0000
,
0010
0000
0100
0000
0010
0001
0100
0000
,
1010
0000
0011
0000
,
0100
0000
0010
0000
0100
1000
0010
0000
,
0101
0000
1010
0000
,
0010
0100
0001
1000
,
0011
0000
1100
0000
,
1000
0001
0010
0100
,
1000
0000
0100
0000
1000
0001
0100
0000
,
0001
0000
0100
0000
0001
1000
0100
0000
,
1001
0000
0000
0000
,
1000
0000
0100
0000
0010
0010
0001
0000
,
0001
0000
1000
0000
0010
0100
0110
0000
,
0002
0000
0203
0000
,
0301
0010
0010
1000
,
0020
0000
1000
1030
,
0200
0000
0001
0301
,
0020
0000
2030
0000
,
3100
0001
0001
0010
,
0002
0000
0100
0103
,
2000
0000
0010
3010
,
1010
0000
0011
0000
,
1000
0000
0001
0000
0010
0001
1000
0000
,
0101
0000
1100
0000
,
0001
0000
1000
0000
0010
1000
0001
0000
,
0101
1010
1100
0011
,
0010
0000
1000
0000
0001
0010
1000
0000
,
0011
1100
0101
1010
,
0010
0000
0001
0000
1000
0010
0001
0000
,
1001
0000
0000
0000
;

//---------------dance-single - ----------------
#NOTES:
     dance-single:
     :
     Hard:
     7:
     0.407,0.445,0.226,0.130,0.017:
0000
0000
0000
0000
,
0000
0000
0000
0000
,
0000
0000
0000
0000
,
0000
0000
0000
0000
,
1000
0000
0001
0000
1000
0001
0100
0000
,
0001
0010
0100
1000
0100
0000
1001
0000
,
1000
0100
0010
0001
0100
0000
1001
0000
,
0010
0000
0100
0000
0010
0010
0100
0000
,
1000
0000
1000
0000
0001
0100
0001
0000
,
0001
0000
0001
0000
0010
1000
0010
0000
,
0001
0000
1000
0000
0010
1000
0100
0000
,
0001
1000
0001
1000
1001
0000
0110
0000
,
0001
0001
0001
0010
0100
1000
1000
0000
,
0010
0100
0010
0001
1000
1000
1000
0000
,
0100
0000
0100
0000
1000
0000
0001
0000
0100
0000
0010
0000
1000
0000
0001
1000
,
0001
0110
0000
0011
0000
1100
0000
0001
,
1000
0010
0100
0010
0010
0100
0100
0001
,
1000
0100
0010
0001
0001
1000
1000
0010
,
0100
0000
0001
0000
1000
0000
0010
0000
0010
0000
0100
0000
0100
0000
0001
0100
,
0001
0110
0000
1100
0000
0202
0000
0303
,
0000
0100
1000
0000
0010
0001
0100
0000
,
0020
0130
0200
0310
,
0001
0000
1000
0000
0010
0001
0100
0000
,
0001
0000
1000
0000
0010
1000
0100
0000
,
0000
0001
0100
0000
1000
1000
0001
0000
,
2000
3100
0002
0103
,
0010
0000
0010
0000
0100
1000
0100
0000
,
0001
0000
1000
0000
0001
0100
0001
0000
,
0001
0001
0001
0110
,
1000
1000
1000
0011
,
0100
0100
0100
0101
,
0010
0010
0010
1001
,
0002
0000
1003
0000
0010
0100
1000
0000
,
2000
0000
3001
0000
0010
0100
0001
0000
,
0001
0000
1000
0000
0010
0100
0010
0000
,
0001
0000
0100
0000
0001
0000
0100
0000
0010
0000
0000
0001
1000
0000
0000
0000
,
0100
1000
0010
0000
0001
1000
0100
0000
,
0001
0100
1000
0000
1000
0100
0001
0000
,
1000
1000
0100
0100
0010
0010
0001
0001
,
0110
0000
0000
0000
1001
0000
0000
0000
0100
0000
0000
0010
0100
0000
0000
0000
,
0002
0000
1003
0000
0100
0010
0100
0000
,
0000
0010
1000
0000
1000
0001
0100
0000
,
0002
0103
2000
3010
,
0101
0000
1010
0000
1000
0100
0001
0000
,
0011
0000
1100
0000
0001
0010
1000
0000
,
0000
0001
0010
0000
0100
1000
0001
0000
,
0020
0130
2000
3001
,
0100
0000
0010
0000
0100
1000
0001
0000
,
0001
0000
1000
0000
0010
1000
0001
0000
,
0110
0000
1001
0000
0010
0100
0100
0000
,
0010
0100
0001
1000
0001
0001
0001
0000
,
0011
0000
1100
0000
0100
0001
0001
0000
,
0001
1000
0010
0100
1000
1000
1000
0000
,
0002
0010
1000
0103
,
2000
0010
0001
3100
,
0001
0100
0001
1001
,
1000
0000
0100
0000
0010
0001
1000
0100
,
1100
0000
0000
0000
;

//---------------dance-single - ----------------
#NOTES:
     dance-single:
     :
     Beginner:
     1:
     0.108,0.148,0.026,0.000,0.000:
0000
0000
0000
0000
,
0000
0000
0000
0000
,
0000
0000
0000
0000
,
0000
0000
0000
0000
,
1000
0000
0000
0000
,
0001
0000
0000
0000
,
1000
0000
0000
0000
,
0001
0000
0000
0000
,
0010
0000
0000
0000
,
0100
0000
0000
0000
,
0010
0000
0000
0000
,
0100
0000
0000
0000
,
0001
0000
0001
0000
,
1000
0000
1000
0000
,
0010
0000
0010
0000
,
1001
0000
0000
0000
,
0010
0000
0010
0000
,
0100
0000
0100
0000
,
0001
0000
1000
0000
,
1001
0000
0000
0000
,
1000
0000
1000
0000
,
0100
0100
0100
0000
,
0010
0000
0000
0000
,
0010
0000
0000
0000
,
0001
0000
0001
0000
,
0100
0100
0100
0000
,
0010
0000
0000
0000
,
0010
0000
0000
0000
,
0001
0000
0000
0000
,
0010
0000
0000
0000
,
0100
0000
0000
0000
,
1000
0000
0000
0000
,
0001
0000
0010
0000
,
0100
0000
1000
0000
,
1000
0000
0100
0000
,
0010
0000
0001
0000
,
1000
0000
0000
0000
,
0001
0001
0000
0000
,
0001
0000
0000
0000
,
1000
0000
0000
0000
,
0010
0000
0000
0100
,
0100
0000
0100
0000
,
0001
0001
0001
0000
,
0010
0000
0010
0000
,
1000
1000
1000
0000
,
0001
0000
1000
0000
,
0010
0000
0100
0000
,
0010
0010
0000
0000
,
0100
0100
0000
0000
,
0001
0000
0000
0000
,
1000
0000
0000
0000
,
0010
0000
0000
0000
,
0100
0000
0000
0000
,
0100
0000
0000
0000
,
0010
0000
0000
0000
,
0001
0000
1000
0000
,
0010
0000
0100
0000
,
1001
0000
0000
0000
;
