#TITLE:Floorfiller;
#SUBTITLE:;
#ARTIST:A*Teens;
#TITLETRANSLIT:;
#SUBTITLETRANSLIT:;
#ARTISTTRANSLIT:;
#CREDIT:;
#BANNER:;
#BACKGROUND:;
#LYRICSPATH:;
#CDTITLE:;
#MUSIC:Floorfiller.mp3;
#OFFSET:-1.200;
#SAMPLESTART:56.220;
#SAMPLELENGTH:12.000;
#SELECTABLE:YES;
#BPMS:0.000=122.000;
#STOPS:;
#BGCHANGES:-2.500=Floorfiller.avi=1.000=1=1=0
;

//---------------dance-single - ----------------
#NOTES:
     dance-single:
     :
     Hard:
     6:
     0.405,0.421,0.193,0.132,0.000: // measure 1
0000
0000
0000
0000
,  // measure 2
0000
0000
0000
0000
,  // measure 3
0000
0000
0000
0000
,  // measure 4
0000
0000
0000
0000
,  // measure 5
1000
0000
0100
0010
0001
0000
1000
0002
,  // measure 6
0000
0000
1003
0000
0100
0010
0010
0000
,  // measure 7
0001
0000
0010
0100
1000
0000
0001
2000
,  // measure 8
0000
0000
3001
0000
0100
0001
0100
0000
,  // measure 9
1000
0000
0001
1000
0100
0000
0100
0000
,  // measure 10
1001
0000
1000
0001
0100
0000
0101
0000
,  // measure 11
0010
0000
1000
0100
0010
0000
1000
0001
,  // measure 12
0100
0010
1000
0001
0100
0000
1000
0100
,  // measure 13
0001
0000
0001
0100
1000
0000
1000
0010
,  // measure 14
0001
0000
1001
0000
0101
0000
0010
0001
,  // measure 15
1000
0000
0100
0001
1000
0000
0001
1000
,  // measure 16
0010
0100
0010
1001
,  // measure 17
0100
0000
0010
0100
0100
0000
0001
1000
,  // measure 18
1000
0000
0100
0010
0001
0000
0110
0000
,  // measure 19
0010
0000
1000
0100
1000
0000
0010
0001
,  // measure 20
0100
0010
1000
0100
0001
0000
0010
1000
,  // measure 21
0100
0000
0100
1000
0010
0000
0100
0001
,  // measure 22
0010
0000
0001
0000
1001
0000
0001
0100
,  // measure 23
0001
0000
0010
1000
0010
0000
0001
1000
,  // measure 24
0001
0010
0110
0100
,  // measure 25
0002
0000
1000
0103
,  // measure 26
0010
0100
2000
0000
0100
0000
3001
0000
,  // measure 27
1000
1100
0001
0101
0010
0100
0110
1001
,  // measure 28
0200
0020
0000
0330
,  // measure 29
1000
0000
0001
0100
0010
1000
0000
0100
,  // measure 30
0010
0000
0101
0000
0010
0100
0100
0000
,  // measure 31
0001
1000
0001
0100
0010
0100
0010
0000
,  // measure 32
1000
0000
1100
0000
0010
0001
1000
0000
,  // measure 33
1000
0100
0010
0001
,  // measure 34
1000
0100
0010
0000
0001
0010
0100
0000
,  // measure 35
2000
0100
3100
0000
0020
0001
0031
0000
,  // measure 36
2000
0001
3001
0000
0010
1000
0001
0000
,  // measure 37
1000
0010
0100
0001
0010
1000
1010
0000
,  // measure 38
0001
0100
0010
1000
0100
0001
0101
0000
,  // measure 39
0010
0001
1000
0000
0100
0001
1000
0000
,  // measure 40
0010
0100
1000
0001
0100
0010
1001
0000
,  // measure 41
2000
3010
0200
0301
,  // measure 42
0100
0001
0010
0000
1000
0001
0010
0000
,  // measure 43
1000
0100
1000
0000
0100
0001
0100
0000
,  // measure 44
0010
1000
0010
0000
0001
0100
0001
0000
,  // measure 45
1001
0000
0010
1000
0001
0000
0010
0001
,  // measure 46
0100
0000
0001
1000
0100
0010
0001
1000
,  // measure 47
0100
0000
0001
0100
0010
0000
1000
0100
,  // measure 48
0001
0000
1000
0001
1000
0100
1000
0010
,  // measure 49
0202
0000
0000
0000
0000
0000
0000
0303
;

//---------------dance-single - ----------------
#NOTES:
     dance-single:
     :
     Medium:
     5:
     0.307,0.322,0.152,0.122,0.000:
0000
0000
0000
0000
,
0000
0000
0000
0000
,
0000
0000
0000
0000
,
0000
0000
0000
0000
,
1000
0001
0100
0010
,
1000
0000
0100
0000
0001
0001
0001
0000
,
0010
0100
0001
1000
,
0100
0000
0010
0000
1000
1000
1000
0000
,
1000
1000
1000
1100
,
0001
0001
0001
0101
,
0010
0000
0100
0000
0001
1000
0100
0000
,
0010
0000
0100
0000
0010
0100
0010
0000
,
1000
0000
1000
0100
0001
0000
0001
0000
,
0001
0100
0110
1001
,
0001
0000
0001
0100
1000
0000
1000
0000
,
1000
0010
0110
1001
,
1000
0000
0010
0010
0001
0000
0100
0000
,
0010
0000
1000
1000
0100
0000
1000
0000
,
0010
0000
0001
0001
0010
0000
1000
0000
,
0100
0000
0100
0100
1000
0000
1000
0000
,
0001
0000
0100
0010
0100
0000
0001
0000
,
1000
0110
1001
0100
,
0001
0000
0001
1000
0001
0000
1000
0001
,
1000
0100
0110
0001
,
2000
0000
0000
3000
,
0002
0000
0000
0003
,
1000
0100
0010
0001
,
1000
0001
1001
0000
,
1000
0010
1000
0010
,
0100
0001
0100
0001
,
1000
0010
0001
0000
0010
0000
0010
0000
,
1000
0100
0001
0000
0100
0000
0100
0000
,
0001
0000
1000
0000
0001
1000
0001
0000
,
0010
0000
0100
0000
0010
0100
0010
0000
,
0002
0000
2003
0000
,
3200
0000
0320
0000
,
0031
0100
0010
1000
,
1000
0010
0100
0001
,
1000
1000
1000
0000
0001
0000
0100
0000
,
0010
0010
0010
0000
1000
0000
0100
0000
,
0001
0000
0100
0000
0001
0100
0001
0000
,
1000
0000
0100
0000
1000
0100
1000
0000
,
0020
0000
0032
0000
,
2003
0000
3200
0000
,
0301
1000
0110
1001
,
0100
0000
0001
0000
0010
1000
0010
0000
,
0100
0010
1001
0110
,
1000
0000
0100
0000
0010
0001
0010
0000
,
2200
0000
0000
0000
0000
0000
0000
3300
;

//---------------dance-single - ----------------
#NOTES:
     dance-single:
     :
     Easy:
     3:
     0.198,0.223,0.051,0.152,0.000:
0000
0000
0000
0000
,
0000
0000
0000
0000
,
0000
0000
0000
0000
,
0000
0000
0000
0000
,
1000
0000
0001
0000
,
0100
0010
0100
0010
,
0100
0000
0010
0000
,
0001
1000
0001
1000
,
0100
0000
0010
0010
,
1001
0100
0100
0000
,
0001
0000
1000
1000
,
0110
0001
0001
0000
,
2000
0000
3100
0000
,
0002
0000
0103
0000
,
0020
0000
1030
0000
,
0100
0100
0100
1001
,
0001
0000
0100
0010
,
1000
0000
0001
0001
,
1000
0000
0100
0000
,
0010
0100
0001
0000
,
0200
0000
1300
0000
,
0020
0000
0031
0000
,
0002
0000
0103
0000
,
2000
0000
3010
0000
,
1000
0000
0100
0100
,
0001
0000
0010
0010
,
1000
0001
1000
0001
,
2002
0000
0000
3003
,
1000
0000
0010
0000
,
1000
0100
0001
0100
,
0010
0000
0100
0000
,
0001
0010
1000
0010
,
0001
0001
0100
0000
,
1000
1000
0100
0000
,
0002
0000
0000
0000
,
2003
0000
0000
0000
,
3001
0000
0100
0000
,
0010
0001
0010
0001
,
1000
0000
0010
0000
,
1000
0100
1000
0100
,
1000
0000
0001
0001
,
0100
0000
0010
0010
,
0200
0000
0000
0000
,
0320
0000
0000
0000
,
1030
0000
1000
0000
,
0001
0001
0001
0001
,
0100
0000
0100
0000
,
0010
0010
0010
0010
,
2002
0000
0000
0000
,
3003
0000
0000
0000
;

//---------------dance-single - ----------------
#NOTES:
     dance-single:
     :
     Beginner:
     1:
     0.122,0.146,0.071,0.000,0.000:
0000
0000
0000
0000
,
0000
0000
0000
0000
,
0000
0000
0000
0000
,
0000
0000
0000
0000
,
1000
0000
0000
0000
,
0010
0000
0000
0000
,
0001
0000
0000
0000
,
0100
0000
0000
0000
,
0001
0001
0000
0000
,
1000
1000
0000
0000
,
0100
0100
0000
0000
,
0010
0010
0000
0000
,
1000
0000
0001
0000
,
1000
0000
0000
0000
,
0001
0000
1000
0000
,
0001
0000
0000
0000
,
0100
0100
0000
0000
,
0010
0010
0000
0000
,
0001
0001
0000
0000
,
1000
1000
0000
0000
,
0010
0000
0100
0000
,
0010
0000
0000
0000
,
0100
0000
0010
0000
,
0100
0000
0000
0000
,
1001
0000
0000
0000
,
1001
0000
0000
0000
,
0010
0010
0000
0000
,
1001
0000
0000
0000
,
1000
0000
0100
0000
,
1000
0000
0001
0001
,
0001
0000
0010
0000
,
0001
0000
1000
1000
,
1000
0000
0100
0000
,
0010
0000
0001
0000
,
1001
0000
0000
0000
,
0110
0000
0000
0000
,
0010
0000
0001
0000
,
0010
0000
0100
0100
,
0100
0000
1000
0000
,
0100
0000
0010
0010
,
0010
0000
0100
0000
,
0001
0000
1000
0000
,
0110
0000
0000
0000
,
1001
0000
0000
0000
,
1000
0000
0001
0000
,
1000
0000
0000
0000
,
0100
0000
0010
0000
,
0100
0000
0010
0000
,
0100
0000
0000
0000
;
