#TITLE:Drop Out (Sky Lab Mix);
#SUBTITLE:;
#ARTIST:NW260 Remix;
#TITLETRANSLIT:;
#SUBTITLETRANSLIT:;
#ARTISTTRANSLIT:;
#CREDIT:;
#BANNER:;
#BACKGROUND:;
#LYRICSPATH:;
#CDTITLE:;
#MUSIC:Drop Out (Sky Lab Mix).mp3;
#OFFSET:-0.020;
#SAMPLESTART:100.000;
#SAMPLELENGTH:12.000;
#SELECTABLE:YES;
#BPMS:0.000=131.000,35.000=262.001,163.000=131.000,165.750=262.000,166.000=261.999,356.000=130.999,357.000=130.998,363.750=261.999;
#STOPS:32.000=0.260
,32.500=0.260
,163.000=0.260
,163.500=0.260
,361.000=0.260
,361.500=0.260
;
#BGCHANGES:;

//---------------dance-single - ----------------
#NOTES:
     dance-single:
     :
     Hard:
     10:
     0.645,0.728,0.329,0.031,0.000:
0000
0000
0000
0000
,
0000
0000
0000
0000
,
0000
0000
0000
0000
,
0000
0000
0000
0000
,
1000
1100
0001
0101
,
0010
0110
1000
1001
,
0001
0011
1000
1010
,
1001
0110
1001
0110
,
0001
1000
0010
1000
0100
0000
0010
0000
,
0001
1001
0000
0010
,
0001
1000
0100
0010
,
0001
1001
0000
0010
,
0001
0100
0010
1000
,
1000
1100
0000
0010
,
1000
0100
0010
0001
,
0001
0101
0000
0100
,
0010
0110
0000
1000
,
0001
0100
0000
0010
,
0001
1000
0001
0000
0100
0000
0010
0000
,
1000
0101
0000
0010
,
1000
0100
1000
0000
0010
0000
0001
0000
,
0100
1100
0000
0010
,
0001
0010
0001
0000
1000
0000
0100
0000
,
0001
1100
0000
0010
,
0001
1000
0001
0000
0010
0000
1000
0100
,
0000
1000
0100
0000
0010
0000
0001
0100
,
0000
0001
0100
0000
0010
0000
1000
0001
,
0000
1000
0001
0000
0100
0000
0001
0000
,
1000
1010
0000
0110
,
0001
1000
0000
1000
0001
0000
0110
0000
,
1000
0001
0000
0001
1000
0000
0010
0000
,
0100
0000
0001
0000
1000
0000
0100
0010
,
0000
0100
0010
0000
0000
0000
0010
0000
,
0001
1000
0100
0000
1001
0000
0010
0000
,
1000
0001
0010
0000
0100
0000
0110
0000
,
0001
1000
0100
0000
1001
0000
0000
0000
,
1100
0101
0000
0100
,
0001
0100
0000
0100
0001
0000
1000
0000
,
0010
1000
0000
1000
0010
0000
0100
0000
,
0001
0010
0000
0001
1000
0000
1100
0000
,
0110
0000
0011
0000
0000
0000
0001
1000
,
0001
1000
0100
0000
1000
0000
0001
0000
,
0010
0000
0010
0010
,
0100
0100
1000
0001
,
0100
0000
0001
1000
,
0010
0100
0001
0100
,
0101
0000
1000
1000
,
0001
0001
0010
1000
,
0100
0000
0000
0000
0001
0000
0100
0010
,
0100
0000
1000
0100
,
1100
0000
0000
0000
0100
0000
0001
0100
,
0010
0010
0001
0001
,
0101
0000
0000
0000
0010
0000
1000
0100
,
0010
0010
0001
1000
,
1001
0000
0000
0000
0001
0000
1000
0001
,
0100
0100
0010
1000
,
0100
0000
0011
1001
,
1100
0000
0000
0000
0001
0000
0001
0100
,
0000
0010
1000
0000
0001
0000
1000
0100
,
0000
0010
0001
0000
1000
0000
0010
0100
,
0000
0001
1000
0000
0100
0000
0100
0000
,
0100
0000
0000
0000
0010
0000
0100
0010
,
0000
1000
0001
0000
1000
0000
0010
1000
,
0000
0001
0100
0000
0010
0000
1000
0001
,
0000
0100
0010
0000
1000
0000
0001
0000
,
1001
0000
0000
0000
1000
0000
0100
0001
,
0000
0010
0001
0000
1000
0000
0100
1000
,
0000
0010
1000
0000
0001
0000
0100
0010
,
0000
0100
0010
0000
1001
0000
0000
0000
,
0100
0010
0100
0000
0001
0000
1000
0100
,
0000
1000
0100
0000
1000
0000
0001
0100
,
0000
0001
0100
0000
0010
0000
0100
0001
,
0000
1000
0100
0000
0010
0000
0100
0000
,
0110
0000
1000
1000
,
0001
0001
0010
0010
,
0100
0100
0001
1000
,
0010
0100
0010
1000
,
0001
0000
0001
0100
,
1000
0100
0001
0010
,
1000
0010
0001
0100
,
1000
0100
0001
0010
,
1000
0000
0010
0010
,
0001
0001
1000
1000
,
0100
0100
0010
0001
,
1000
0100
0100
1000
,
0001
0000
0001
0010
,
1000
0010
0001
0100
,
1000
0100
0001
0010
,
1000
0010
0001
0100
,
1000
0002
0013
2000
,
3100
0000
1100
0011
0100
0010
0001
0000
,
1000
1000
0001
0001
,
0001
0100
0001
0000
1000
0100
1000
0000
,
0010
0010
0100
0100
,
0010
0100
0010
0100
0010
0100
0010
0000
,
0001
0001
0100
0100
,
0010
1000
0010
0000
1000
0010
1000
0000
,
1000
1000
0010
0010
,
0001
0100
0001
0100
0001
0000
0000
0000
,
1000
1000
0001
0001
,
0100
0001
0100
0000
0010
1000
0010
0000
,
0100
0100
0001
0001
,
1000
0001
1000
0001
1000
0001
1000
0000
,
0001
0100
0010
1000
,
0010
1000
0001
0000
0001
1000
0100
0000
,
0001
0001
0100
0100
,
0010
1000
0010
1000
0010
0000
0000
0000
,
0001
0000
1000
0000
0001
1000
0001
0000
,
0010
0001
1000
0100
0010
0001
1000
0000
,
0010
0100
0001
0010
,
0100
1000
0001
0100
0010
1000
0001
0000
,
1000
0010
1000
0010
,
0100
0010
1000
0010
1000
0010
0100
0000
,
0001
0010
0001
0010
,
0001
0010
0100
0010
0100
0000
0000
0000
,
0010
1000
0100
0000
0010
0001
0100
0000
,
0010
1000
0100
0010
0001
0100
0010
0000
,
1000
0001
0100
0000
0001
1000
0100
0000
,
0010
1000
0010
0100
0001
1000
0010
0000
,
0001
0010
0100
0000
1000
0010
0100
0000
,
0001
1000
0001
0010
0001
0100
0001
0000
,
1000
0001
1000
0000
0010
0100
0010
0000
,
0001
1000
0010
0100
0010
0000
0000
0000
,
2002
0000
0000
0000
,
3003
0000
0000
0000
;

//---------------dance-single - ----------------
#NOTES:
     dance-single:
     :
     Medium:
     7:
     0.443,0.534,0.298,0.031,0.000:
0000
0000
0000
0000
,
0000
0000
0000
0000
,
0000
0000
0000
0000
,
0000
0000
0000
0000
,
1000
0001
0010
0010
,
0001
1000
0100
0100
,
0001
0010
0100
1000
,
1000
0010
0100
0001
,
0001
0010
0100
0000
1001
0000
1000
0000
,
0000
1000
0000
0010
,
0001
0100
0010
1000
,
0000
1000
0000
0010
,
0001
0100
0010
1000
,
0000
1000
0000
0010
,
0001
0100
0010
1000
,
0000
1000
0000
0010
,
0001
1000
0000
0010
,
0000
0100
0000
0010
,
1000
0100
0010
0010
,
0000
0100
0000
0010
,
0001
0100
0010
0010
,
0000
0100
0000
0001
,
0010
0100
1000
1000
,
0000
0100
0000
0010
,
0001
1000
0000
1001
,
0000
0010
0000
1001
,
0000
0010
0000
1001
,
0000
0100
0000
1000
,
0100
0010
0001
0001
,
0000
0110
0000
1000
,
0000
0110
0000
0001
,
0000
0110
0000
0001
,
1000
0100
0000
1000
,
0000
1100
0000
0001
,
0000
0101
0000
1000
,
0000
1010
0000
0001
,
0100
0010
1000
1000
,
0000
0101
0000
0001
,
0000
1100
0000
0001
,
0000
0011
0000
0001
,
0100
0000
0010
0000
0000
0000
1000
0100
,
0010
1001
0010
1000
,
0100
0000
0010
0001
,
0100
0010
1000
0100
,
0010
0000
0010
1000
,
0100
0010
0001
0100
,
0010
0000
0010
0001
,
0100
0010
1000
0100
,
0010
0000
0010
0100
,
0001
0000
0001
0100
,
1000
0000
0001
0100
,
1000
0100
0001
0010
,
0010
0000
1000
0100
,
0001
0100
1000
0010
,
0010
0000
0001
0100
,
1000
0100
0001
0010
,
0010
0000
0010
0100
,
1000
0000
0001
0000
,
0101
0000
1000
0000
,
1010
0000
0010
0000
,
0011
0000
0100
0000
,
1100
1000
1000
0000
,
0000
0001
0001
0000
,
0000
0010
0010
0000
,
0000
0100
0100
0001
,
1000
0000
0100
0000
,
1001
0000
0010
0000
,
1001
0000
0011
0000
,
1100
0000
1010
0000
,
0101
0001
0001
0000
,
0000
0010
0010
0000
,
0000
0100
0100
0000
,
0000
1000
1000
0010
,
0100
0000
0001
0000
,
0110
0000
1000
0000
,
0110
0000
0001
0000
,
0110
0000
1000
0100
,
0001
0100
0010
0000
,
1001
0000
0010
0000
,
1001
0000
0100
0000
,
1001
0000
0100
0100
,
0100
0000
0001
0000
,
0101
0000
0001
0000
,
0101
0000
1000
0000
,
1100
0000
0010
0001
,
0100
1000
1000
0000
,
1010
0000
1000
0000
,
1010
0000
0001
0000
,
0101
0000
1000
0010
,
0100
2000
3001
0002
,
1003
0000
0100
0001
0100
0000
1001
0000
,
1000
0001
0100
0000
,
0010
0001
1000
0000
,
0010
0001
0100
0000
,
0010
1000
0100
0000
,
0100
0001
0001
0000
,
0010
1000
1000
0000
,
0010
1000
0001
0100
,
0001
0001
0000
0000
,
1000
1000
0001
0000
,
0010
0010
0100
0000
,
1000
0001
0010
0100
,
1000
0001
0010
0000
,
0100
0100
0010
0000
,
1000
1000
0001
0000
,
0100
0010
1000
0001
,
0100
0010
0000
0000
,
0001
0100
0100
0001
,
1000
0100
0100
1000
,
0001
0010
0100
1000
,
0001
0001
0001
0000
,
0010
0001
0001
0010
,
0100
1000
1000
0100
,
1000
0100
0010
0001
,
1000
1000
1000
0000
,
0001
0100
0010
0010
,
1000
0100
0010
0010
,
0001
1000
0100
0010
,
0001
0100
0010
0000
,
1000
0010
0100
0100
,
0001
0010
0100
0100
,
1000
0001
0010
0100
,
1000
0010
0100
0000
,
0220
0000
0000
0000
,
0330
0000
0000
0000
;

//---------------dance-single - ----------------
#NOTES:
     dance-single:
     :
     Easy:
     4:
     0.329,0.434,0.110,0.000,0.000:
0000
0000
0000
0000
,
0000
0000
0000
0000
,
0000
0000
0000
0000
,
0000
0000
0000
0000
,
1000
0000
0001
0000
,
0010
0010
0010
0000
,
1000
0000
0001
0000
,
0100
0100
0100
0000
,
1001
0000
0000
1000
,
0000
1000
0000
0001
,
0000
0001
0000
0010
,
0000
0010
0000
0100
,
0000
0100
0000
0001
,
0000
0001
0000
1000
,
0000
1000
0000
0100
,
0000
0100
0000
0010
,
0000
0010
0000
0001
,
0000
0100
0000
1000
,
0000
0100
0000
0001
,
0000
0010
0000
1000
,
0000
0010
0000
0010
,
0000
0001
0000
0010
,
0000
0001
0000
1000
,
0000
0100
0000
1000
,
0000
0100
0000
0001
,
0000
0001
0000
1000
,
0000
1000
0000
0010
,
0000
0100
0000
0001
,
0010
0100
1000
0000
,
0001
0000
0001
0000
,
1000
0000
1000
0000
,
0010
0000
1001
0000
,
0010
0010
0000
0001
,
0000
1000
0000
0010
,
0000
0100
0000
0001
,
0000
1000
0000
0001
,
0010
0100
1000
0000
,
0001
0000
0001
0000
,
1000
0000
1000
0000
,
0010
0000
1001
0000
,
0100
0100
0000
1001
,
0000
0000
0001
0001
,
0001
0000
0010
0000
,
0100
0000
1000
1000
,
1000
0000
0100
0000
,
0100
0000
0010
0010
,
0010
0000
1000
0000
,
0001
0000
0100
0100
,
0100
0000
1000
0000
,
0001
0000
1000
0010
,
0100
0000
0001
0000
,
0001
0000
0001
0100
,
0010
0000
1000
0000
,
1000
0000
0001
1000
,
0100
0000
0010
0000
,
0010
0000
0001
1000
,
0010
0000
0100
0000
,
0100
0000
0010
0000
,
0100
0000
0010
0000
,
0100
0000
0001
0000
,
1000
0000
0001
0000
,
1000
0000
0001
0001
,
0001
0000
1000
1000
,
1000
0000
0100
0100
,
0100
0000
0000
0010
,
0010
0000
0001
0000
,
1000
0000
0001
0000
,
1000
0000
0010
0000
,
0100
0000
0010
0000
,
0100
0000
0010
0010
,
0010
0000
0100
0100
,
0100
0000
1000
1000
,
1000
0000
0000
0001
,
0001
0000
1000
0000
,
0001
0000
0001
0000
,
1000
0000
0010
0000
,
0100
0000
0100
0000
,
0010
0000
0001
0000
,
0100
0000
1000
0000
,
0010
0000
0001
0000
,
0010
0000
1000
0000
,
0100
0000
1000
0000
,
1001
0000
0001
0000
,
1001
0000
0010
0000
,
0110
0000
0100
0000
,
0110
0000
0001
0000
,
0110
0000
1001
0000
,
0010
0000
1000
0000
,
0110
0000
1001
0000
,
0100
1000
1000
1000
,
1000
1001
0000
0000
,
0001
0000
1000
0000
,
0100
0100
0100
0000
,
1000
0000
0001
0000
,
0010
0010
0010
0000
,
0100
0000
0100
0000
,
0001
0001
0001
0000
,
0001
1000
0001
0100
,
0010
0010
0000
0000
,
1000
0000
0100
0000
,
1000
1000
1000
0000
,
0001
0000
0100
0000
,
0001
0001
0001
0000
,
0001
0000
1000
0000
,
0100
0100
0100
0000
,
0001
1000
0010
0100
,
0010
0010
0000
0000
,
0010
0000
0001
0000
,
0010
0010
0010
0000
,
1000
0000
0010
0000
,
1000
1000
1000
0000
,
0010
0000
0100
0000
,
0010
0010
0010
0000
,
1000
0010
0100
0001
,
1000
1000
0000
0000
,
0100
0000
1000
0000
,
0100
0100
0100
0000
,
0001
0000
0100
0000
,
0001
0001
0001
0000
,
0100
0000
0010
0000
,
0100
0100
0100
0000
,
0001
0100
0010
1000
,
0001
0001
0000
0000
,
1001
0000
0000
0000
;

//---------------dance-single - ----------------
#NOTES:
     dance-single:
     :
     Beginner:
     3:
     0.217,0.289,0.141,0.000,0.000: // measure 1
0000
0000
0000
0000
,  // measure 2
0000
0000
0000
0000
,  // measure 3
0000
0000
0000
0000
,  // measure 4
0000
0000
0000
0000
,  // measure 5
1000
0000
1000
0000
,  // measure 6
0001
0000
0001
0000
,  // measure 7
0010
0000
0010
0000
,  // measure 8
0100
0000
0100
0000
,  // measure 9
1001
0000
0000
1000
,  // measure 10
0000
0000
0000
1000
,  // measure 11
0000
0000
0000
0001
,  // measure 12
0000
0000
0000
0001
,  // measure 13
0000
0000
0000
0010
,  // measure 14
0000
0000
0000
0010
,  // measure 15
0000
0000
0000
0100
,  // measure 16
0000
0000
0000
0100
,  // measure 17
0000
0000
0000
0001
,  // measure 18
0000
0000
0000
0100
,  // measure 19
0000
0000
0000
0010
,  // measure 20
0000
0000
0000
1000
,  // measure 21
0000
0000
0000
0001
,  // measure 22
0000
0000
0000
1000
,  // measure 23
0000
0000
0000
0010
,  // measure 24
0000
0000
0000
0100
,  // measure 25
0000
0000
0000
0001
,  // measure 26
0000
0001
0000
0000
,  // measure 27
0000
0000
0000
1000
,  // measure 28
0000
1000
0000
0000
,  // measure 29
0000
0000
0000
0001
,  // measure 30
0000
0001
0000
0000
,  // measure 31
0000
0000
0000
1000
,  // measure 32
0000
1000
0000
0000
,  // measure 33
0000
0000
0000
0010
,  // measure 34
0000
0010
0000
0000
,  // measure 35
0000
0000
0000
0100
,  // measure 36
0000
0100
0000
0000
,  // measure 37
0000
0000
0000
0010
,  // measure 38
0000
0010
0000
0000
,  // measure 39
0000
0000
0000
0100
,  // measure 40
0000
0100
0000
0000
,  // measure 41
0000
0000
0000
1001
,  // measure 42
0000
0000
0001
0000
,  // measure 43
0001
0000
0010
0000
,  // measure 44
0010
0000
0100
0000
,  // measure 45
0100
0000
1000
0000
,  // measure 46
1000
0000
0100
0000
,  // measure 47
0100
0000
0010
0000
,  // measure 48
0010
0000
0001
0000
,  // measure 49
0001
0000
1000
0000
,  // measure 50
1001
0000
0100
0000
,  // measure 51
0100
0000
0010
0000
,  // measure 52
0010
0000
0001
0000
,  // measure 53
0001
0000
1000
0000
,  // measure 54
1000
0000
0001
0000
,  // measure 55
0001
0000
1000
0000
,  // measure 56
1000
0000
0010
0000
,  // measure 57
0010
0000
0100
0000
,  // measure 58
0110
0000
1000
0000
,  // measure 59
1000
0000
1000
0000
,  // measure 60
1000
0000
0001
0000
,  // measure 61
0001
0000
0010
0000
,  // measure 62
0010
0000
0001
0000
,  // measure 63
0001
0000
0001
0000
,  // measure 64
0001
0000
1000
0000
,  // measure 65
1000
0000
0100
0000
,  // measure 66
0100
0000
0010
0000
,  // measure 67
0010
0000
0100
0000
,  // measure 68
0100
0000
0010
0000
,  // measure 69
0010
0000
0001
0000
,  // measure 70
0001
0000
0100
0000
,  // measure 71
0100
0000
0010
0000
,  // measure 72
0010
0000
0100
0000
,  // measure 73
0100
0000
1000
0000
,  // measure 74
1000
0000
1001
0000
,  // measure 75
0000
0000
1001
0000
,  // measure 76
0000
0000
0110
0000
,  // measure 77
0000
0000
0110
0000
,  // measure 78
0000
0000
1000
0000
,  // measure 79
0000
0000
0001
0000
,  // measure 80
0000
0000
0010
0000
,  // measure 81
0000
0000
0100
0000
,  // measure 82
0100
0000
0110
0000
,  // measure 83
0000
0000
0110
0000
,  // measure 84
0000
0000
1001
0000
,  // measure 85
0000
0000
1001
0000
,  // measure 86
0000
0000
0010
0000
,  // measure 87
0000
0000
0010
0000
,  // measure 88
0000
0000
0100
0000
,  // measure 89
0000
0000
0001
0000
,  // measure 90
0001
1000
0000
0001
,  // measure 91
0000
1001
0000
0000
,  // measure 92
1000
0000
0000
0000
,  // measure 93
0100
0000
0000
0000
,  // measure 94
1000
0000
0000
0000
,  // measure 95
0100
0000
0000
0000
,  // measure 96
0010
0000
0000
0000
,  // measure 97
0001
0000
0000
0000
,  // measure 98
0010
0000
0000
0000
,  // measure 99
0001
0000
0000
0000
,  // measure 100
0010
0000
0000
0000
,  // measure 101
1000
0000
0000
0000
,  // measure 102
0010
0000
0000
0000
,  // measure 103
1000
0000
0000
0000
,  // measure 104
0001
0000
0000
0000
,  // measure 105
0100
0000
0000
0000
,  // measure 106
0001
0000
0000
0000
,  // measure 107
0100
0000
0000
0000
,  // measure 108
1000
0000
1000
0000
,  // measure 109
1000
0000
1001
0000
,  // measure 110
0001
0000
0001
0000
,  // measure 111
0001
0000
1001
0000
,  // measure 112
0010
0000
0010
0000
,  // measure 113
0010
0000
0110
0000
,  // measure 114
0100
0000
0100
0000
,  // measure 115
0100
0000
0110
0000
,  // measure 116
0001
0000
0100
0000
,  // measure 117
0010
0000
1000
0000
,  // measure 118
0100
0000
1000
0000
,  // measure 119
0010
0000
0001
0000
,  // measure 120
0001
0000
1000
0000
,  // measure 121
0010
0000
0100
0000
,  // measure 122
0100
0000
0010
0000
,  // measure 123
0001
0000
1000
0000
,  // measure 124
1001
0000
0000
0000
;
