#TITLE:All Night featuring Angel;
#SUBTITLE:(Original Mix);
#ARTIST:Tomoki Hirata;
#TITLETRANSLIT:;
#SUBTITLETRANSLIT:;
#ARTISTTRANSLIT:;
#CREDIT:;
#BANNER:All Night featuring Angel (Original Mix)-bn.PNG;
#BACKGROUND:All Night featuring Angel (Original Mix)-bg.PNG;
#LYRICSPATH:;
#CDTITLE:;
#MUSIC:all night featuring angel (original mix).mp3;
#OFFSET:0.000;
#SAMPLESTART:51.000;
#SAMPLELENGTH:14.980;
#SELECTABLE:YES;
#BPMS:0.000=133.000;
#STOPS:;
#BGCHANGES:;

//---------------dance-single - ----------------
#NOTES:
     dance-single:
     :
     Hard:
     7:
     0.465,0.434,0.280,0.218,0.000:
0000
0000
0000
0000
,
0000
0000
0000
0000
,
0000
0000
0000
0000
,
0000
0000
0000
0000
,
1001
0000
0010
1000
0100
0010
0001
0100
,
1000
0100
0001
0002
0000
0000
0000
0000
,
1003
0000
0010
0100
0010
0000
0001
1000
,
0001
0000
0001
0010
0100
1000
0100
0100
,
0100
0000
1000
0100
0010
0010
0001
0100
,
0100
0001
0010
0020
0000
0000
0000
0000
,
1030
0000
1000
0100
0010
0000
0010
1000
,
0100
0000
0010
0001
0100
0010
1000
0100
,
1001
1000
1100
0001
,
0101
0000
0001
0100
0001
1000
0001
0100
,
0001
1000
0001
0000
1001
0000
0010
0000
,
0110
0000
0010
1000
1000
0000
0100
0001
,
0001
0001
0011
1000
,
1010
0000
1000
0001
1000
0010
1000
0001
,
1000
0010
1000
0001
1000
0000
0010
0001
,
0010
0000
1000
1000
0100
0010
0000
0000
,
0110
0000
1000
0100
1000
0000
0001
0100
,
0001
0000
1000
0001
0100
0010
0000
0100
,
0100
0002
2003
3020
,
0230
0300
1001
1100
,
0101
0000
1000
0001
0100
0000
0001
1000
,
0100
0000
0010
0010
0001
0000
0100
0100
,
1000
0002
2003
3020
,
0230
0302
2003
3200
,
0310
0000
1001
0000
1100
0000
0010
0100
,
0001
0000
1001
0000
0101
0000
0010
1000
,
0001
1000
1000
0001
,
0001
0000
0100
0010
0001
0000
0001
0010
,
0100
0110
0011
0110
,
1010
0000
1000
1000
0100
0000
0001
0001
,
0100
0000
0010
0001
1000
0000
0010
1000
,
0001
0000
0100
1000
0001
0100
0000
0010
,
0010
0000
1000
0100
1000
0000
0000
0001
,
0101
0000
0001
0100
0001
0000
0000
1000
,
1100
0000
0010
0100
1000
0000
0000
0100
,
1001
0000
0010
0001
0100
0000
0000
0010
,
1001
0000
0010
1000
0100
0001
0000
1000
,
0001
0000
0010
0001
1000
0100
0000
0001
,
1000
0000
0010
0100
0001
1000
0000
0010
,
0100
0000
0001
1000
0100
0010
0000
0010
,
1000
0002
1003
0020
,
0130
0000
0002
0100
1003
0000
2000
0100
,
3001
0200
0301
0002
,
0103
0000
0020
1000
0130
0000
0020
0001
,
0130
0010
0100
1100
,
0101
0000
0010
0100
1000
0000
0100
0010
,
0001
0000
0010
1000
0010
0100
0010
1000
,
0001
0100
0001
0010
0001
1000
0100
0010
,
0100
1000
0101
0000
0000
0000
0000
0000
;

//---------------dance-single - ----------------
#NOTES:
     dance-single:
     :
     Medium:
     5:
     0.339,0.379,0.197,0.124,0.000: // measure 1
0000
0000
0000
0000
,  // measure 2
0000
0000
0000
0000
,  // measure 3
0000
0000
0000
0000
,  // measure 4
0000
0000
0000
0000
,  // measure 5
0000
1000
0100
0010
,  // measure 6
0001
0100
0001
0010
,  // measure 7
1000
0001
1000
0001
,  // measure 8
1001
0000
0010
0000
0110
0000
0100
0100
,  // measure 9
0100
0010
0100
0001
,  // measure 10
1000
1000
0001
0010
,  // measure 11
0100
0000
0001
0001
0001
0000
0100
0000
,  // measure 12
0100
0000
1000
0001
0100
0000
0010
0000
,  // measure 13
0110
2000
0001
0001
,  // measure 14
3001
0010
0100
1000
,  // measure 15
1001
0002
1000
1000
,  // measure 16
1003
0010
1000
0100
,  // measure 17
0101
0020
0100
0100
,  // measure 18
0130
0000
0001
1000
0001
1000
0001
1000
,  // measure 19
0001
0100
0101
0010
,  // measure 20
1010
1000
0001
2002
,  // measure 21
0000
3003
1000
0000
0100
0000
0001
0000
,  // measure 22
0100
0001
0001
1000
,  // measure 23
0100
0010
1000
0100
,  // measure 24
0001
2002
3003
0220
,  // measure 25
0330
0010
1000
0010
,  // measure 26
0001
1000
0010
0001
,  // measure 27
0001
0100
0001
0010
,  // measure 28
1000
0002
0000
2003
,  // measure 29
0000
3100
0100
0010
,  // measure 30
0010
0000
1000
0000
1001
0000
0001
0100
,  // measure 31
0001
1000
0001
1000
,  // measure 32
0001
0000
0010
0000
1000
0000
0100
1000
,  // measure 33
0100
0010
0001
0010
,  // measure 34
0001
0000
1000
0000
0010
0000
0100
1000
,  // measure 35
0100
0010
1000
0010
,  // measure 36
1000
0000
0010
0000
1000
0000
0001
0100
,  // measure 37
0001
1000
0100
0001
,  // measure 38
0100
0001
0100
0010
,  // measure 39
0100
0010
1000
0001
,  // measure 40
1000
0010
0100
2000
,  // measure 41
3100
0100
0011
0100
,  // measure 42
1000
0001
1100
0010
,  // measure 43
0001
1000
0110
0001
,  // measure 44
1000
0100
1001
0100
,  // measure 45
0100
0001
0100
0001
,  // measure 46
0100
0010
1000
0100
,  // measure 47
0001
0010
0100
0001
,  // measure 48
0010
0010
1000
0100
,  // measure 49
0010
1000
0100
0010
,  // measure 50
0001
0001
0100
1000
,  // measure 51
0100
0010
1100
0100
,  // measure 52
1010
0100
0011
0001
,  // measure 53
0100
1001
0000
0000
;

//---------------dance-single - ----------------
#NOTES:
     dance-single:
     :
     Easy:
     3:
     0.258,0.298,0.124,0.021,0.000:
0000
0000
0000
0000
,
0000
0000
0000
0000
,
0000
0000
0000
0000
,
0000
0000
0000
0000
,
0000
1000
0000
0001
,
0000
0100
0100
0010
,
0010
0100
0000
0010
,
0000
0001
0001
1000
,
1000
0001
0000
0100
,
0000
0001
0100
0001
,
0100
0010
0000
1000
,
0000
0010
1000
0010
,
1000
0100
0000
1001
,
0000
0001
0001
0001
,
0001
0100
0000
0110
,
0000
0100
0100
0100
,
0100
1000
0000
1001
,
0000
0001
1000
0001
,
1000
0010
0000
0110
,
0000
0010
0100
0010
,
0100
0001
0000
0010
,
0000
0010
1000
0010
,
0000
1000
0000
0100
,
0000
1000
0100
1000
,
0000
0001
0001
1000
,
1000
0100
0010
0001
,
1000
0001
1001
1000
,
1001
0100
0100
0010
,
0010
0220
0000
0000
,
0330
1000
1000
0100
,
1000
0010
0001
0010
,
0001
0010
0010
0100
,
0010
0100
0001
0100
,
1000
0010
1000
0010
,
0001
0100
0010
0100
,
0010
1000
0001
1000
,
0001
0100
0100
0000
,
1001
0010
0010
0000
,
1001
1000
1000
0000
,
0110
0001
0001
0000
,
0110
0100
0010
0001
,
0001
1000
0100
0010
,
0010
0100
0010
1000
,
1000
0010
0001
0100
,
0100
0001
0000
1000
,
0000
0010
0000
0100
,
0000
0001
0001
1000
,
1000
0010
0010
0100
,
0100
0010
0001
0100
,
1000
1000
0100
0001
,
0010
1000
0100
0001
,
0100
0010
0010
0100
,
0100
1001
0000
0000
;

//---------------dance-single - ----------------
#NOTES:
     dance-single:
     :
     Beginner:
     1:
     0.148,0.190,0.031,0.000,0.000:
0000
0000
0000
0000
,
0000
0000
0000
0000
,
0000
0000
0000
0000
,
0000
0000
0000
0000
,
0000
1000
0000
0001
,
0000
0100
0100
0000
,
0000
0001
0000
1000
,
0000
0010
0010
0000
,
0000
0100
0000
0100
,
0000
0010
0010
0000
,
0000
0001
0000
1000
,
0000
0100
0000
0010
,
0000
0001
0001
0000
,
0000
0000
0010
0000
,
0100
0000
0000
1000
,
1000
0000
0000
1001
,
0000
0100
0100
0000
,
0000
0001
0000
0100
,
0000
0000
0000
1000
,
1000
0000
0010
0000
,
0100
0000
0010
0000
,
0100
0000
0001
0000
,
0001
0000
1000
0000
,
0100
0000
1000
0000
,
1000
0000
0010
0000
,
0010
0000
0100
0000
,
0100
0000
0001
0000
,
1000
0000
0100
0000
,
0010
0000
1001
0000
,
1001
1000
0000
1000
,
0000
0100
0000
0100
,
0000
0001
0000
0001
,
0000
0010
0000
0010
,
0000
0010
0000
1000
,
0000
0001
0000
0100
,
0000
0100
0000
0001
,
0000
1000
1000
0000
,
0000
0100
0100
0000
,
0000
0010
0010
0000
,
0000
0001
0001
0000
,
0000
0001
1000
0000
,
0000
0010
0100
0000
,
0000
1000
0100
0000
,
0000
1000
0001
0000
,
0010
0000
0100
0000
,
0001
0000
0001
0000
,
1000
0000
1000
0000
,
0010
0000
0100
0000
,
0100
0000
0010
0000
,
0001
0000
1000
0000
,
0001
0000
0001
0000
,
1000
0000
0100
0000
,
0100
0100
0000
0000
;
