#TITLE:Royalemix 1 (Groove on Friday);
#SUBTITLE:;
#ARTIST:remixed by dj PrinceJE;
#TITLETRANSLIT:;
#SUBTITLETRANSLIT:;
#ARTISTTRANSLIT:;
#CREDIT:;
#BANNER:Royalemix 1 (Groove on Friday)-bn.PNG;
#BACKGROUND:Royalemix 1 (Groove on Friday)-bg.PNG;
#LYRICSPATH:;
#CDTITLE:;
#MUSIC:Royalemix 1 (Groove on Friday).mp3;
#OFFSET:-0.126;
#SAMPLESTART:155.000;
#SAMPLELENGTH:11.980;
#SELECTABLE:YES;
#BPMS:0.000=130.000,64.000=132.000,156.000=138.000,278.000=136.000,354.000=133.640,418.000=140.000;
#STOPS:417.500=1.600
;
#BGCHANGES:16.000=Groove-bg.png=1.000=1=0=1
,64.000=Fire-bg.png=1.000=1=0=1
,156.000=Heaven-bg.png=1.000=1=0=1
,278.000=Simply Being Loved 'Somnambulist'-bg.png=1.000=1=0=1
,354.000=Gotta Get Thru This-bg.png=1.000=1=0=1
,419.000=escape-bg.png=1.000=1=0=1
,549.000=Royalemix 1 (Groove on Friday)-bg.PNG=1.000=1=0=1
;

//---------------dance-single - ----------------
#NOTES:
     dance-single:
     :
     Challenge:
     7:
     0.442,0.475,0.187,0.107,0.026: // measure 1
0000
0000
0000
0000
,  // measure 2
0000
0000
0000
0000
,  // measure 3
0000
0000
0000
0000
,  // measure 4
0000
0000
0011
1100
,  // measure 5
0001
0000
1000
0001
0100
0000
0010
0000
,  // measure 6
1000
0001
0100
0010
1000
1000
1000
0000
,  // measure 7
0001
0000
1000
0001
0010
0000
0100
0000
,  // measure 8
0001
1000
0010
0100
0001
0001
0001
0000
,  // measure 9
0010
1100
0010
0101
,  // measure 10
0001
0010
0001
1000
0001
0100
0001
1000
,  // measure 11
0001
1010
1000
0011
,  // measure 12
1000
0001
1000
0010
1000
0100
1000
0001
,  // measure 13
1000
0110
0010
1001
,  // measure 14
0100
0001
0100
0000
0010
1000
0010
0000
,  // measure 15
0001
0001
1000
1000
,  // measure 16
0010
0001
1000
0100
0010
0010
0001
0000
,  // measure 17
0002
1003
0020
0130
,  // measure 18
0001
0100
0010
1000
,  // measure 19
1000
0100
1000
0000
0010
0001
0010
0000
,  // measure 20
0100
0000
0010
0000
0010
1000
0100
0000
,  // measure 21
2000
3010
0002
0103
,  // measure 22
1000
0010
0100
0001
,  // measure 23
0001
0100
1000
0000
1000
0100
0001
0000
,  // measure 24
0010
0000
0100
0000
0010
0001
0100
0000
,  // measure 25
1000
0000
0001
0000
0100
0000
0000
0000
0100
0000
0000
0100
0000
0000
0100
0000
,  // measure 26
0001
0000
0001
0000
1000
1000
1000
0000
,  // measure 27
0010
0000
1000
0000
0001
0000
0000
0000
0010
0000
0000
0010
0000
0000
0010
0000
,  // measure 28
1000
0000
1000
0000
0001
0001
0001
0000
,  // measure 29
0001
0000
0100
0000
1000
0000
0000
0000
1000
0000
0000
1000
0000
0000
1000
0000
,  // measure 30
0100
0000
0010
0000
0100
0100
0100
0000
,  // measure 31
1000
0000
0100
0000
0001
0000
0000
0000
0001
0000
0000
0001
0000
0000
0001
0000
,  // measure 32
0010
0000
0100
0000
0010
0010
0010
0000
,  // measure 33
1000
0001
1000
0001
0100
0010
0100
0010
,  // measure 34
1000
1100
0001
0101
,  // measure 35
0010
1000
0010
1000
0001
0100
0001
0100
,  // measure 36
0001
0011
1000
1010
,  // measure 37
0010
0100
0001
1000
0010
0100
0001
1000
,  // measure 38
0010
1001
0100
1001
,  // measure 39
0001
0100
0010
1000
0100
0010
0001
1000
,  // measure 40
1000
0000
0100
0000
0010
0001
0010
0000
,  // measure 41
1000
0100
1000
0000
0010
0100
0010
0000
,  // measure 42
2000
3100
0020
0031
,  // measure 43
0100
0010
0001
1000
,  // measure 44
0001
0100
0001
0000
0010
1000
0010
0000
,  // measure 45
0010
1000
0100
0000
0010
0001
0100
0000
,  // measure 46
0001
0100
1000
0100
,  // measure 47
0010
0001
0010
0001
0100
1000
0100
0000
,  // measure 48
0001
0000
0010
0000
0100
1000
1000
0000
,  // measure 49
1000
0000
0100
0000
0010
0001
0001
0000
,  // measure 50
0001
1000
0001
0000
1000
0001
1000
0000
,  // measure 51
1000
0010
0100
0001
,  // measure 52
2000
3001
0020
0130
,  // measure 53
0001
0001
0010
0100
,  // measure 54
2000
3001
0020
0130
,  // measure 55
0001
0010
1000
0100
,  // measure 56
1001
0000
0101
0000
,  // measure 57
1100
0000
0000
0000
,  // measure 58
1000
0000
0100
0000
0010
0001
0010
0000
,  // measure 59
0001
0000
0100
0000
0010
1000
0010
0000
,  // measure 60
0100
0010
0100
0000
0001
1000
0001
0000
,  // measure 61
0010
1000
0001
0100
0010
1000
1000
0000
,  // measure 62
0001
0000
0010
0000
1000
0100
1000
0000
,  // measure 63
1000
0000
0010
0000
0100
0001
0100
0000
,  // measure 64
2000
3001
0020
0130
,  // measure 65
0010
1000
0010
0100
0010
0001
0010
0000
,  // measure 66
2000
0000
3200
0000
,  // measure 67
0310
0000
0001
0000
0001
1000
0100
0000
,  // measure 68
0001
0100
1000
0000
1000
0100
0001
0000
,  // measure 69
0010
0100
0010
0000
0001
1000
0001
0000
,  // measure 70
2000
0000
3001
0100
,  // measure 71
0100
0010
1000
1000
,  // measure 72
0010
1000
0100
0010
0001
0000
0100
0000
,  // measure 73
0100
0010
0001
1000
,  // measure 74
0010
0001
1000
0100
0010
0000
0001
0000
,  // measure 75
0101
0000
1000
0000
1100
0000
0010
0100
,  // measure 76
0010
0000
0001
1000
0001
0000
0010
0000
,  // measure 77
0100
0010
0001
0001
,  // measure 78
0001
0010
1000
0000
1000
0000
0010
0000
,  // measure 79
0100
0001
0100
0100
,  // measure 80
0100
0001
0010
0100
1000
0000
0010
0000
,  // measure 81
0010
0100
1000
0001
,  // measure 82
0100
1000
0001
0010
0100
0000
1000
0000
,  // measure 83
1010
0000
0001
0000
0011
0000
1000
0001
,  // measure 84
1000
0000
0100
0010
0100
0000
0100
0000
,  // measure 85
0010
0001
1000
0100
,  // measure 86
0010
1000
0100
0000
0012
0000
0000
0000
,  // measure 87
1203
0000
0301
1000
,  // measure 88
0010
0000
0100
0000
0010
0001
1000
0000
,  // measure 89
0201
0000
0000
0000
0000
0000
0310
1000
0001
0100
0010
1000
,  // measure 90
1000
0100
0010
0001
0000
0000
1000
0000
0000
1100
0000
0000
,  // measure 91
0010
0001
0100
0000
0001
0000
0101
0000
,  // measure 92
0010
1000
0100
0000
0001
0100
0010
0000
,  // measure 93
0010
0100
1000
0000
0001
0000
0101
0000
,  // measure 94
0010
0000
0110
0000
1000
0100
0001
0000
,  // measure 95
0001
0100
1000
0000
1000
0010
0001
0000
,  // measure 96
0001
0010
1000
0000
0100
0010
1000
0000
,  // measure 97
0001
0100
0010
0000
0001
0000
1001
0000
,  // measure 98
0010
0100
0001
0010
0001
0010
0100
1000
,  // measure 99
0010
0000
0000
1000
0000
0000
0100
0000
0000
0000
0001
0000
0100
0000
0000
0000
,  // measure 100
0001
0000
0001
0010
0100
1000
0100
0010
,  // measure 101
0001
0000
0000
0100
0000
0000
1000
0000
0000
0000
0010
0000
1000
0000
0001
0000
,  // measure 102
0100
0000
1100
0000
0001
1000
0010
0100
,  // measure 103
0010
0000
0000
1000
0000
0000
0100
0000
0000
0000
0001
0000
0000
0000
0010
0000
,  // measure 104
0001
0100
0001
0000
0001
0010
0001
0000
,  // measure 105
1000
0010
0100
1001
0000
0000
1000
0000
,  // measure 106
0100
0000
0010
0001
0001
0000
0001
0000
,  // measure 107
0100
0000
0010
1000
1000
0000
1000
0001
,  // measure 108
0100
0000
0010
1000
0001
0000
0010
0001
,  // measure 109
0100
0010
1000
0100
0010
0000
0001
0000
,  // measure 110
0001
0000
1000
0001
1000
0000
0001
0000
,  // measure 111
0100
0000
0001
0100
0001
0000
0010
0100
,  // measure 112
0000
0001
0000
1000
0000
0010
0000
0001
,  // measure 113
1000
0010
0100
0100
0100
0000
1000
0000
,  // measure 114
1100
0000
0001
0000
0101
0000
1000
0100
,  // measure 115
0010
0000
0010
0100
0001
0000
0001
0000
,  // measure 116
1001
0000
0010
0000
0110
0000
1000
0001
,  // measure 117
0100
0000
0010
1000
0001
0000
1000
0000
,  // measure 118
1000
0010
0010
0100
,  // measure 119
0100
0000
0001
0000
0001
0000
0010
0100
,  // measure 120
0000
0101
0000
1010
0000
0001
1000
0000
,  // measure 121
0010
0100
0002
0000
0000
0000
0203
0000
,  // measure 122
0000
0320
0000
1030
,  // measure 123
1000
0000
1000
0100
0001
0000
0001
0000
,  // measure 124
0001
0000
0001
0100
1000
0000
0010
0100
,  // measure 125
0010
0000
0001
1000
0001
0000
0010
0001
,  // measure 126
0010
0001
1000
0100
1000
0000
0001
0000
,  // measure 127
0001
0000
0001
0100
0010
0000
1000
0000
,  // measure 128
1000
0000
1000
0100
0010
0000
0010
0100
,  // measure 129
0010
0000
0001
1000
0001
0000
0010
1000
,  // measure 130
0010
1000
0001
0100
0001
0000
0010
0100
,  // measure 131
0000
1100
0000
0101
0000
0010
1000
0100
,  // measure 132
0000
0101
0000
0010
0000
0010
0001
0100
,  // measure 133
0000
0011
0000
1100
0000
0001
0100
0000
,  // measure 134
0100
0000
0100
0010
0010
0000
0102
0000
,  // measure 135
1003
1020
0130
2100
,  // measure 136
3001
0201
0310
0001
,  // measure 137
0010
0100
1000
0100
,  // measure 138
0001
0000
1000
0000
0100
0000
0010
0001
,  // measure 139
1000
0000
0010
0001
0010
0000
0001
0000
,  // measure 140
0100
0000
0010
1000
0010
0000
2002
0000
,  // measure 141
0000
0000
3003
0000
;
