#TITLE:Pump It;
#SUBTITLE:;
#ARTIST:The Black Eyed Peas;
#TITLETRANSLIT:;
#SUBTITLETRANSLIT:;
#ARTISTTRANSLIT:;
#CREDIT:;
#BANNER:Pump It-bn.PNG;
#BACKGROUND:Pump It-bg.PNG;
#LYRICSPATH:;
#CDTITLE:;
#MUSIC:Pump It.mp3;
#OFFSET:-0.410;
#SAMPLESTART:58.712;
#SAMPLELENGTH:11.940;
#SELECTABLE:YES;
#BPMS:0.000=153.600;
#STOPS:;
#BGCHANGES:;

//---------------dance-single - ----------------
#NOTES:
     dance-single:
     :
     Hard:
     7:
     0.515,0.500,0.463,0.208,0.000:
0000
0000
0000
0000
,
0000
0000
0000
0000
,
0000
0000
0000
0000
,
2200
0000
0000
3300
0202
0000
0000
0303
,
0110
0000
0001
1000
0000
1000
0001
0000
,
1001
0000
0010
0100
0000
0100
0010
0000
,
0101
0000
1000
0100
0000
0001
0100
0000
,
0202
0000
0000
0303
2020
0000
0000
3030
,
1001
0000
1000
0100
0000
0010
0001
0000
,
1001
0000
0010
0001
1000
0100
0100
0000
,
1000
0000
0010
0001
0000
0101
0000
0000
,
0001
0000
0010
1000
0000
1100
0000
0000
,
0001
0000
0001
0100
0000
1010
0000
0000
,
1000
0000
1000
0100
0000
0011
0000
0000
,
0000
1000
0100
0010
0001
0100
0010
0000
,
0000
1001
0000
1000
0010
0100
0001
0000
,
0200
0000
0000
0300
,
1001
0000
0100
0010
0000
0010
0000
0010
,
0000
0000
0010
0001
0100
0010
1000
0000
,
1100
0000
0010
1000
0100
0010
0001
0000
,
0101
0000
1000
0001
0100
0001
1000
0000
,
0110
0000
0001
0100
0010
1000
0010
0000
,
0001
0000
0100
0010
1000
0100
0100
0000
,
0011
0000
0001
0100
0010
1000
1000
0000
,
1001
0100
0010
0001
,
1000
0100
0001
0000
0001
0100
1000
0000
,
0110
0000
0101
0000
0010
1000
0100
0000
,
1100
0000
0110
0000
0010
0001
0100
0000
,
1001
0000
0100
0000
0010
0100
1000
0000
,
0010
0100
0001
1000
0001
1000
0100
0000
,
1000
0100
0001
0100
1000
0100
0001
0000
,
0001
0010
1000
0010
0001
0010
1000
0000
,
2002
0000
3003
0000
0010
0010
0100
0000
,
1000
0010
0100
0010
0100
0001
0100
0000
,
2000
0000
0000
0001
0000
0001
3000
0000
,
0020
0000
0000
0100
0000
0100
0030
0000
,
0002
0000
0000
1000
0000
1000
0003
0000
,
1000
0001
0010
0100
,
1001
0000
0010
0001
0000
0001
0100
0000
,
1001
0000
0010
1000
0000
1000
0100
0000
,
0110
0000
1000
0001
0000
0010
0100
0000
,
0110
0000
0001
1000
0010
0100
0010
0000
,
1100
0000
0001
0001
0000
0100
0100
0000
,
0101
0000
0010
0010
0100
1000
1000
0000
,
1001
0000
0001
0011
0000
1000
1100
0000
,
1001
0000
1000
1010
0000
0001
0101
0000
,
0000
0010
0001
0100
0010
1000
0200
0000
,
0000
0310
0000
0010
0001
1000
0100
0010
,
0002
0000
1003
1000
,
0100
0000
0010
0001
1000
0100
0100
0000
,
1001
0100
0010
1000
0001
0100
0020
0000
,
0000
0000
0000
0130
0001
0100
1000
0010
,
2000
0000
0000
0000
0000
3000
0000
0000
,
0001
0100
0010
1000
0001
0100
0010
0100
,
1001
0000
0000
0000
;

//---------------dance-single - ----------------
#NOTES:
     dance-single:
     :
     Medium:
     5:
     0.374,0.406,0.278,0.127,0.000:
0000
0000
0000
0000
,
0000
0000
0000
0000
,
0000
0000
0000
0000
,
1000
0000
0001
0000
,
1001
0000
0100
0100
0000
0000
0010
0000
,
1001
0000
0001
0001
0000
0000
1000
0000
,
0001
0100
0010
1000
,
0001
0000
1000
0000
,
1001
0000
1000
1000
0000
0000
0100
0000
,
1001
0000
0010
0010
0000
0000
0001
0000
,
2000
0000
0100
3100
,
0002
0000
0100
0103
,
0020
0000
1000
1030
,
0200
0000
0001
0301
,
1000
0000
0001
0000
1000
0100
0001
0000
,
0001
0000
1000
0000
0001
0100
1000
0000
,
2002
0000
0000
3003
,
0000
0000
0000
0100
0000
0100
0000
0100
,
0000
0000
1000
0000
0001
0000
1000
0001
,
0100
0000
0000
0000
0010
0000
0010
1000
,
0100
0000
0010
0000
1000
0000
0010
0001
,
1000
0100
1100
0101
,
1000
0000
0100
0000
0010
0001
0010
0000
,
0001
0000
0100
0000
0010
1000
0010
0000
,
1001
0001
0001
1000
,
1000
0000
0010
0000
0100
0010
0100
0000
,
0101
0000
0101
0000
0010
1000
0100
0000
,
1100
0010
0100
0001
,
1000
0100
0001
0000
0001
0010
1000
0000
,
0100
0001
0100
0000
1000
0100
1000
0000
,
0001
0100
1000
0100
,
0010
0001
0010
1000
,
1001
0000
0000
0000
0100
0001
0100
0000
,
0010
1000
0010
0000
0100
1000
0100
0000
,
0002
0000
0000
0003
,
2000
0000
0000
3000
,
0020
0000
0000
0030
,
0010
0010
0100
0100
,
1001
0000
0001
0101
,
1001
0000
1000
1100
,
1001
0000
0001
0011
,
1001
0000
1000
1010
,
1001
0000
0010
0110
,
1001
0000
0100
0001
,
1000
0000
0001
0001
0000
0010
0010
0000
,
1000
0000
0100
0100
0000
0010
0010
0000
,
0100
0001
0010
1000
,
1000
0010
0001
0100
,
2000
0000
0000
3000
,
0002
0000
0000
0003
,
0001
0000
0100
0000
0010
1000
0100
0000
,
1000
0000
0100
0000
0010
0001
0100
0000
,
0010
0100
0001
1000
,
0001
0100
1000
0000
1000
0100
0001
0000
,
1100
0000
0000
0000
;

//---------------dance-single - ----------------
#NOTES:
     dance-single:
     :
     Easy:
     3:
     0.281,0.313,0.232,0.151,0.000:
0000
0000
0000
0000
,
0000
0000
0000
0000
,
0000
0000
0000
0000
,
1000
0000
0001
0000
,
1001
0000
0100
0000
,
0001
0001
0001
0001
,
1001
0000
0010
0000
,
0100
0000
0110
0000
,
0100
0000
1000
1000
,
0010
0001
1000
0100
,
0001
0001
2000
0000
,
3010
0010
0200
0000
,
0301
0001
2000
0000
,
3100
0100
0020
0000
,
0031
0001
0100
0100
,
0010
0010
1000
1000
,
2002
0000
0000
3003
,
0000
0000
0000
0100
0000
0100
0000
0100
,
0000
0001
0000
1100
,
0000
1000
0000
0101
,
0000
0010
0000
1010
,
0000
0100
0000
0011
,
0000
1000
0000
1001
,
0000
0001
0000
1001
,
0000
1000
0001
0001
,
1000
0010
0100
0000
,
0010
0010
0000
0000
,
0100
0100
0000
0000
,
0001
0001
1000
1001
,
0100
0001
0100
0100
,
0010
0001
0100
1000
,
0010
1000
0100
0001
,
1001
0000
1000
0001
,
0010
0010
0100
0100
,
0002
0000
0000
0003
,
2000
0000
0000
3000
,
0002
0000
0000
0003
,
0000
0000
0000
0000
,
1001
0000
0100
0100
,
1001
0000
0010
0010
,
0101
0000
1000
1000
,
1100
0000
1000
1000
,
0011
0000
0010
0010
,
0000
1100
0100
0100
,
0001
0000
1000
0000
,
0010
0000
0100
0000
,
0001
0001
1000
1000
,
0010
0010
0100
0100
,
2002
0000
0000
3003
,
0200
0000
0000
0300
,
0010
0010
1000
0010
,
0100
0100
0001
0100
,
0002
0000
0000
0003
,
1000
0100
0001
0100
,
1001
0000
0000
0000
;

//---------------dance-single - ----------------
#NOTES:
     dance-single:
     :
     Beginner:
     1:
     0.132,0.250,0.058,0.000,0.000: // measure 1
0000
0000
0000
0000
,  // measure 2
0000
0000
0000
0000
,  // measure 3
0000
0000
0000
0000
,  // measure 4
1000
0000
0000
0000
,  // measure 5
0001
0000
0000
0000
,  // measure 6
1000
0000
0000
0000
,  // measure 7
1001
0000
0000
0000
,  // measure 8
0001
0000
0000
0000
,  // measure 9
1000
0000
0000
0000
,  // measure 10
0001
0000
0000
0000
,  // measure 11
1001
0000
0000
0000
,  // measure 12
0100
0000
0000
0000
,  // measure 13
0001
0000
0000
0000
,  // measure 14
0001
0000
0000
0000
,  // measure 15
1000
0000
0100
0000
,  // measure 16
0010
0000
0001
0000
,  // measure 17
1001
0000
0000
0000
,  // measure 18
1000
0000
1000
0000
,  // measure 19
0001
0000
0000
0000
,  // measure 20
0100
0000
0000
0000
,  // measure 21
0010
0000
0000
0000
,  // measure 22
1000
0000
0000
0000
,  // measure 23
0100
0000
0100
0000
,  // measure 24
0010
0000
0010
0000
,  // measure 25
0000
0001
0000
1000
,  // measure 26
0000
0001
0001
0000
,  // measure 27
1000
1000
0000
0000
,  // measure 28
0010
0010
0000
0000
,  // measure 29
0100
0100
0000
0000
,  // measure 30
0001
0000
1000
0000
,  // measure 31
0001
0001
0001
0000
,  // measure 32
1000
1000
1000
0000
,  // measure 33
1001
0000
0000
0000
,  // measure 34
0100
0000
0100
0000
,  // measure 35
0001
0000
0000
0000
,  // measure 36
1000
0000
0000
0000
,  // measure 37
0100
0000
0000
0000
,  // measure 38
0010
0000
0010
0000
,  // measure 39
0001
0000
0000
0000
,  // measure 40
0100
0000
0000
0000
,  // measure 41
1000
0000
0000
0000
,  // measure 42
0100
0000
0000
0000
,  // measure 43
0010
0000
0001
0000
,  // measure 44
1000
0000
0100
0000
,  // measure 45
0010
0000
0000
0000
,  // measure 46
0100
0000
0000
0000
,  // measure 47
0001
0001
0000
0000
,  // measure 48
1000
1000
0000
0000
,  // measure 49
0100
0000
0000
0000
,  // measure 50
0010
0000
0000
0000
,  // measure 51
0001
0000
0100
0000
,  // measure 52
0010
0000
1000
0000
,  // measure 53
0001
0000
0000
0000
,  // measure 54
1001
0000
0000
0000
,  // measure 55
0100
0000
0000
0000
;
