#TITLE:Nobody;
#SUBTITLE:;
#ARTIST:Wonder Girls;
#TITLETRANSLIT:;
#SUBTITLETRANSLIT:;
#ARTISTTRANSLIT:;
#CREDIT:;
#BANNER:Nobody-bn.PNG;
#BACKGROUND:Nobody-bg.PNG;
#LYRICSPATH:;
#CDTITLE:;
#MUSIC:Nobody.mp3;
#OFFSET:-0.460;
#SAMPLESTART:14.080;
#SAMPLELENGTH:11.960;
#SELECTABLE:YES;
#BPMS:0.000=131.000;
#STOPS:244.000=0.020
;
#BGCHANGES:0.000=Nobody.avi=1.000=1=0=1
;

//---------------dance-single - ----------------
#NOTES:
     dance-single:
     :
     Hard:
     7:
     0.456,0.453,0.353,0.136,0.016:
0000
0000
0000
0000
,
0000
0000
0000
0000
,
0000
0000
0000
0000
,
0000
0000
0000
0000
,
1000
0000
0100
0010
0001
0000
0000
0000
,
0001
0000
0010
0100
1000
0000
0000
0000
,
1001
0000
0010
0100
0100
0000
0000
0000
,
0001
0001
1000
1000
0010
0010
1001
0000
,
0001
0010
1000
0000
1000
0010
0001
0010
,
0100
0000
1000
1100
0000
0001
0101
0000
,
1000
0100
0001
0000
0010
0001
1000
0100
,
0010
0000
0001
0101
0000
1000
1100
0000
,
1000
0000
1000
0000
0001
0100
0001
0000
,
0001
0000
0001
0000
1000
0100
1000
0000
,
0010
0100
0001
1000
0010
0010
0000
0100
,
0100
0100
0001
1000
0010
0000
0000
0000
,
2001
0000
3010
0100
0000
0001
0000
0001
,
0201
0000
0310
1000
0000
0100
0000
0010
,
0012
0000
0000
0000
1003
0000
0100
0000
0000
0000
0100
0000
0000
0000
0010
0100
,
0010
0001
1000
0100
0000
1001
0000
0000
,
0002
0000
0103
0010
0000
1000
0000
1000
,
1020
0000
1030
1000
0000
0100
0000
0001
,
0100
0010
1000
0000
1000
0000
1000
0000
,
0100
0010
0001
0000
0001
0000
0001
0000
,
0011
0000
1100
0000
0001
1000
0001
0100
,
0002
0000
0100
0100
0000
1000
1003
0000
,
1010
0000
0101
0000
1000
0001
1000
0100
,
2000
0000
0010
0010
0000
0001
3001
0000
,
1000
1010
0001
0101
,
0010
0100
0010
0000
0001
1000
0001
0000
,
0001
0000
1000
0000
0010
0001
1000
0002
,
2000
0000
0000
3003
,
1000
0100
1000
0000
0010
0001
0010
0100
,
1000
0000
0101
1001
0000
0110
1001
0000
,
0001
0100
0001
0000
0010
1000
0100
0010
,
0001
0000
0011
0110
0000
1010
0110
0000
,
1000
0000
0010
0000
1000
0010
0001
0000
,
1000
0000
0100
0000
1000
0100
0001
0000
,
1000
0100
0001
0100
1000
0010
0000
0010
,
0001
0100
1000
0100
0002
0000
0000
0003
,
1010
0101
0011
1100
,
0001
0100
0000
0010
1000
0100
0100
0000
,
0011
1100
1010
0101
,
1000
0100
0000
0001
0010
0100
0100
0000
,
0001
0100
0001
0000
0010
1000
0100
0000
,
1000
0100
1000
0000
0010
0001
0100
0000
,
0001
0100
1000
0100
,
0010
0000
0010
0000
0100
0000
0100
0010
,
2002
0000
0000
0000
0000
3003
1001
0000
,
0100
0001
1000
0000
1000
0001
0100
0010
,
1000
0000
1010
0101
0000
0011
1100
0000
,
0010
0001
1000
0000
0010
0001
1000
0100
,
1000
0000
1100
1010
0000
0101
0011
0000
,
1000
0000
1000
0000
0100
0010
0001
0000
,
0001
0000
0001
0000
0010
1000
0001
0000
,
1000
0010
0100
0001
0001
0001
0000
1000
,
1000
1000
0001
0100
0020
0000
0000
0030
,
1000
0000
0000
0001
0100
0000
0010
0000
1000
0000
0000
0000
0001
0000
0010
0000
,
1000
0010
0001
0010
1000
0000
0001
0100
,
0001
0010
0100
0000
1000
0000
0010
0000
0100
0000
0001
0000
1000
0000
0000
0000
,
0001
1000
0001
0000
0100
0000
0010
0000
0100
0000
0000
0000
0000
0000
0000
0000
,
2000
0000
3001
0100
0010
1000
1000
0000
,
0002
0000
1003
0010
0100
0001
0001
0000
,
1000
0001
1000
0001
0100
0001
0100
0001
,
0010
0100
0010
0100
1000
0100
1000
0100
,
2002
0000
0000
0000
,
0000
0000
3003
0000
;

//---------------dance-single - ----------------
#NOTES:
     dance-single:
     :
     Medium:
     5:
     0.360,0.373,0.273,0.032,0.000:
0000
0000
0000
0000
,
0000
0000
0000
0000
,
0000
0000
0000
0000
,
0000
0000
0000
0000
,
1100
0001
0001
0000
,
0011
1000
1000
0000
,
0101
0010
0010
0000
,
0010
0000
0100
0000
0001
1000
0100
0000
,
1000
0001
1000
0000
0001
1000
0001
0000
,
0110
0000
1001
1001
0000
0000
0000
0000
,
0010
0100
0010
0000
0001
1000
0001
0000
,
0110
0000
1001
1001
0000
0000
0000
0000
,
0001
0000
0001
0010
0100
0000
1000
0000
,
1000
0000
0010
0100
0001
0000
0000
0000
,
1000
0100
0100
0100
,
0001
0100
0100
0100
,
0001
0000
1000
1000
0000
0001
0000
0010
,
0100
0000
0100
0100
0000
1001
0000
0000
,
1000
0001
0010
0000
1000
0001
0100
0000
,
0001
0001
0100
0000
1000
1000
0100
0000
,
0001
0000
0001
1000
0000
0110
0000
0100
,
0010
0001
1000
0100
,
1000
1100
1000
0101
,
0001
0101
1000
1100
,
0010
0000
0100
0000
0001
0100
0001
0000
,
2000
0010
0001
3100
,
0010
0000
0100
0000
1000
0100
1000
0000
,
0002
0010
1000
0103
,
0001
0000
0001
0001
0000
0100
0000
0000
,
1000
0000
1000
1000
0000
0010
0000
0000
,
0010
0001
1000
0000
0100
0001
1000
0000
,
0010
0000
0100
0000
0001
1000
0100
0000
,
1000
0001
1000
0000
0001
1000
0001
0000
,
0110
0000
1001
1001
0000
0000
0000
0000
,
0010
0100
0010
0000
0001
1000
0001
0000
,
0110
0000
1001
1001
0000
0000
0000
0000
,
0001
0000
0001
0010
0100
0000
1000
0000
,
1000
0000
0010
0100
0001
0000
0000
0000
,
1000
0100
0100
0100
,
0001
0100
0100
0100
,
0010
0110
0001
0101
,
0010
1000
0000
1000
0010
0000
0000
0000
,
1000
1001
1000
1100
,
0010
0001
0000
0001
0100
0000
0000
0000
,
1000
1000
0100
1000
,
0001
0001
0100
0001
,
0010
0001
1000
0100
,
0010
0001
1000
0000
0100
0001
0100
0000
,
1001
0000
0000
0000
,
0100
1000
0100
0000
0010
0001
0010
0000
,
0101
0000
1010
1010
0000
0000
0000
0000
,
0100
0001
0100
0000
0010
1000
0010
0000
,
1100
0000
0011
0011
0000
0000
0000
0000
,
1000
0000
1000
0100
0100
0000
1001
0000
,
0001
0000
0001
0100
0100
0000
0000
0000
,
1000
0001
0100
0000
0001
1000
0010
0000
,
1000
0001
0010
0000
0001
1000
0100
0000
,
1000
1000
1000
1000
,
0001
0001
0001
0001
,
0100
0010
0100
0000
0001
1000
0001
0000
,
0010
0001
0100
0000
0010
1000
0100
0000
,
0010
0000
0100
0000
0001
0001
0001
0000
,
0010
0000
0100
0000
1000
1000
1000
0000
,
0001
0010
0001
0000
0010
1000
0010
0000
,
1000
0100
1000
0000
0100
0001
0100
0000
,
2002
0000
0000
0000
,
0000
0000
3003
0000
;

//---------------dance-single - ----------------
#NOTES:
     dance-single:
     :
     Easy:
     3:
     0.228,0.267,0.080,0.008,0.000:
0000
0000
0000
0000
,
0000
0000
0000
0000
,
0000
0000
0000
0000
,
0000
0000
0000
0000
,
1000
0000
0100
0000
,
0010
0000
0001
0000
,
0100
0000
0010
0000
,
1000
1000
0001
0001
,
0100
1000
0100
1000
,
0001
0000
1001
0000
,
0100
0001
0100
0001
,
1000
0000
1001
0000
,
0001
0000
1000
1000
,
0010
0000
0100
0100
,
0001
0100
0001
0100
,
0100
1000
0100
1000
,
0001
0000
0100
0010
,
0001
0000
1001
0000
,
0100
1000
0100
0000
,
0010
0001
0001
0000
,
0001
0100
0010
0000
,
1000
0100
0010
0000
,
0001
0001
1000
0000
,
1000
1000
0001
0000
,
1000
0100
0100
0100
,
1001
0000
0000
0000
,
0001
0100
0100
0100
,
1001
0000
0000
0000
,
0001
0000
0100
0000
,
1000
0000
0100
0000
,
0010
0001
1000
0100
,
0010
0010
0010
0010
,
0001
0100
1000
0100
,
0010
0100
0100
0000
,
1000
0100
0001
0100
,
0010
0100
0100
0000
,
0001
1000
0001
1000
,
0010
0100
0010
0100
,
0001
0010
1000
0010
,
0010
0001
0100
1000
,
0001
0000
1000
0000
,
0100
0000
0010
1001
,
1000
0000
0001
0000
,
0100
0000
0010
1001
,
0100
0000
0101
0000
,
1000
0000
1100
0000
,
0010
0001
0001
1000
,
0010
1000
1000
0001
,
1001
0000
0000
0000
,
0001
0100
1000
0100
,
0010
0100
0100
0000
,
1000
0100
0001
0100
,
0010
0100
0100
0000
,
0001
1000
0001
1000
,
0010
0100
0010
0100
,
0001
0001
0100
0001
,
1000
1000
0100
1000
,
0001
0000
1000
0000
,
0100
0100
0100
0000
,
0010
0000
0100
0000
,
0001
0001
0001
0000
,
1000
0000
0001
0000
,
1000
1000
1000
0000
,
0010
0001
1000
0100
,
0010
0001
0100
1000
,
0002
0000
0000
0000
,
0000
0000
0003
0000
;

//---------------dance-single - ----------------
#NOTES:
     dance-single:
     :
     Beginner:
     1:
     0.116,0.156,0.080,0.000,0.000: // measure 1
0000
0000
0000
0000
,  // measure 2
0000
0000
0000
0000
,  // measure 3
0000
0000
0000
0000
,  // measure 4
0000
0000
0000
0000
,  // measure 5
1000
0000
0000
0000
,  // measure 6
0001
0000
0000
0000
,  // measure 7
0010
0000
0000
0000
,  // measure 8
1000
1000
0000
0000
,  // measure 9
0001
0000
0000
0000
,  // measure 10
1000
0000
0000
0000
,  // measure 11
0010
0000
0000
0000
,  // measure 12
0100
0000
0000
0000
,  // measure 13
0010
0010
0000
0000
,  // measure 14
0100
0100
0000
0000
,  // measure 15
0001
0001
0000
0000
,  // measure 16
0001
0001
0000
0000
,  // measure 17
0100
0000
0000
0000
,  // measure 18
0100
0000
0000
0000
,  // measure 19
0010
0000
0000
0000
,  // measure 20
0010
0000
0010
0000
,  // measure 21
0100
0000
0000
0000
,  // measure 22
1000
0000
0000
0000
,  // measure 23
1000
0000
0000
0000
,  // measure 24
0001
0000
0001
0000
,  // measure 25
1000
0000
0010
0000
,  // measure 26
1000
0000
1000
0000
,  // measure 27
0001
0000
0010
0000
,  // measure 28
0001
0000
0001
0000
,  // measure 29
1000
0000
0000
0000
,  // measure 30
1001
0000
0000
0000
,  // measure 31
0001
0000
0000
0000
,  // measure 32
1001
0000
0000
0000
,  // measure 33
0001
0000
0000
0000
,  // measure 34
1000
0000
0000
0000
,  // measure 35
0010
0000
0000
0000
,  // measure 36
0100
0000
0000
0000
,  // measure 37
0001
0001
0000
0000
,  // measure 38
1000
1000
0000
0000
,  // measure 39
0010
0010
0000
0000
,  // measure 40
0010
0010
0000
0000
,  // measure 41
1001
0000
0000
0000
,  // measure 42
0100
0000
0100
0000
,  // measure 43
1001
0000
0000
0000
,  // measure 44
0010
0000
0010
0000
,  // measure 45
0001
0001
0000
0000
,  // measure 46
1000
1000
0000
0000
,  // measure 47
0010
0010
0000
0000
,  // measure 48
1001
0000
0000
0000
,  // measure 49
0000
0000
0000
0000
,  // measure 50
1000
0000
0000
0000
,  // measure 51
1000
0000
0000
0000
,  // measure 52
0001
0000
0000
0000
,  // measure 53
0001
0000
0000
0000
,  // measure 54
1000
1000
1000
0000
,  // measure 55
0001
0001
0001
0000
,  // measure 56
0100
0000
0100
0000
,  // measure 57
0010
0000
0010
0000
,  // measure 58
1001
0000
0000
0000
,  // measure 59
1001
0000
0000
0000
,  // measure 60
0001
0001
0000
0000
,  // measure 61
0100
0100
0000
0000
,  // measure 62
1001
0000
0000
0000
,  // measure 63
1001
0000
0000
0000
,  // measure 64
1000
0000
1000
0000
,  // measure 65
0010
0000
0010
0000
,  // measure 66
1001
0000
0000
0000
;
