#TITLE:Flyin' to your Soul;
#SUBTITLE:;
#ARTIST:US-TOM feat. Donna;
#TITLETRANSLIT:;
#SUBTITLETRANSLIT:;
#ARTISTTRANSLIT:;
#CREDIT:;
#BANNER:Flyin' to your Soul-bn.PNG;
#BACKGROUND:Flyin' to your Soul-bg.PNG;
#LYRICSPATH:;
#CDTITLE:;
#MUSIC:Flying to Your Soul.mp3;
#OFFSET:-0.060;
#SAMPLESTART:102.840;
#SAMPLELENGTH:11.980;
#SELECTABLE:YES;
#BPMS:0.000=140.000;
#STOPS:;
#BGCHANGES:;

//---------------dance-single - ----------------
#NOTES:
     dance-single:
     :
     Hard:
     8:
     0.467,0.578,0.215,0.207,0.050: // measure 1
0000
0000
0000
0000
,  // measure 2
0000
0000
0000
0000
,  // measure 3
0000
0000
0000
0000
,  // measure 4
0000
0000
0000
0000
,  // measure 5
1000
1000
0001
0001
,  // measure 6
0010
0010
0100
0100
,  // measure 7
1001
0000
0000
0100
1001
0000
0000
0100
,  // measure 8
1001
0010
0010
0010
,  // measure 9
0001
0000
0000
0001
0000
0000
0001
0000
0100
0000
0010
0000
0100
0000
0010
0000
,  // measure 10
1000
0000
0000
1000
0000
0000
1000
0000
0010
0000
0100
0000
0010
0000
0100
0000
,  // measure 11
0010
0000
0000
0010
0000
0000
0010
0000
1000
0000
0001
0000
1000
0000
0001
0000
,  // measure 12
0100
0000
0000
0100
0000
0000
0100
0000
0001
0000
1000
0000
0001
0000
1000
0000
,  // measure 13
1001
0000
0000
0110
0000
0000
1000
0000
0010
0000
1000
0000
0001
0000
0100
0000
,  // measure 14
0101
0000
0000
1100
0000
0000
0010
0000
1000
0000
0100
0000
0010
0000
0001
0000
,  // measure 15
1100
0000
0000
0101
0000
0000
1000
0000
0010
0000
0100
0000
0001
0000
0100
0000
,  // measure 16
0011
0000
0000
1100
0000
0000
0100
0000
0010
0000
1000
0000
0001
0000
0100
0000
,  // measure 17
0002
0000
1003
0200
0000
0310
0001
1000
,  // measure 18
0100
0100
0100
0110
,  // measure 19
2000
0000
3100
0002
0000
0103
0010
1000
,  // measure 20
0001
0001
0001
1001
,  // measure 21
0020
0000
0130
0002
0000
1003
0100
1000
,  // measure 22
0100
0001
0100
1000
,  // measure 23
0002
0000
0103
0020
0000
1030
0100
0010
,  // measure 24
0001
0001
1000
0001
,  // measure 25
1000
0000
1000
0000
1000
0100
1000
0000
,  // measure 26
0010
0001
0010
0000
1000
0010
1000
0000
,  // measure 27
0001
0000
0001
0000
0001
0100
0001
0000
,  // measure 28
0010
1000
0010
0000
0001
0010
0001
0000
,  // measure 29
0100
0000
0100
0000
0010
0100
0010
0000
,  // measure 30
0001
1000
0001
0000
0010
0001
0100
0000
,  // measure 31
0010
0000
0010
0000
1000
0001
1000
0000
,  // measure 32
0010
0100
0010
0000
0010
1000
0100
0000
,  // measure 33
0002
0000
0000
0100
0000
0100
0000
0103
,  // measure 34
0020
0000
0000
1000
0000
1000
0000
1030
,  // measure 35
0200
0000
0000
0010
0000
0010
0000
0300
,  // measure 36
2000
0001
0001
0000
0000
3001
0000
0000
,  // measure 37
2000
0000
0000
0001
0000
0100
0000
3100
,  // measure 38
0002
0000
0000
1000
0000
0010
0000
0013
,  // measure 39
0200
0000
0000
0001
0000
1000
0000
0300
,  // measure 40
0020
1000
1000
0000
0000
0031
0000
0000
,  // measure 41
1000
0000
0000
1100
0000
0000
1000
0000
0001
0000
1000
0000
0010
0000
0100
0000
,  // measure 42
0001
0000
0000
0101
0000
0000
0001
0000
1000
0000
0001
0000
0100
0000
0010
0000
,  // measure 43
1000
0000
0000
1010
0000
0000
1000
0000
0010
0000
0100
0000
0010
0000
0100
0000
,  // measure 44
0001
0000
0000
0011
0000
0000
0001
0000
0100
0000
0010
0000
0100
0000
0010
0000
,  // measure 45
1000
0000
0001
0000
0010
1000
0100
0000
,  // measure 46
0010
0001
1000
0001
0010
0100
0100
0000
,  // measure 47
0001
0000
1000
0000
0010
1000
0100
0000
,  // measure 48
0010
0001
1000
0100
0010
0010
0010
0000
,  // measure 49
1000
1100
0001
0101
,  // measure 50
0010
1000
0010
1000
0010
1000
0010
0000
,  // measure 51
0001
0011
1000
1010
,  // measure 52
0001
0100
0001
0100
0001
0100
0001
0000
,  // measure 53
0002
0000
0000
0100
0000
0100
0000
0103
,  // measure 54
0020
0000
0000
1000
0000
1000
0000
1030
,  // measure 55
0200
0000
0000
0010
0000
0010
0000
0300
,  // measure 56
2000
0001
0001
0000
0000
3001
0000
0000
,  // measure 57
2000
0000
0000
0001
0000
0100
0000
3100
,  // measure 58
0002
0000
0000
1000
0000
0010
0000
0013
,  // measure 59
0200
0000
0000
0001
0000
1000
0000
0300
,  // measure 60
0020
1000
1000
0000
0000
0031
0000
0000
,  // measure 61
1000
0001
0100
0000
0001
1000
0100
0000
,  // measure 62
0110
0000
0110
0000
0010
0001
1000
0100
,  // measure 63
0010
0001
1000
0000
0010
1000
0001
0000
,  // measure 64
1001
0000
1001
0000
1000
0001
1000
0001
,  // measure 65
0100
0000
0010
0100
0000
0001
1000
0000
,  // measure 66
0010
0001
1000
0010
0001
0010
1000
0000
,  // measure 67
0001
0000
1000
0100
0000
0001
0100
0010
,  // measure 68
0200
0010
0001
0301
,  // measure 69
1000
0100
0001
0100
,  // measure 70
0001
0010
1000
0010
,  // measure 71
1001
0000
0000
0000
;

//---------------dance-single - ----------------
#NOTES:
     dance-single:
     :
     Medium:
     6:
     0.427,0.521,0.339,0.149,0.000:
0000
0000
0000
0000
,
0000
0000
0000
0000
,
0000
0000
0000
0000
,
0000
0000
0000
0000
,
1000
0100
0010
0001
,
0001
0100
0010
1000
,
1001
0000
0000
0010
1001
0000
0000
0000
,
0100
0110
1001
1001
,
0001
0000
0001
0000
0001
1000
0100
0000
,
1000
0000
1000
0000
0010
0100
0001
0000
,
0100
0000
0100
0000
0001
0100
1000
0000
,
1000
0100
0001
0100
1000
0100
0001
0000
,
0001
0000
1000
0000
0010
1000
0100
0000
,
0001
0000
1000
0000
0010
0001
0100
0000
,
0001
0000
1000
0000
0001
1000
0100
0000
,
1000
0100
0001
0100
1000
0100
0001
0000
,
0001
0100
0101
0101
,
1000
0100
1100
1100
,
0010
0100
1001
1001
,
0010
0001
0100
0000
0010
1000
0100
0000
,
0001
0010
0011
0011
,
1000
0010
1010
1010
,
0010
0100
0110
0110
,
0002
1000
1000
1003
,
1000
0000
0100
0000
1000
0100
1000
0000
,
0100
1000
0100
0000
0001
0001
0001
0000
,
0001
0000
0100
0000
0001
0100
0001
0000
,
0100
0001
0100
0000
1000
1000
1000
0000
,
0010
0000
1000
0000
0010
1000
0010
0000
,
1000
0010
1000
0000
0100
0100
0100
0000
,
0001
0000
0010
0000
0001
0010
0001
0000
,
0010
0001
0010
0000
0100
0100
0100
0000
,
2000
3100
0020
0031
,
0200
0310
0002
1003
,
0100
0000
0000
0010
0000
0010
0000
0000
,
0100
0010
0010
0000
0000
1001
0000
0000
,
0102
1003
2010
3001
,
0012
0013
2100
3100
,
0010
0000
0000
0100
0000
0100
0000
0000
,
0010
0100
0100
0000
0000
1001
0000
0000
,
1000
0000
1000
0000
0001
1000
0001
0000
,
0001
0000
0001
0000
0001
1000
0001
0000
,
0100
0010
0001
1000
,
0100
0100
0010
0110
,
0010
0000
0100
0000
0010
0010
0010
0000
,
0100
0100
0100
0000
0010
0100
0010
0000
,
0001
0000
1000
0000
0001
0001
0001
0000
,
1000
1000
1000
0000
0001
1000
0001
0000
,
0010
0101
0010
1100
,
0010
0001
0100
0000
0010
1000
0100
0000
,
1000
0101
0001
1010
,
0100
0001
0010
0000
0100
1000
0010
0000
,
2000
3100
0020
0031
,
0002
0103
0020
1030
,
1001
0000
0000
0001
0000
0001
0000
0000
,
1000
0100
0100
0000
0000
1001
0000
0000
,
0102
0103
1020
1030
,
2100
3100
0012
0013
,
1001
0000
0000
1000
0000
1000
0000
0000
,
0001
0010
0010
0000
0000
1001
0000
0000
,
1000
0001
1001
1001
,
0001
0100
0001
0000
0010
1000
0010
0000
,
0001
1000
1001
1001
,
0001
0010
0001
0000
1000
0100
1000
0000
,
0001
0100
1000
0100
,
0010
0000
0010
0000
0010
1000
0001
0000
,
0001
0010
1000
0010
,
0200
0010
0010
0310
,
0001
0100
0100
0100
,
0010
1000
1000
1000
,
1001
0000
0000
0000
;

//---------------dance-single - ----------------
#NOTES:
     dance-single:
     :
     Easy:
     4:
     0.288,0.405,0.207,0.165,0.000:
0000
0000
0000
0000
,
0000
0000
0000
0000
,
0000
0000
0000
0000
,
0000
0000
0000
0000
,
1000
0000
0001
0000
,
0010
0000
0100
0000
,
1001
0000
0110
0000
,
0001
0001
0001
0001
,
1000
0100
0010
0010
,
0001
0100
0010
0010
,
1000
0100
0100
0100
,
0001
0100
0100
0100
,
0001
1000
0100
0100
,
1000
0001
0100
0100
,
0010
1000
0010
0010
,
0001
0010
0001
0001
,
1000
0000
1100
0000
,
0001
0010
0100
0100
,
0001
0000
0101
0000
,
1000
0010
0100
0100
,
0001
0000
1001
0000
,
0100
0010
1000
0001
,
1000
0000
1001
0000
,
0010
0001
1000
0100
,
1000
0000
1000
1000
,
0001
0000
0001
0001
,
0100
0000
0010
0010
,
0100
0000
0100
0100
,
0001
0010
0100
1000
,
1000
0010
0100
0001
,
0001
0100
1000
0100
,
0001
0010
1000
0010
,
0002
0000
0000
0000
,
2003
0000
0000
0000
,
3020
0000
0000
0000
,
0230
0000
0000
0000
,
0320
0000
0000
0000
,
0230
0000
0000
0000
,
0302
0000
0000
0000
,
2003
0000
0000
0000
,
3001
0001
0001
0100
,
1000
1000
1000
0100
,
0001
0001
0001
0010
,
1000
1000
1000
0010
,
0100
0000
0100
1001
,
0010
0000
1001
1001
,
1000
0000
0100
0110
,
0001
0000
0110
0110
,
1000
0100
0100
1000
,
0001
0100
0100
0001
,
0010
0001
0001
0010
,
0100
1000
1000
0100
,
2100
0000
0000
3001
,
0012
0000
0000
1003
,
1020
0000
0000
0130
,
0201
0000
0000
0310
,
0202
0000
0000
0303
,
2020
0000
0000
3030
,
0022
0000
0000
0033
,
2200
0000
0000
3300
,
1000
0100
0001
0100
,
0010
0010
0100
0100
,
0001
0010
1000
0010
,
0100
0100
0010
0010
,
0001
0001
1000
1000
,
1000
0100
0001
0010
,
1000
1000
0001
0001
,
0001
0100
1000
0010
,
0001
0001
1000
1000
,
1001
0110
0101
1100
,
1001
0000
0000
0000
;

//---------------dance-single - ----------------
#NOTES:
     dance-single:
     :
     Beginner:
     1:
     0.133,0.174,0.066,0.000,0.000:
0000
0000
0000
0000
,
0000
0000
0000
0000
,
0000
0000
0000
0000
,
0000
0000
0000
0000
,
1000
0000
0000
0000
,
0100
0000
0000
0000
,
0001
0000
0000
0000
,
1001
0000
0000
0000
,
0100
0000
0000
0000
,
0010
0000
0000
0000
,
0010
0000
0000
0000
,
0100
0000
0000
0000
,
0001
0000
0000
0000
,
1000
0000
0000
0000
,
1000
0000
0000
0000
,
0001
0000
0000
0000
,
0001
0000
0001
0000
,
0100
0000
0000
0000
,
1000
0000
1000
0000
,
0100
0000
0000
0000
,
0010
0000
0010
0000
,
0001
0000
0000
0000
,
0010
0000
0010
0000
,
1000
0000
0000
0000
,
0001
0001
0000
0000
,
1000
1000
0000
0000
,
0100
0100
0000
0000
,
0010
0010
0000
0000
,
0001
0000
0000
0000
,
1001
0000
0000
0000
,
0100
0000
0000
0000
,
0110
0000
0000
0000
,
1000
0000
0100
0000
,
0100
0000
1000
0000
,
0001
0000
0000
0000
,
0001
0000
0000
0000
,
0010
0000
0001
0000
,
0001
0000
0010
0000
,
1000
0000
0000
0000
,
1000
0000
0000
0000
,
1000
1000
0000
0000
,
0100
0100
0000
0000
,
0010
0010
0000
0000
,
0001
0001
0000
0000
,
0001
0000
1000
0000
,
0100
0000
0010
0000
,
0010
0000
0100
0000
,
1000
0000
0001
0000
,
0100
0000
0010
0000
,
1000
0000
0001
0000
,
0001
0000
1000
0000
,
0010
0000
0100
0000
,
0001
0001
0000
0000
,
0001
0001
0000
0000
,
1000
1000
0000
0000
,
1000
1000
0000
0000
,
0010
0010
0000
0000
,
0100
0100
0000
0000
,
0100
0100
0000
0000
,
0010
0010
0000
0000
,
1000
0000
1000
0000
,
1001
0000
0000
0000
,
0001
0000
0001
0000
,
1001
0000
0000
0000
,
0010
0000
0010
0000
,
0110
0000
0000
0000
,
0100
0000
0100
0000
,
0110
0000
0000
0000
,
0001
0000
1000
0000
,
0001
0000
1000
0000
,
1001
0000
0000
0000
;
