#TITLE:Fire;
#SUBTITLE:;
#ARTIST:2NE1;
#TITLETRANSLIT:;
#SUBTITLETRANSLIT:;
#ARTISTTRANSLIT:;
#CREDIT:YG Entertainment;
#BANNER:Fire-bn.PNG;
#BACKGROUND:Fire-bg.PNG;
#LYRICSPATH:;
#CDTITLE:;
#MUSIC:FIRE.mp3;
#OFFSET:0.087;
#SAMPLESTART:94.555;
#SAMPLELENGTH:11.960;
#SELECTABLE:YES;
#BPMS:0.000=126.000;
#STOPS:70.750=0.040
;
#BGCHANGES:1.000=Fire2.avi=1.000=1=0=1
;

//---------------dance-single - ----------------
#NOTES:
     dance-single:
     :
     Hard:
     8:
     0.443,0.443,0.200,0.148,0.117: // measure 1
0000
0000
0000
0000
,  // measure 2
0000
0000
0000
0000
,  // measure 3
0000
0000
0000
0000
,  // measure 4
0000
0000
0000
0000
,  // measure 5
0000
0000
0000
0000
,  // measure 6
0000
0000
1000
0100
,  // measure 7
1000
0001
0100
0001
,  // measure 8
1000
0100
0010
0001
,  // measure 9
0100
0010
1000
0001
,  // measure 10
1000
0000
0000
0000
1001
0000
0000
0000
1000
0000
0000
0001
0100
0000
0100
0000
,  // measure 11
0010
0000
0000
1000
0010
0000
1000
0000
0001
0000
0100
0000
0000
0000
0001
0000
,  // measure 12
1000
0000
0010
0000
0100
0000
0000
0000
0001
0000
0000
1000
0010
0000
0010
0000
,  // measure 13
0100
0000
0000
0001
0100
0000
0001
0000
1000
0000
0010
0000
1000
0000
1000
0000
,  // measure 14
0001
0000
0100
0000
0010
0000
0100
0000
0001
0000
0000
0001
0010
0000
0000
0000
,  // measure 15
1000
0000
0000
1000
0010
0000
0100
0000
0001
0000
1000
0000
0000
0000
0010
0000
,  // measure 16
0001
0000
0100
0000
0010
0000
0000
0000
1000
0000
0000
1000
0100
0000
0010
0000
,  // measure 17
0001
0000
0000
0100
0001
0000
0000
0000
0010
0000
0000
0000
1100
0000
0000
0000
,  // measure 18
0101
0000
0010
0000
1000
0000
0100
0000
0020
0000
0000
0001
0000
0000
0030
0000
,  // measure 19
1000
0000
0100
0000
0010
0000
0000
0000
1001
0000
0000
1001
0000
0000
1001
0000
,  // measure 20
0000
0001
0100
0000
1000
0000
1000
0000
,  // measure 21
0010
0100
0010
0000
0001
0000
0001
0100
,  // measure 22
0010
0000
1000
0000
2000
0000
0000
0000
3002
0000
0000
1000
0000
0000
0000
0000
,  // measure 23
1003
0000
0001
0000
0100
0000
0000
0000
0101
0000
0000
0101
0000
0000
0101
0000
,  // measure 24
0000
1000
0100
0000
0010
1000
0001
0000
,  // measure 25
0100
0000
0001
0000
1000
0000
0000
0000
1010
0000
0000
1001
0000
0000
0101
0000
,  // measure 26
0000
1001
0010
0010
,  // measure 27
0100
0000
0100
0000
1000
0001
1000
0001
,  // measure 28
0000
0100
0010
1000
0001
0000
0001
0000
,  // measure 29
1000
0000
1000
0000
0010
0100
0010
0100
,  // measure 30
0000
0001
0100
0100
0100
0000
0001
0100
,  // measure 31
0010
0000
0010
1000
0100
1000
0010
1000
,  // measure 32
0000
0001
0001
0001
1000
0000
0100
0010
,  // measure 33
0001
0000
0100
0010
0001
0010
0100
1000
,  // measure 34
0000
0001
0101
0000
0020
0000
1030
0000
,  // measure 35
0200
0000
0000
0000
0301
0000
0000
0000
0010
0000
1000
0010
0000
1000
0010
0000
,  // measure 36
0000
0001
0001
0000
0002
0000
0013
0000
,  // measure 37
2000
0000
0000
0000
3100
0000
0000
0000
0010
0000
0001
0010
0000
0001
0010
0000
,  // measure 38
0000
0000
0001
0000
1000
0000
0000
0000
0010
0000
0100
0010
0100
0000
0010
0000
,  // measure 39
0001
0000
1000
0000
0100
0000
0000
0000
0001
0000
1000
0001
1000
0000
0001
0000
,  // measure 40
0100
0000
0010
0000
1000
0000
0000
0000
0010
0000
1000
0100
1000
0000
0001
0000
,  // measure 41
1000
0000
0100
0000
0001
0000
0000
0000
0100
0010
0000
0001
0000
1000
0000
0001
,  // measure 42
0100
0000
0010
0000
1000
0000
0000
0000
0001
0000
0000
1000
0000
0000
0100
0000
,  // measure 43
0010
0000
0100
0000
1001
0000
0010
0001
,  // measure 44
1000
0000
0100
0000
0100
0000
0000
0000
0100
0000
0000
0010
0000
0000
0001
0000
,  // measure 45
1000
0000
0001
0000
1000
0100
0001
0100
,  // measure 46
1000
1000
1000
0000
0002
0000
2003
0000
,  // measure 47
3010
1000
0100
0000
2000
0000
3002
0000
,  // measure 48
0013
0001
0100
0000
0020
0000
1000
0000
,  // measure 49
0100
0130
0020
0001
,  // measure 50
0001
0000
0130
0000
1000
0001
1000
0100
,  // measure 51
1000
0001
1000
0100
1001
0000
0010
0100
,  // measure 52
0000
0100
0010
0000
0001
1000
0001
0100
,  // measure 53
0001
1000
0001
0100
1001
0000
0001
1000
,  // measure 54
0000
1000
0001
0000
1100
0000
0011
0000
,  // measure 55
0010
0001
0100
0000
0101
0000
1010
0000
,  // measure 56
0010
1000
0100
0000
0010
0001
0100
1000
,  // measure 57
0010
0001
0010
1000
0100
0000
0001
1000
,  // measure 58
0000
0010
0100
0000
0002
0000
1003
0000
,  // measure 59
0020
0000
0130
0000
1001
0000
0010
0100
,  // measure 60
0001
1000
0001
0000
0010
0000
0100
0000
2200
0000
0000
0000
0000
0000
0000
0000
,  // measure 61
3300
0000
0000
0000
;

//---------------dance-single - ----------------
#NOTES:
     dance-single:
     :
     Medium:
     5:
     0.340,0.339,0.148,0.122,0.000:
0000
0000
0000
0000
,
0000
0000
0000
0000
,
0000
0000
0000
0000
,
0000
0000
0000
0000
,
0000
0000
0000
0000
,
0000
0000
1000
1000
,
0001
0001
1000
1000
,
0001
1001
0010
0010
,
0100
0100
0010
0010
,
0100
0110
1000
0100
,
1000
0001
0100
0001
,
1000
0001
1000
0000
0010
0000
1000
0000
,
0010
0001
1000
1001
,
0010
0100
0010
0000
0001
0000
0100
0000
,
1000
0001
0100
0001
,
0100
0001
0100
0000
0100
0000
1000
0000
,
0001
0100
0010
0010
,
0010
1000
0002
0000
,
1003
0000
0100
0000
0010
0001
0010
0001
,
0000
0100
0010
1000
,
0001
0000
0001
0100
1000
0000
1000
0100
,
0001
0001
2000
0000
,
3001
0000
0100
0000
0010
1000
0010
1000
,
0000
0001
0100
0010
,
1010
1000
0010
0100
,
0101
1001
0010
0010
,
0001
0100
0001
0000
0010
0000
0010
0000
,
1000
0100
1000
0000
0001
1000
0001
0000
,
1000
0001
1000
0000
0100
0000
0010
0000
,
1000
0001
1000
1000
,
0010
0001
0010
0000
0001
0000
0001
0000
,
1000
0010
1000
0000
0010
0100
0010
0000
,
0100
0010
0100
0000
0001
0000
1000
0000
,
0010
0100
2000
0000
,
3001
0000
0001
0000
0010
1000
0001
0000
,
0010
0001
1000
0000
0002
0000
0000
0000
,
1003
0000
1000
0000
0100
0001
1000
0000
,
0100
1000
0001
0000
1100
0000
0101
0000
,
0010
0100
0011
1010
,
0010
0100
1001
1001
,
0010
0000
1000
0000
0010
0001
0100
0000
,
0010
1000
0100
0000
2000
0000
3001
0000
,
0020
0130
0010
0001
,
0100
1000
0002
0013
,
2000
3100
0010
1000
,
0100
0001
1000
1000
,
0001
0101
0001
0001
,
1000
1100
0020
0000
,
0100
0130
0002
0000
,
1003
0000
1001
0000
1000
0100
1000
0000
,
1000
0100
1000
0000
0001
0000
0001
0000
,
0010
0000
0010
0000
0001
0100
0001
0000
,
0001
0100
0001
0000
1000
0000
1000
0000
,
0100
0000
0100
0000
1000
0100
0001
0000
,
0001
0000
0001
0000
0001
0100
1000
0000
,
1000
0000
1000
0000
0010
1000
0010
0000
,
0001
0100
0001
0000
0010
0001
0010
0000
,
1000
0100
1000
0000
0002
0000
1003
0000
,
2000
3001
0110
1000
,
0001
0100
0010
0000
0220
0000
0000
0000
,
0330
0000
0000
0000
;

//---------------dance-single - ----------------
#NOTES:
     dance-single:
     :
     Easy:
     3:
     0.240,0.313,0.078,0.122,0.000:
0000
0000
0000
0000
,
0000
0000
0000
0000
,
0000
0000
0000
0000
,
0000
0000
0000
0000
,
0000
0000
0000
0000
,
0000
0000
1000
1000
,
0000
0001
0000
0010
,
0010
0000
0001
0001
,
0000
0100
0000
0010
,
0010
0010
1000
0000
,
0001
0000
1000
0000
,
0010
0001
0100
0000
,
0100
0000
0001
1000
,
0100
0100
1000
0000
,
0001
0000
0100
0000
,
0010
1000
0100
0000
,
0001
0000
1000
1001
,
1001
0001
0200
0000
,
0301
0000
0001
1000
,
0100
0000
0001
0001
,
0001
0000
1000
1000
,
1000
0100
0002
0000
,
1003
0000
0010
0100
,
0010
0000
0100
0100
,
0100
0000
0010
0001
,
1000
0100
0001
0001
,
0001
0100
0010
0010
,
0010
0000
1000
1000
,
1000
0100
0010
0010
,
0010
0001
1001
0100
,
0010
0010
1000
0100
,
1000
0000
0001
0001
,
0001
1000
0010
0100
,
0001
0000
2000
0001
,
0000
3001
0100
0010
,
1000
0000
0002
1000
,
0000
1003
0100
0001
,
0010
0000
1000
1000
,
0010
0000
0001
0001
,
0010
0000
0100
0100
,
0010
0000
0001
1000
,
0010
0110
2000
0000
,
0000
0000
3002
0000
,
0000
0000
0203
0000
,
0000
0000
0320
0000
,
0000
0030
1000
0100
,
0001
1001
0001
0100
,
1000
1001
0010
0000
,
0100
0000
0001
1000
,
1000
0001
1000
1000
,
1000
1000
0001
0100
,
1000
0100
0001
0001
,
0001
0001
0001
0010
,
1000
0010
0100
0010
,
0001
1001
0010
0100
,
1000
1001
2000
3100
,
0002
0103
0002
0013
,
2000
3010
0010
0001
,
0100
1000
0010
1000
,
0100
0001
2002
0000
,
3003
0000
0000
0000
;

//---------------dance-single - ----------------
#NOTES:
     dance-single:
     :
     Beginner:
     1:
     0.115,0.181,0.035,0.000,0.000:
0000
0000
0000
0000
,
0000
0000
0000
0000
,
0000
0000
0000
0000
,
0000
0000
0000
0000
,
0000
0000
0000
0000
,
0000
0000
1000
0000
,
0000
0000
1000
0000
,
0000
0000
0001
0000
,
0000
0000
0001
0000
,
0000
0000
0010
0000
,
0000
0000
0010
0000
,
0000
0000
0100
0000
,
0000
0000
0100
0000
,
0000
0000
1000
0000
,
0000
0000
0001
0000
,
0000
0000
0010
0000
,
0000
0000
0100
0000
,
0100
0000
1000
0000
,
0000
0000
0001
0000
,
0000
0000
0010
0000
,
0000
0000
0100
0100
,
0000
0000
0001
0000
,
0000
0000
1000
0000
,
0000
0000
0100
0000
,
0000
0000
0010
0010
,
0000
0000
1000
0000
,
1000
0000
0010
0000
,
0100
0000
0001
0000
,
0001
0000
0010
0000
,
0100
0000
1000
0000
,
0000
0000
0001
0000
,
0000
0000
0010
0000
,
0000
0000
0100
0000
,
0000
0000
1000
1000
,
0000
0000
0001
0001
,
0001
0000
0001
0000
,
0000
0000
1000
1000
,
1000
0000
0001
0000
,
1001
0000
1000
0000
,
1001
0000
0010
0000
,
0100
0000
0010
0000
,
0110
0000
0010
0000
,
0000
0000
0001
0000
,
0000
0000
1000
0000
,
0000
0000
0100
0000
,
0000
0000
0010
0000
,
1000
0000
0001
0000
,
0100
0000
0010
0010
,
0000
0000
0100
0100
,
0000
0000
1000
0000
,
1000
1000
0001
0000
,
0001
0000
0010
0000
,
0010
0010
0100
0000
,
0100
0000
0100
0000
,
0001
0000
0010
0000
,
1000
0000
0010
0000
,
0001
0000
1000
1000
,
1000
0000
0100
0000
,
0010
0000
0100
0100
,
0100
0000
1001
0000
;
